#VERSION:0.83;
#TITLE:Despacito (Remix);
#ARTIST:Luis Fonsi & Daddy Yankee feat. Justin Bieber;
#GENRE:Reggaeton;
#BANNER:Despacito (Remix).png;
#BACKGROUND:Despacito (Remix)-bg.png;
#JACKET:Despacito (Remix)-jacket.png;
#MUSIC:Despacito (Remix).ogg;
#OFFSET:-0.922;
#SAMPLESTART:18.42;
#SAMPLELENGTH:15;
#BPMS:0=89;

//---------------dance-single - RIME-bSP----------------
#NOTEDATA:;
#CHARTNAME:RIME-bSP;
#STEPSTYPE:dance-single;
#DESCRIPTION:RIME-bSP;
#DIFFICULTY:Beginner;
#METER:1;
#RADARVALUES:0.050484,0.071717,0.020788,0.041575,0,34,32,2,4,0,0,0,0,0,0.050484,0.071717,0.020788,0.041575,0,34,32,2,4,0,0,0,0,0;
#CREDIT:RIME;
#NOTES:
0000
0000
0000
0000
,
0000
0000
0000
0000
,
0000
0000
0000
0000
,
1001
0000
0000
0000
,
1000
0000
0000
0000
,
0001
0000
0000
0000
,
0002
0000
0003
0000
,
0010
0000
0000
0000
,
0010
0000
0000
0000
,
0100
0000
0000
0000
,
0200
0000
0300
0000
,
1000
0000
0000
0000
,
0001
0000
0000
0000
,
1000
0000
0000
0000
,
0001
0000
0000
0000
,
0010
0000
0000
0000
,
0100
0000
0000
0000
,
0010
0000
0000
0000
,
0200
0000
0300
0000
,
0110
0000
0000
0000
,
0010
0000
0000
0000
,
0001
0000
0000
0000
,
0001
0000
0000
0000
,
1000
0000
0000
0000
,
1000
0000
0000
0000
,
0100
0000
0000
0000
,
0100
0000
0000
0000
,
1000
0000
0000
0000
,
0001
0000
0000
0000
,
1000
0000
0000
0000
,
0001
0000
0000
0000
,
0100
0000
0000
0000
,
0010
0000
0000
0000
,
0100
0000
0000
0000
,
0020
0000
0030
0000
;

//---------------dance-single - RIME-BSP----------------
#NOTEDATA:;
#CHARTNAME:RIME-BSP;
#STEPSTYPE:dance-single;
#DESCRIPTION:RIME-BSP;
#DIFFICULTY:Easy;
#METER:4;
#RADARVALUES:0.200452,0.236459,0.093544,0.280633,0,135,126,9,27,0,0,0,0,0,0.200452,0.236459,0.093544,0.280633,0,135,126,9,27,0,0,0,0,0;
#CREDIT:RIME;
#NOTES:
0000
0000
0000
0000
,
0000
0000
0000
0000
,
0000
0000
2000
3002
,
0013
0001
0100
0001
,
0010
0100
1000
0100
,
1000
0010
0100
0010
,
1000
0001
0020
0230
,
1300
0100
0010
0100
,
0010
0001
0100
0001
,
1000
0100
0010
0100
,
0010
0001
2000
3002
,
0103
0100
0001
1000
,
0100
0100
1000
0001
,
0010
0010
0001
1000
,
0010
1010
0011
1010
,
0010
0010
1000
0001
,
0010
0010
0001
1000
,
0100
0100
1000
0001
,
0020
0100
0031
0000
,
0012
0103
0012
0103
,
2001
3100
2001
3100
,
1000
0000
0100
0000
0220
0330
0000
0000
,
0010
0000
0001
0000
0202
0303
0000
0000
,
0100
0010
1000
1000
,
0100
0010
0001
0001
,
1000
0001
0010
0010
,
0100
1000
0001
0002
,
0103
2000
3100
0002
,
0013
2000
3010
1000
,
1000
0001
0001
0010
,
0010
0100
0100
2000
,
3100
0002
0103
2000
,
3010
0002
0013
0001
,
0200
0000
0010
0310
,
0020
0000
2030
3020
,
0130
0000
0000
0000
;

//---------------dance-single - RIME-DSP----------------
#NOTEDATA:;
#CHARTNAME:RIME-DSP;
#STEPSTYPE:dance-single;
#DESCRIPTION:RIME-DSP;
#DIFFICULTY:Medium;
#METER:7;
#RADARVALUES:0.293997,0.310321,0.093544,0.103938,0.010394,198,189,9,10,0,0,0,0,0,0.293997,0.310321,0.093544,0.103938,0.010394,198,189,9,10,0,0,0,0,0;
#CREDIT:RIME;
#NOTES:
0000
0000
0000
0000
,
0000
0000
0000
0000
,
0000
0000
2000
3002
,
0013
0010
0001
0000
1000
0000
0010
0100
,
0001
0000
1000
0000
0001
0000
0010
0100
,
1000
0000
0010
0000
0010
0000
0100
0001
,
1000
1000
0002
2003
,
3010
0010
1000
0000
0001
0000
0100
0010
,
1000
0000
0001
0000
1000
0000
0100
0010
,
0001
0000
0010
0000
0010
0000
0100
1000
,
0001
0100
1000
0100
,
0010
1000
0001
0000
0010
0001
2000
0000
,
3100
0000
0100
0000
1000
0100
0010
0001
,
0100
0000
0100
0000
0001
0100
0010
1000
,
0100
1100
0101
1100
,
1000
0010
0001
0000
0001
0010
1000
0000
,
0001
1000
0100
0000
1000
0001
0100
0000
,
0010
0000
0010
0000
1000
0100
0010
0001
,
0200
0000
0001
0000
0310
0100
0001
1000
,
0100
0100
0100
0000
1000
1000
1000
0000
,
0001
0001
0001
0000
0100
0100
0100
0000
,
0010
1000
0001
1000
0010
0010
0100
0000
,
0010
1000
0001
1000
0100
0100
0010
0000
,
0001
0010
0001
0100
0010
0010
1000
0000
,
1000
0010
1000
0100
0010
0010
0001
0000
,
0100
0001
0100
0010
1000
1000
0001
0000
,
0010
0001
0010
0100
1000
1000
0001
0000
,
0100
1000
0100
0000
0100
0001
0100
0000
,
0010
1000
0010
0000
0010
0001
0010
0000
,
1000
0010
0100
0000
0001
0100
0010
0000
,
1000
0100
0010
0000
0001
0010
0100
0000
,
0000
1100
0000
0011
0000
1100
0000
2000
,
3001
1001
0000
0110
0000
1001
0000
0002
,
0013
0000
0001
0000
1000
0000
0100
0000
0010
0000
0010
0000
0000
0001
0000
0000
,
0000
1000
0000
0000
0010
0000
0100
0000
0002
0000
0000
0000
2003
0000
0000
0000
,
3010
0010
0000
0000
0000
0000
0000
0000
;

//---------------dance-single - Talkion-ESP----------------
#NOTEDATA:;
#CHARTNAME:Talkion-ESP;
#STEPSTYPE:dance-single;
#DESCRIPTION:Talkion-ESP;
#DIFFICULTY:Hard;
#METER:12;
#RADARVALUES:0.547903,0.584133,0.249452,0.228664,0.654811,369,345,24,22,0,0,0,0,0,0.547903,0.584133,0.249452,0.228664,0.654811,369,345,24,22,0,0,0,0,0;
#CREDIT:Talkion;
#NOTES:
0000
0000
0000
0000
,
0000
0000
0000
0000
,
0000
0000
0200
0302
,
1003
0000
0000
1000
0100
0000
0010
0001
0010
0001
0100
0010
1000
0000
0100
0010
,
0100
0000
0000
0100
1000
0000
0010
0100
0010
0100
0001
1000
0100
0000
0010
0001
,
0010
0000
0000
0010
0100
0000
0001
0100
0010
0001
0010
0001
0100
0000
0010
1000
,
0010
0000
0000
0010
0100
0000
0010
1000
0200
0000
0000
0000
2300
0000
0000
0000
,
3001
0000
0000
0001
0100
0000
0010
1000
0010
1000
0100
0010
0001
0000
0100
0010
,
0100
0000
0000
0100
0001
0000
1000
0100
1000
0100
0001
0100
0010
0000
0001
1000
,
0001
0000
0000
0001
0100
0000
0010
0001
0010
1000
0010
1000
0100
0000
0010
0100
,
0010
0000
0000
0010
0001
0000
0010
0100
1000
0000
0110
0000
1001
0000
0000
0000
,
0001
0010
0001
0010
2000
0000
3010
0001
0000
0001
0100
0010
0200
0000
0301
0000
,
1000
0000
0000
1000
0100
0000
1000
0000
0001
0100
0001
0100
0010
0000
1000
0100
,
0010
0000
0000
0010
0100
0000
1000
0000
0010
0100
0010
0100
1000
0000
0100
0001
,
0010
0000
0000
0010
0100
0000
1000
0000
0001
1000
0001
1000
0010
0000
0000
0000
,
0100
0001
0100
0001
1000
0100
0002
0000
0103
1000
0000
1000
0010
0100
0020
0000
,
0130
0000
0000
0100
0001
0000
1000
0000
0100
0010
0100
0010
0001
0000
0100
0010
,
1000
0000
0000
1000
0010
0000
0100
0000
0001
0010
0001
0010
0100
0000
0001
0100
,
1000
0000
0000
1000
0010
1000
0010
0000
0000
0000
0000
0000
0110
0000
0000
0000
,
0011
0000
0000
0001
0100
0010
0100
0010
0101
0000
0010
1000
0010
1000
0100
0000
,
1100
0000
0000
1000
0010
0100
0010
0100
1010
0000
0100
0001
0100
0001
0010
0000
,
1001
0000
0100
0001
0100
1000
0100
0000
1001
0000
1001
0000
0000
0000
0100
0000
,
1001
0000
0010
0001
0010
1000
0010
0000
1001
0000
1001
0000
0000
0000
0000
0000
,
0001
0010
1000
0010
0001
1000
0001
0100
0010
0000
1000
0100
0110
0000
0110
0000
,
1000
0010
0001
0010
1000
0001
1000
0100
0010
0000
0001
0100
0110
0000
0110
0000
,
0001
0010
0100
1000
0001
0100
1000
0100
0001
0000
1000
0001
1001
0000
1001
0000
,
0100
0000
0010
0001
0100
0000
0010
1000
0100
0000
0000
0000
0110
0000
0000
0000
,
1002
0000
0103
0010
1000
0100
0010
0100
2000
0000
3010
0100
0001
0010
0100
0010
,
0002
0000
0103
1000
0100
0001
0010
0100
1001
0000
0100
1000
0010
0000
0100
0000
,
0210
0000
0301
0010
0100
1000
0010
0100
0020
0000
1030
0100
0010
0001
0100
0010
,
0200
0000
0301
1000
0100
0001
0100
0010
1002
0000
0000
0000
0103
0000
0000
0000
,
0100
0000
0010
1000
0100
0000
0010
0001
0100
0000
1000
0100
0001
0000
2000
0000
,
3100
0000
0010
0001
0100
0000
0010
1000
0100
0000
0001
0100
2000
0000
3010
0000
,
0200
0000
0000
0000
0000
0000
0000
0000
0301
0010
0100
0001
1000
0010
0100
2000
,
0000
0000
3020
0230
,
0302
1003
0000
0000
0000
0000
0000
0000
;

//---------------dance-single - RIME-CSP----------------
#NOTEDATA:;
#CHARTNAME:RIME-CSP;
#STEPSTYPE:dance-single;
#DESCRIPTION:RIME-CSP;
#DIFFICULTY:Challenge;
#METER:14;
#RADARVALUES:0.650356,0.675404,0.218270,0.176695,1.060170,438,417,21,17,0,0,0,0,0,0.650356,0.675404,0.218270,0.176695,1.060170,438,417,21,17,0,0,0,0,0;
#CREDIT:RIME;
#NOTES:
0000
0000
0000
0000
,
0000
0000
0000
0000
,
0000
0000
0000
0000
0000
0000
0000
0000
0000
0000
0000
0000
0000
0000
0000
0000
0000
0000
0000
0000
1000
0000
0001
0000
0200
0000
0000
0000
0000
0000
0000
0000
0000
0310
0000
0000
0200
0000
0000
0000
0000
0000
0000
0000
0000
0301
0000
0000
,
0100
0000
0110
0000
0010
0010
1000
0001
0010
0100
0010
0001
0100
0000
0100
0010
,
0000
1000
0000
0000
0001
0001
0010
0100
0010
0001
0010
0001
1000
0000
0010
0100
,
0000
0001
0000
0000
1000
1000
0100
0001
0100
0010
0100
0010
0001
0000
1000
0010
,
0000
0200
0301
0100
0010
0000
0100
0000
0120
0000
0000
0000
2030
0000
0000
0000
,
3001
0000
1001
0000
1000
1000
0100
0010
0100
1000
0010
0100
0001
0000
0001
1000
,
0000
0000
0000
0100
0000
0000
0000
0000
0000
0000
0000
0000
0010
0000
0000
0000
0010
0000
0001
0000
0000
0100
0000
0000
0010
0000
0000
0010
0000
0000
1000
0000
0000
0001
0000
0000
0020
0000
0000
0130
0000
0000
0010
0000
0000
0001
0000
0000
,
0000
0000
1000
0000
0000
0000
0000
0000
0010
0000
0100
0010
0100
0000
0001
0000
1000
0000
1000
0000
0100
0000
0001
0000
0100
0000
0010
0000
0000
0000
0001
0000
,
0000
0100
0010
1000
0010
0100
0010
0001
0000
0000
0010
0100
0020
1030
0000
0000
,
1010
0000
0000
0010
0000
0000
0100
0000
0000
0001
0000
0000
1000
0000
0000
0000
0000
0000
0100
0000
0000
1000
0000
0000
0000
0000
0000
1000
0000
0000
0100
0000
0000
0000
0001
0000
0000
0000
0000
0100
0000
0000
0000
0000
0100
0000
0000
0000
,
0010
0001
0010
0100
0000
0010
0100
2000
3001
1000
0100
0010
0000
0010
0001
0100
,
0000
0001
0100
1000
0000
1000
0100
0000
0010
0010
1000
0001
0000
0010
0100
0010
,
0000
0000
0001
0000
0000
0000
1000
0000
0001
0000
0000
0010
0001
0000
0100
0000
0010
0000
0000
1000
0010
0000
0100
0000
0001
0000
0000
0000
1001
0000
0000
0000
,
0011
0000
0000
0000
0000
0000
0000
0000
0000
0000
0000
0000
0010
0000
0000
0000
0000
0000
0000
0000
0000
0000
0000
0000
0100
0000
0000
0000
0000
0000
0000
0000
0000
0000
0000
0000
1000
0000
0000
0000
0000
0000
0000
0000
0000
0000
0000
0000
0001
0000
0000
0000
0000
0000
0000
0000
0000
0000
0000
0000
0100
0000
0000
0000
0000
0000
0000
0000
0000
0000
0000
0000
0020
0000
0000
0000
0000
0000
0000
0000
0000
0000
0000
0000
0000
0000
0000
0000
0000
0000
0000
0000
0000
0000
0000
0000
0000
0000
0000
0000
0000
0000
0000
0000
0000
0000
0000
0000
1030
0000
0000
0000
0000
0000
0000
0000
0000
0000
0000
0000
0010
0000
0000
0000
0000
0000
0000
0000
0000
0000
0000
0000
0000
0000
0000
0000
0001
0000
0000
0000
0000
0000
0000
0000
0000
0000
0000
0000
0000
0000
0000
0000
0000
0000
0000
0000
0010
0000
0000
0000
0000
0000
0000
0000
0000
0000
0000
0000
0000
0000
0000
0000
0000
0000
0100
0000
0000
0000
0000
0000
0000
0000
0000
0000
0000
0000
0000
0000
0000
0000
0000
0000
,
0001
0000
1000
0000
0100
0000
0010
0000
0000
0000
0010
0000
0100
0000
2000
0000
3010
0000
1000
0000
0001
0000
0010
0000
0100
0000
0000
0010
0000
0000
0001
0000
,
0000
1000
0010
0100
0000
0010
1000
0000
0001
0001
0010
0100
0000
0010
0001
0200
,
0010
0310
0100
0001
1000
0100
0010
0000
0001
0010
0010
0010
0001
1000
0010
0100
,
0101
0000
0001
1000
0000
0000
0100
0000
0010
0000
0100
0000
1000
0000
0001
0000
0011
0000
0001
1000
0000
0000
0100
0000
0100
0000
0010
0000
0100
0000
1000
0000
,
1100
0000
1000
0001
0000
0000
0010
0000
0100
0000
0010
0000
0001
0000
1000
0000
1010
0000
1000
0001
0000
0000
0000
0000
0010
0000
0010
0000
0001
0000
0010
0000
,
0100
1000
0001
0100
1000
0100
0001
0010
0110
0000
0110
0000
0100
0100
1000
0100
,
0010
0001
1000
0010
0001
0010
0100
0001
1001
0000
1001
1000
0100
0100
0010
0100
,
1000
0000
0010
0000
0001
0000
0010
0000
0100
0000
0001
0000
0010
0000
1000
0000
1020
0000
0000
0000
0130
0000
0000
0000
0010
0100
0000
0010
0100
0000
0010
0100
,
0010
0001
0100
0010
0001
0010
1000
0001
1002
0000
0103
0000
0001
0010
0100
1000
,
0001
0010
0010
0100
0020
0031
0010
0001
0100
0000
0010
0000
0100
0100
0001
1000
,
0100
0000
0010
0100
0010
0000
0100
0000
0100
0000
0000
1000
0000
0000
1000
0000
0001
0000
0000
0000
0100
0000
0001
0000
0010
0000
0000
0000
0010
0000
0001
0000
,
0100
0000
0100
0000
0001
0010
0001
0010
0100
0000
0100
0000
0010
0001
0010
0001
,
0100
0000
0010
0100
0001
0000
0010
0001
0100
0000
0100
0000
0010
0100
0001
1000
,
0100
0000
0001
0000
0100
0010
0001
1000
0100
0000
0010
0000
0100
0100
1000
0001
,
0010
0000
0010
0001
0000
0010
0100
1000
0010
0000
0001
0010
0001
0000
0010
1000
,
0100
0000
0110
0000
0010
0001
0010
0001
1000
0000
1010
0000
0010
0001
0010
0100
,
0001
0000
0000
0000
1001
0000
1000
0000
0100
0000
0000
0000
1100
0000
0200
0000
0000
0000
0310
0000
0100
0000
0010
0000
0001
0000
0000
0001
0000
0000
1000
0000
,
0000
0000
0001
0000
0010
0000
0100
0000
1000
0000
0100
0000
0010
0000
0001
0000
0100
0000
0010
0100
0010
0000
0100
0000
0000
0000
0001
0000
0000
1000
0000
0000
,
0100
0010
0000
0010
0100
0010
0001
0000
2001
0000
0000
0000
3020
0000
0000
0000
,
0100
0130
0000
0000
0000
0000
0000
0000
;

//---------------dance-double - RIME-BDP----------------
#NOTEDATA:;
#CHARTNAME:RIME-BDP;
#STEPSTYPE:dance-double;
#DESCRIPTION:RIME-BDP;
#DIFFICULTY:Easy;
#METER:4;
#RADARVALUES:0.163331,0.163703,0,0.249452,0,110,110,0,24,0,0,0,0,0,0.163331,0.163703,0,0.249452,0,110,110,0,24,0,0,0,0,0;
#CREDIT:RIME;
#NOTES:
00000000
00000000
00000000
00000000
,
00000000
00000000
00000000
00000000
,
00000000
00000000
00020000
00032000
,
00013000
00000000
00001000
00001000
,
00000010
00000000
00000010
00000010
,
00000001
00000000
00000001
00001000
,
00000200
00000000
00020300
00032000
,
00013000
00000000
00010000
00010000
,
00100000
00000000
00100000
00100000
,
10000000
00000000
10000000
00010000
,
02000000
00000000
03002000
00003000
,
00010000
00010000
00010000
00000000
,
00000100
00000100
00000100
00000000
,
01000000
01000000
01000000
00000000
,
00001000
00010000
00010000
00001000
,
00010000
00010000
00010000
00000000
,
00000010
00000010
00000010
00000000
,
00100000
00100000
00100000
00000000
,
00001000
00010000
00010000
00001000
,
02000000
03010000
01000000
00100000
,
20000000
30010000
10000000
01000000
,
00100000
00000000
00100000
00000000
02000000
03000000
00000000
00000000
,
00100000
00000000
00100000
00000000
00000020
00000030
00000000
00000000
,
00001000
00001000
00000002
00000013
,
00000001
00000001
00002000
00003010
,
00001000
00000100
00020000
00031000
,
00010000
00100000
10000000
00010000
,
00200000
01300000
00200000
01300000
,
00100000
00001000
00010000
00000100
,
00000020
00000031
00000020
00000031
,
00000010
00000100
00001000
00000010
,
00020000
00031000
00020000
00031000
,
00010000
00100000
10000000
01000000
,
00200000
00000000
00320000
00000000
,
00032000
00000000
00003020
00000000
,
00000031
00000000
00000000
00000000
;

//---------------dance-double - RIME-DDP----------------
#NOTEDATA:;
#CHARTNAME:RIME-DDP;
#STEPSTYPE:dance-double;
#DESCRIPTION:RIME-DDP;
#DIFFICULTY:Medium;
#METER:7;
#RADARVALUES:0.323693,0.328575,0.207876,0.145514,0.015591,218,198,20,14,0,0,0,0,0,0.323693,0.328575,0.207876,0.145514,0.015591,218,198,20,14,0,0,0,0,0;
#CREDIT:RIME;
#NOTES:
00000000
00000000
00000000
00000000
,
00000000
00000000
00000000
00000000
,
00000000
00000000
00020000
00032000
,
00013000
00001000
00100000
00000000
00010000
00000000
10000000
00010000
,
01000000
00000000
00100000
00000000
10000000
00000000
00010000
00100000
,
00001000
00000000
00000010
00000000
00000100
00000000
00001000
00000010
,
00000200
00000000
00000301
00000100
00002000
00000000
00023000
00000000
,
00031000
00010000
00000100
00000000
00000010
00000000
00000100
00001000
,
00000001
00000000
00000100
00000000
00000010
00000000
00001000
00000001
,
00000100
00000000
00000010
00000000
00001000
00000000
00000100
00010000
,
00001000
00010000
00010000
00010000
00000000
00001000
00001000
00000000
,
00100000
00010000
00100000
00000000
00010000
01000000
00010000
00000000
,
02000000
00000000
00100000
00000000
13000000
01000000
00010000
00000000
,
00200000
00000000
10000000
00000000
00310000
00100000
10000000
00000000
,
00100000
00000000
00101000
00001000
00011000
00010000
00010010
00000000
,
00000010
00001000
00000010
00000000
00001000
00000100
00001000
00000000
,
00000200
00000000
00000010
00000000
00000301
00000100
00001000
00000000
,
00000020
00000000
00000001
00000000
00001030
00000010
00000001
00000000
,
00000010
00001000
00000100
00010000
00000000
00001000
00001000
00001000
,
00101000
00100000
01000000
00000000
11000000
10000000
00010000
00000000
,
01010000
01000000
00001000
00000000
00011000
00010000
00000100
00000000
,
00000010
00000100
00010000
00000100
00000110
00000110
00000000
00000000
,
00000100
00010000
00000010
00010000
00011000
00011000
00001000
00000000
,
00100000
00100000
00010000
00010000
20000000
30100000
10000000
00010000
,
10000000
10000000
01000000
01000000
00200000
01300000
00100000
00010000
,
00100000
00001000
00000010
00001000
00010000
00010000
00000010
00000100
,
00000010
00000000
00000000
00000010
00000000
00000000
00000010
00000000
00001000
00000000
00000001
00000000
00000010
00000000
00000000
00000000
,
00000011
00000000
00000001
00001000
00001010
00000000
00000010
00000100
,
00000101
00000000
00000001
00001000
00001100
00000000
00000100
00010000
,
00002000
00000000
00000000
00103000
00000000
00000000
00001000
00000000
00010000
00000000
00000010
00000000
00000100
00000000
00000100
00000000
,
00000010
00000000
00000000
00010000
00000000
00000000
00001000
00000000
01000000
00000000
00100000
00000000
10000000
00000000
00010000
00000000
,
00110000
00000000
00010000
10000000
10100000
00000000
10000000
00010000
,
01010000
00000000
00010000
10000000
01000000
00010000
00001000
00000100
,
00000001
00000002
00000000
00001003
00000001
00000010
00001000
00010000
,
00100000
20000000
00000000
30010000
10010000
00000000
01100000
00000000
,
01000000
00010000
00000000
00000000
00000000
00000000
00000000
00000000
;

//---------------dance-double - Talkion-EDP----------------
#NOTEDATA:;
#CHARTNAME:Talkion-EDP;
#STEPSTYPE:dance-double;
#DESCRIPTION:Talkion-EDP;
#DIFFICULTY:Hard;
#METER:12;
#RADARVALUES:0.544933,0.584133,0.228664,0.197483,0.654811,367,345,22,19,0,0,0,0,0,0.544933,0.584133,0.228664,0.197483,0.654811,367,345,22,19,0,0,0,0,0;
#CREDIT:Talkion;
#NOTES:
// measure 0
00000000
00000000
00000000
00000000
,  // measure 1
00000000
00000000
00000000
00000000
,  // measure 2
00000000
00000000
00020000
00032000
,  // measure 3
00003100
00000000
00000000
00000100
00000001
00000000
00000100
00001000
00000100
00001000
00010000
00000100
00001000
00000000
00000100
00010000
,  // measure 4
00001000
00000000
00000000
00001000
00100000
00000000
00010000
00100000
00010000
00100000
10000000
00100000
00010000
00000000
00001000
00010000
,  // measure 5
00100000
00000000
00000000
00100000
00010000
00000000
10000000
01000000
10000000
01000000
00010000
00001000
00010000
00000000
00000100
00001000
,  // measure 6
00000100
00000000
00000000
00000100
00010000
00000000
00001000
00000100
00000002
00000000
00000000
00000000
00000023
00000000
00000000
00000000
,  // measure 7
00000130
00000000
00000000
00000100
00010000
00000000
00001000
00010000
01000000
00100000
00010000
10000000
00010000
00000000
01000000
00100000
,  // measure 8
10000000
00000000
00000000
10000000
01000000
00000000
00100000
00001000
00100000
00001000
00010000
00100000
01000000
00000000
00001000
00010000
,  // measure 9
00100000
00000000
00000000
00100000
01000000
00000000
00001000
00010000
00001000
00010000
00000100
00001000
00000010
00000000
00000100
00000001
,  // measure 10
00000010
00000000
00000000
00000010
00000100
00000000
00010000
00001000
00010000
00000000
01100000
00000000
10010000
00000000
00000000
00000000
,  // measure 11
10000000
00100000
10000000
00100000
00020000
00000000
00031000
00000100
00000000
00000100
00000001
00001000
00000001
00000000
00000010
00000100
,  // measure 12
00010000
00000000
00000000
00010000
00001000
00000000
00100000
00000000
00010000
01000000
00010000
01000000
10000000
00000000
01000000
00010000
,  // measure 13
00100000
00000000
00000000
00100000
01000000
00000000
00010000
00000000
00001000
00010000
00001000
00010000
00000100
00000000
00001000
00000010
,  // measure 14
00000100
00000000
00000000
00000100
00000001
00000000
00000010
00000000
00000100
00010000
00000100
00010000
00001000
00000000
00000000
00000000
,  // measure 15
01000000
00010000
01000000
00010000
10000000
01000000
00020000
00000000
00031000
00000010
00000000
00000010
00000001
00001000
00000001
00000000
,  // measure 16
00000100
00000000
00000000
00000100
00001000
00000000
00010000
00000000
00001000
00000010
00001000
00010000
00001000
00000000
00010000
00000000
,  // measure 17
00100000
00000000
00000000
00100000
00010000
00000000
00001000
00000000
00010000
01000000
10000000
01000000
00100000
00000000
00010000
10000000
,  // measure 18
00100000
00000000
00000000
00100000
00010000
00001000
00010000
00000000
00000000
00000000
00000000
00000000
00000110
00000000
00000000
00000000
,  // measure 19
00001001
00000000
00000000
00000001
00001000
00000100
00001000
00000100
00011000
00000000
00010000
01000000
10000000
00010000
01000000
00000000
,  // measure 20
10010000
00000000
00000000
10000000
00010000
00100000
00010000
00100000
00011000
00000000
00001000
00000010
00000001
00001000
00000010
00000000
,  // measure 21
00001001
00000000
00000010
00000100
00001000
00010000
00100000
00000000
01100000
00000000
01100000
00000000
00000000
00000000
00100000
00000000
,  // measure 22
10010000
00000000
01000000
00100000
00010000
00001000
00000100
00000000
00000110
00000000
00000110
00000000
00000000
00000000
00000000
00000000
,  // measure 23
00000001
00000010
00001000
00010000
00001000
00100000
00010000
01000000
00100000
00000000
10000000
00100000
01100000
00000000
01100000
00000000
,  // measure 24
10000000
01000000
00010000
00001000
00010000
00000100
00001000
00000010
00000100
00000000
00000001
00000100
00000110
00000000
00000110
00000000
,  // measure 25
00000001
00000010
00000100
00010000
00001000
00010000
01000000
10000000
00010000
00000000
01000000
00100000
01100000
00000000
01100000
00000000
,  // measure 26
10000000
00000000
01000000
00010000
00001000
00000000
00010000
00001000
00000010
00000000
00000000
00000000
00000110
00000000
00000000
00000000
,  // measure 27
00001002
00000000
00000103
00000010
00010000
00001000
00010000
00001000
00200000
00000000
00310000
10000000
00100000
00010000
00100000
00010000
,  // measure 28
00002000
00000000
00013000
01000000
00010000
00001000
00010000
00001000
00000200
00000000
00000301
00001000
00000100
00000000
00000010
00000000
,  // measure 29
00000120
00000000
00000031
00001000
00000010
00000100
00001000
00010000
00002000
00000000
00013000
01000000
10000000
00010000
10000000
00100000
,  // measure 30
02000000
00000000
03100000
00010000
00001000
00000100
00000010
00001000
00000200
00000000
00000000
00000000
00000310
00000000
00000000
00000000
,  // measure 31
00000001
00000000
00000100
00000010
00001000
00000000
00000100
00010000
00001000
00000000
00100000
00010000
01000000
00000000
00100000
00000000
,  // measure 32
10000000
00000000
01000000
00100000
00010000
00000000
01000000
00001000
00010000
00000000
00000100
00001000
00000010
00000000
00000100
00000000
,  // measure 33
00000002
00000000
00000000
00000000
00000000
00000000
00000000
00000000
00000013
00001000
00010000
00100000
10000000
00010000
01000000
00200000
,  // measure 34
00000000
00000000
00320000
00032000
,  // measure 35
00003200
00000301
00000000
00000000
00000000
00000000
00000000
00000000
;

//---------------dance-double - RIME-CDP----------------
#NOTEDATA:;
#CHARTNAME:RIME-CDP;
#STEPSTYPE:dance-double;
#DESCRIPTION:RIME-CDP;
#DIFFICULTY:Challenge;
#METER:14;
#RADARVALUES:0.617690,0.620641,0.093544,0.228664,1.018595,416,407,9,22,0,0,0,0,0,0.617690,0.620641,0.093544,0.228664,1.018595,416,407,9,22,0,0,0,0,0;
#CREDIT:RIME;
#NOTES:
00000000
00000000
00000000
00000000
,
00000000
00000000
00000000
00000000
,
00000000
00000000
00020000
00032000
,
01003000
00000000
00001000
00000000
00100000
00010000
00100000
00010000
01000000
00100000
10000000
00010000
00100000
00000000
00001000
00100000
,
00000000
00000010
00000000
00000000
00001000
00000010
00000100
00000001
00000010
00000100
00001000
00000001
00000100
00000000
00000001
00000010
,
00000000
00000100
00000000
00000000
00000010
00000001
00001000
00000010
00010000
00000100
00001000
00000010
00010000
00000000
00000100
00001000
,
00000000
00000020
00000130
00000010
00001000
00000000
00000001
00000000
00000020
00000000
00000000
00000000
00000230
00000000
00000000
00000000
,
00001300
00000000
00000100
00000000
00010000
00000010
00001000
00000100
00010000
00001000
00100000
01000000
10000000
00000000
00010000
01000000
,
00000000
00000000
00100000
00000000
00000000
00000000
00000000
00000000
10000000
00000000
00000000
00010000
10000000
00000000
01000000
00000000
00010000
00000000
01000000
00000000
10000000
00000000
00010000
00000000
02000000
00000000
03001000
00000000
01000000
00000000
00010000
00000000
,
00000000
00000000
00100000
00000000
00000000
00000000
00000000
00000000
00010000
00000000
00000010
00000100
00000010
00000000
00000100
00000000
00001000
00000000
00000001
00000000
00000100
00000000
00000010
00000000
00001000
00000000
00000100
00000000
00000000
00000000
00000010
00000000
,
00000000
00000100
00002000
00003001
00002000
00003010
00002000
00003100
00000000
00000100
00020000
00031000
00020000
00030010
00000000
00000000
,
00010010
00000000
00000010
00000000
00001000
00000000
00000010
00000000
00001000
00000000
00000000
00000000
00000100
00000000
00000000
00000010
00000000
00000000
00000100
00000000
00001000
00000000
00000100
00000000
00000000
00000000
00001000
00000000
00000000
00000001
00000000
00000000
,
00000100
00000010
00001000
00000100
00000000
00010000
00000100
02000000
00000000
03010000
01000000
00100000
00000000
01000000
00100000
10000000
,
00000000
00010000
00100000
01000000
00000000
00100000
00010000
00000000
00110000
00010000
01000000
00002000
00000000
00013000
00001000
00000020
,
00000000
00000000
00000130
00000000
00000000
00000000
00000000
00000000
00000010
00000000
00000000
00000001
00000010
00000000
00000001
00000000
00000100
00000000
00000000
00000010
00001000
00000000
00000100
00000000
00000010
00000000
00000000
00000000
00000100
00000000
00000000
00000000
,
00000110
00000000
00000100
00000000
00001000
00000000
00000010
00000000
00001000
00000000
00000010
00000000
00010000
00000000
00000000
00000000
00000000
00000000
00001000
00000000
00010000
00000000
00000000
00000100
00000000
00000000
01000000
00000000
00000000
00001000
00000000
00000000
,
00010000
00000000
00001000
00000000
00000010
00000000
00000001
00000000
00000000
00000000
00000100
00000000
00000001
00000000
00000010
00000000
00000000
00000000
00000100
00000000
00000010
00000000
00000001
00000000
00001000
00000000
00000000
00000010
00000000
00000000
00010000
00000000
,
00000000
00001000
00100000
00010000
00000000
00100000
01000000
00000000
01100000
01000000
10000000
00010000
00000000
01000000
00010000
01000000
,
00200000
00000000
10000000
00000000
00310000
00100000
10000000
00000000
00100000
01000000
01000000
01000000
00010000
00100000
00001000
00010000
,
00000010
00000000
00000100
00000010
00000000
00000000
00000100
00000000
00000001
00000000
00001000
00000000
00000100
00000000
00010000
00000000
00001000
00000000
00001000
00100000
00000000
00000000
00001000
00000000
01000000
00000000
00100000
00000000
10000000
00000000
00010000
00000000
,
00100000
00000000
01000000
00100000
00000000
00000000
01000000
00000000
01000000
00000000
10000000
00000000
00010000
00000000
01000000
00000000
00100000
00000000
00010000
00100000
00000000
00000000
00000000
00000000
01000000
00000000
00010000
00000000
10000000
00000000
01000000
00000000
,
00010000
10000000
00100000
00010000
01000000
00100000
10000000
00010000
10010000
00000000
00011000
00000000
00001000
00010000
00000010
00000100
,
00000001
00000010
00001000
00000010
00000001
00001000
00000010
00001000
00001001
00000000
00011000
00001000
00100000
00100000
00010000
01000000
,
00100000
00000000
10000000
00000000
00010000
00000000
00100000
00000000
01000000
00000000
00100000
00000000
00010000
00000000
10000000
00000000
00200000
00000000
00000000
00000000
01300000
00000000
00000000
00000000
00100000
10000000
00000000
00010000
01000000
00000000
00100000
10000000
,
00010000
01000000
00010000
00100000
00001000
00010000
00001000
00000010
00000200
00000000
00000310
00000000
00000100
00001000
00000001
00000100
,
00000010
00001000
00001000
00000001
00000010
00001000
00000001
00000100
00001000
00000000
00001000
00000000
00000001
00000100
00001000
00010000
,
01000000
00000000
10000000
00010000
00000000
10000000
00200000
00000000
02300000
00000000
03010000
01000000
00010000
00000000
01000000
00100000
,
01000000
00000000
00010000
00000000
00100000
01000000
00100000
01000000
00100000
00000000
00010000
00000000
10000000
00100000
10000000
00100000
,
10000000
00000000
00100000
00010000
00001000
00000000
00010000
00001000
00000010
00000000
00000100
00000000
00001000
00000100
00001000
00000100
,
00000010
00000000
00000100
00000000
00001000
00000001
00001000
00000010
00000100
00000000
00000010
00000000
00000100
00000010
00001000
00000001
,
00000100
00000000
00000000
00000001
00000000
00000000
00000010
00000000
00000000
00000000
00000100
00000000
00000010
00000000
00000100
00000000
00001000
00000000
00000000
00000000
00000100
00000000
00001000
00000000
00010000
00000000
00000000
00000000
00001000
00000000
00010000
00000000
,
00100000
00000000
00010000
00000000
00100000
01000000
00100000
01000000
00100000
00000000
00010000
00000000
01000000
00100000
01000000
00100000
,
01000000
00000000
00000000
00000000
00010000
00000000
10000000
00000000
01000000
00000000
00000000
00000000
00100000
00000000
02000000
00000000
00000000
00000000
03100000
00000000
01000000
00000000
10000000
00000000
00100000
00000000
00000000
01000000
00000000
00000000
00010000
00000000
,
00000000
00000000
01000000
00000000
00001000
00000000
00010000
00000000
00000100
00000000
00000010
00000000
00000100
00000000
00001000
00000000
00000001
00000000
00000100
00000001
00000100
00000000
00000010
00000000
00000000
00000000
00001000
00000000
00000100
00000000
00000010
00000000
,
00000001
00001000
00000000
00001000
00000001
00000010
00000100
00000000
00002100
00000000
00000000
00000000
00023000
00000000
00000000
00000000
,
10000000
10030000
00000000
00000000
00000000
00000000
00000000
00000000
;
