#VERSION:0.83;
#TITLE:December Breeze;
#ARTIST:dj silverberg;
#BANNER:December Breeze-banner.png;
#BACKGROUND:December Breeze-bg.png;
#JACKET:December Breeze-jacket.png;
#MUSIC:December Breeze.ogg;
#OFFSET:0.327681;
#SAMPLESTART:52.42;
#SAMPLELENGTH:15;
#BPMS:0=182;

//---------------dance-single - NewbStepper-CSP----------------
#NOTEDATA:;
#CHARTNAME:NewbStepper-CSP;
#STEPSTYPE:dance-single;
#DESCRIPTION:NewbStepper-CSP;
#DIFFICULTY:Challenge;
#METER:17;
#RADARVALUES:0.863421,1.158462,0.277670,0.435016,0.721941,653,623,30,47,0,0,0,0,0,0.863421,1.158462,0.277670,0.435016,0.721941,653,623,30,47,0,0,0,0,0;
#CREDIT:NewbStepper;
#NOTES:
// measure 0
0000
0000
0000
0000
,  // measure 1
0011
0000
0000
0000
,  // measure 2
1100
0000
0000
0000
,  // measure 3
0110
0000
1001
0000
,  // measure 4
0001
0100
0001
0100
0010
1000
0010
1000
0100
0010
0100
0010
0001
0100
0001
0100
,  // measure 5
0020
0000
0000
0030
,  // measure 6
1000
0000
0100
0000
0010
0000
0002
0000
0000
0000
0103
0000
0000
1000
0000
0100
,  // measure 7
0001
0010
0001
2000
0000
0100
3100
0000
,  // measure 8
1000
0000
0010
0000
0100
0000
0002
0000
0000
0000
0103
0000
0000
0010
0000
1000
,  // measure 9
0100
1000
0001
0100
0010
1000
0100
0010
0002
0000
0000
0100
0000
0000
1003
0000
,  // measure 10
0001
0000
0100
0000
0010
0000
2000
0000
0000
0000
3100
0000
0000
0001
0000
0100
,  // measure 11
1000
0000
0010
0000
1000
0000
0001
0000
1000
0100
0010
0000
0001
0100
0010
0000
,  // measure 12
1000
0010
0100
0002
0000
1003
0100
0010
,  // measure 13
0001
0000
0100
0000
0010
1000
0010
1000
0100
0000
0010
0000
1001
0000
0000
0000
,  // measure 14
0001
0000
0100
0000
0010
0000
2000
0000
0000
0000
3100
0000
0000
0001
0000
0100
,  // measure 15
1000
0010
1000
0002
0000
0100
0103
0000
,  // measure 16
0001
0000
0010
0000
0100
0000
2000
0000
0000
0000
3100
0000
0000
0010
0000
0001
,  // measure 17
0100
0001
1000
0100
0010
0001
0100
0010
2000
0000
0000
0100
0000
0000
3001
0000
,  // measure 18
1000
0000
0100
0000
0010
0000
0002
0000
0000
0000
0103
0000
0000
1000
0000
0100
,  // measure 19
0001
0000
0010
0000
0001
0000
1000
0000
0001
0100
0010
0000
1000
0100
0010
0000
,  // measure 20
0001
0000
0010
0000
0100
0000
2000
0000
0000
0000
3001
0100
0001
0000
0010
0000
,  // measure 21
0011
0011
0000
1100
1100
0000
1001
1001
,  // measure 22
0000
0000
0000
0000
,  // measure 23
1000
0000
0000
1000
0200
0000
0001
0000
0301
0000
0000
0100
0000
0000
1000
0000
,  // measure 24
0010
1000
0100
0001
0100
1000
0020
0000
,  // measure 25
0130
0000
0000
0100
0001
0000
0010
0000
0020
0000
0000
1000
0000
0000
0130
0000
,  // measure 26
1000
0100
0100
0001
0100
0010
0010
0001
,  // measure 27
1000
0000
0000
0010
0100
0000
0001
0000
0002
0000
0000
0010
0000
0000
1003
0000
,  // measure 28
0001
0100
1000
0100
0001
0010
1000
0010
,  // measure 29
0002
0203
0320
2030
,  // measure 30
3001
0000
0000
1000
0100
0010
0002
0000
0000
2003
0000
0000
,  // measure 31
3001
0100
1000
0001
0010
1000
0001
0100
,  // measure 32
1000
0100
0002
0010
0010
0013
0001
1000
,  // measure 33
1000
0100
0001
1000
0010
0001
1000
0100
,  // measure 34
0001
0000
0100
0000
1000
0000
0010
0000
0100
0000
0001
1000
0100
0000
1000
0000
,  // measure 35
0001
0100
1000
0100
0001
0000
0001
0010
1000
0010
0001
0000
1000
0010
0001
0010
,  // measure 36
1000
0000
1000
0100
0001
0100
1000
0000
0001
0100
0010
1000
0001
0010
0100
1000
,  // measure 37
0001
0100
0010
1000
0100
0010
0001
0100
0010
1000
0100
0010
0001
1000
0010
0100
,  // measure 38
0001
0000
0000
0000
0001
0000
0000
0000
1000
0000
0010
0100
0001
0000
2002
0000
,  // measure 39
0000
0000
0000
3003
,  // measure 40
1000
0000
0100
0000
0010
0000
0002
0000
0000
0000
0103
0000
0000
1000
0000
0100
,  // measure 41
0001
0010
0001
2000
0000
0100
3100
0000
,  // measure 42
1000
0000
0010
0000
0100
0000
0002
0000
0000
0000
0103
0000
0000
0010
0000
1000
,  // measure 43
0100
1000
0001
0100
0010
1000
0100
0010
0002
0000
0000
0100
0000
0000
1003
0000
,  // measure 44
0001
0000
0100
0000
0010
0000
2000
0000
0000
0000
3100
0000
0000
0001
0000
0100
,  // measure 45
1000
0000
0010
0000
1000
0000
0001
0000
1000
0100
0010
0000
0001
0100
0010
0000
,  // measure 46
1000
0010
0100
0002
0000
1003
0100
0010
,  // measure 47
0001
0000
0100
0000
0010
1000
0010
1000
0100
0000
0010
0000
1001
0000
0000
0000
,  // measure 48
0001
0000
0100
0000
0010
0000
2000
0000
0000
0000
3100
0000
0000
0001
0000
0100
,  // measure 49
1000
0010
1000
0002
0000
0100
0103
0000
,  // measure 50
0001
0000
0010
0000
0100
0000
2000
0000
0000
0000
3100
0000
0000
0010
0000
0001
,  // measure 51
0100
0001
1000
0100
0010
0001
0100
0010
2000
0000
0000
0100
0000
0000
3001
0000
,  // measure 52
1000
0000
0100
0000
0010
0000
0002
0000
0000
0000
0103
0000
0000
1000
0000
0100
,  // measure 53
0001
0000
0010
0000
0001
0000
1000
0000
0001
0100
0010
0000
1000
0100
0010
0000
,  // measure 54
0001
0010
0100
2000
0000
3001
0100
0010
,  // measure 55
1000
0000
0100
0000
0010
0001
0010
0001
0100
0000
0010
0000
1001
0000
0000
0000
,  // measure 56
1000
0000
0100
0000
0010
0001
0010
0001
0100
0000
0010
0000
1000
0000
1000
0000
,  // measure 57
0001
0000
0100
0000
0010
1000
0010
1000
0100
0000
0001
0000
0100
0000
1000
0000
,  // measure 58
0020
0000
0000
0000
0000
0000
0000
0000
0000
0000
1030
0000
0001
0010
0100
1000
,  // measure 59
0001
0000
1000
0010
0100
0000
0001
0000
0010
0000
1000
0000
0000
0010
0000
0010
,  // measure 60
0001
0100
1000
0100
0001
0010
0010
0000
,  // measure 61
1001
0000
0001
0010
0100
0000
1000
0000
0010
0000
0001
0000
0000
0010
0000
0010
,  // measure 62
1000
0001
0100
0010
1000
0100
0010
0001
0200
0000
0000
0010
0000
0000
0301
0000
,  // measure 63
1000
0000
0001
0000
0100
0000
0002
0000
0000
0000
1003
0000
0000
0010
0000
0010
,  // measure 64
0100
0000
0001
0000
0010
0000
0001
0000
0100
0010
1000
0100
0010
0001
0100
0010
,  // measure 65
1000
0100
0010
0002
0000
1003
0010
0100
,  // measure 66
0001
0000
1000
0000
0010
0100
0001
1000
0100
0000
0010
0000
0010
0000
0000
0000
,  // measure 67
1001
0000
0001
0010
0100
0000
1000
0000
0010
0000
0001
0000
0000
0010
0000
0010
,  // measure 68
1000
0100
0001
0100
1000
0010
0010
0000
,  // measure 69
1001
0000
1000
0010
0100
0000
0001
0000
0010
0000
1000
0000
0000
0010
0000
0010
,  // measure 70
0001
1000
0100
0010
0001
0100
0010
1000
0200
0000
0000
0010
0000
0000
1300
0000
,  // measure 71
0001
0000
1000
0000
0100
0000
2000
0000
0000
0000
3001
0000
0000
0010
0000
0010
,  // measure 72
0100
0000
1000
0000
0010
0000
1000
0000
0100
0010
0001
0100
0010
1000
0100
0010
,  // measure 73
0001
0100
0010
2000
0000
3001
0010
0100
,  // measure 74
1100
1010
0011
0101
,  // measure 75
0110
1100
0011
1001
,  // measure 76
0101
0011
1010
1100
,  // measure 77
0001
0100
0010
1000
0001
1000
0100
0010
0001
0100
0010
1000
0001
0000
0000
0000
,  // measure 78
1000
0100
0010
0001
1000
0001
0010
0100
1000
0010
0100
0001
1000
0000
0000
0000
,  // measure 79
0001
0010
0100
1000
0001
0100
0010
1000
0100
0010
0001
0000
0100
0000
2002
0000
,  // measure 80
0000
0000
0000
3003
;

//---------------dance-single - NewbStepper-ESP----------------
#NOTEDATA:;
#CHARTNAME:NewbStepper-ESP;
#STEPSTYPE:dance-single;
#DESCRIPTION:NewbStepper-ESP;
#DIFFICULTY:Hard;
#METER:14;
#RADARVALUES:0.736486,0.971613,0.305437,0.388738,0.249903,557,524,33,42,0,0,0,0,0,0.736486,0.971613,0.305437,0.388738,0.249903,557,524,33,42,0,0,0,0,0;
#CREDIT:NewbStepper;
#NOTES:
// measure 0
0000
0000
0000
0000
,  // measure 1
1010
0000
0000
0000
,  // measure 2
0101
0000
0000
0000
,  // measure 3
0110
0000
1001
0000
,  // measure 4
1000
0000
0001
0010
0001
0000
1000
0010
1000
0000
0001
0010
0001
0000
1000
0010
,  // measure 5
2000
0000
0000
3000
,  // measure 6
0001
1000
0100
0002
0000
0103
0000
1000
,  // measure 7
0010
0100
1000
0200
0000
0301
0000
0010
,  // measure 8
0001
1000
0010
0002
0000
0013
1000
0100
,  // measure 9
0010
0001
0100
0010
1000
0001
0010
0100
,  // measure 10
1000
0010
0100
0020
0000
0031
0010
1000
,  // measure 11
0001
0000
0100
0000
1000
0000
0100
0000
0001
0010
0001
0000
1000
0010
1000
0000
,  // measure 12
0001
0100
0010
2000
0000
3100
0001
0100
,  // measure 13
1000
0000
0010
0000
0100
0000
0001
0100
0001
0000
1000
0000
1001
0000
0000
0000
,  // measure 14
1000
0001
0100
2000
0000
3100
0000
0001
,  // measure 15
0010
0100
0001
0200
0000
1300
0000
0010
,  // measure 16
1000
0001
0010
2000
0000
3010
0001
0100
,  // measure 17
0010
1000
0100
0001
1000
0010
0001
0100
,  // measure 18
0001
0010
0100
0020
0000
1030
0010
0001
,  // measure 19
1000
0000
0100
0000
0001
0000
0100
0000
1000
0010
1000
0000
0001
0010
0001
0000
,  // measure 20
1000
0000
0100
0000
0010
0000
2000
0000
0000
0000
3010
0001
0010
0000
0100
0000
,  // measure 21
1010
1010
0000
0101
0101
0000
0110
0110
,  // measure 22
0000
0000
0000
0000
,  // measure 23
1000
0000
0010
1000
0010
0000
0100
0000
0100
0000
0000
0001
0000
0000
0010
0000
,  // measure 24
0001
0100
1000
0100
0001
0010
0001
0000
,  // measure 25
1000
0000
0000
0001
0010
0000
0100
0000
0100
0000
0000
1000
0000
0000
0010
0000
,  // measure 26
1000
0100
0001
1000
0010
0001
0100
0010
,  // measure 27
1000
0000
0000
1000
0001
0000
0100
0000
0010
0000
0000
0010
0100
0000
0001
0000
,  // measure 28
1000
0100
0001
0100
1000
0010
0001
0010
,  // measure 29
2000
0100
0001
0010
,  // measure 30
3001
0000
0000
1000
0100
0010
0001
0000
0000
1000
0000
0000
,  // measure 31
0010
1000
1000
0100
0001
0001
0100
0010
,  // measure 32
0010
1000
0010
0001
0100
0100
0001
0000
,  // measure 33
0010
0001
0001
0100
1000
1000
0100
0010
,  // measure 34
0010
0001
0010
1000
0100
0100
1000
0000
,  // measure 35
0001
0000
0100
0010
0100
0000
0001
0000
1000
0100
1000
0000
0001
0100
0001
0000
,  // measure 36
1000
0000
0010
0100
0001
0100
0010
0000
1000
0010
1000
0000
0001
0010
0001
0000
,  // measure 37
1000
0100
1000
0000
0100
0010
0100
0000
0010
0001
0010
0000
0001
1000
0001
0000
,  // measure 38
0110
0000
1001
0000
0001
0100
0010
2002
,  // measure 39
0000
0000
0000
3003
,  // measure 40
1000
0001
0100
2000
0000
3100
0000
0001
,  // measure 41
0010
0100
0001
0200
0000
1300
0000
0010
,  // measure 42
1000
0001
0010
2000
0000
3010
0001
0100
,  // measure 43
0010
1000
0100
0010
0001
1000
0010
0100
,  // measure 44
0001
0010
0100
0020
0000
1030
0010
0001
,  // measure 45
1000
0000
0100
0000
0001
0000
0100
0000
1000
0010
1000
0000
0001
0010
0001
0000
,  // measure 46
1000
0100
0010
0002
0000
0103
1000
0100
,  // measure 47
0001
0000
0010
0000
0100
0000
1000
0100
1000
0000
0001
0000
1001
0000
0000
0000
,  // measure 48
0001
1000
0100
0002
0000
0103
0000
1000
,  // measure 49
0010
0100
1000
0200
0000
0301
0000
0010
,  // measure 50
0001
1000
0010
0002
0000
0013
1000
0100
,  // measure 51
0010
0001
0100
1000
0001
0010
1000
0100
,  // measure 52
1000
0010
0100
0020
0000
0031
0010
1000
,  // measure 53
0001
0000
0100
0000
1000
0000
0100
0000
0001
0010
0001
0000
1000
0010
1000
0000
,  // measure 54
0001
0100
0010
2000
0000
3001
0010
0100
,  // measure 55
1000
0000
0010
0000
0100
0001
0100
0001
1000
0000
0100
0000
1001
0000
0000
0000
,  // measure 56
0001
0000
0010
0000
0100
1000
0100
1000
0001
0000
0100
0000
1000
0000
0100
0000
,  // measure 57
0001
0000
1000
0000
0001
0010
0100
1000
0001
0000
0010
0000
0100
0000
1000
0000
,  // measure 58
1001
0000
0000
0000
,  // measure 59
1000
0000
0010
0000
0100
0000
2000
0000
0000
0000
3001
0000
0000
0010
0000
0000
,  // measure 60
1000
0000
0100
0000
0010
0000
0002
0000
0000
0000
0103
0000
0000
0010
0000
0000
,  // measure 61
1000
0000
0001
0000
0100
0000
2000
0000
0000
0000
3001
0000
0000
0010
0000
0000
,  // measure 62
1000
0000
0100
0000
0001
0000
0100
0000
1000
0000
0000
0010
0000
0000
0100
0000
,  // measure 63
0001
0000
0010
0000
0100
0000
0002
0000
0000
0000
1003
0000
0000
0010
0000
0000
,  // measure 64
0001
0100
0010
2000
0000
3010
0100
0001
,  // measure 65
1000
0100
0010
0002
0000
0103
1000
0100
,  // measure 66
0001
0000
0010
0000
0001
1000
0010
0100
0001
0000
0100
0000
1001
0000
0000
0000
,  // measure 67
0001
0000
0010
0000
0100
0000
0002
0000
0000
0000
1003
0000
0000
0010
0000
0000
,  // measure 68
0001
0000
0100
0000
0010
0000
2000
0000
0000
0000
3100
0000
0000
0010
0000
0000
,  // measure 69
0001
0000
1000
0000
0100
0000
0002
0000
0000
0000
1003
0000
0000
0010
0000
0000
,  // measure 70
0001
0000
0100
0000
1000
0000
0100
0000
0001
0000
0000
0010
0000
0000
0100
0000
,  // measure 71
1000
0000
0010
0000
0100
0000
2000
0000
0000
0000
3001
0000
0000
0010
0000
0000
,  // measure 72
1000
0100
0010
0002
0000
0013
0100
1000
,  // measure 73
0001
0100
0010
2000
0000
3100
0001
0100
,  // measure 74
1100
1001
0101
1001
,  // measure 75
1010
0110
0011
0110
,  // measure 76
0101
1001
1100
1001
,  // measure 77
2020
0000
0000
3030
,  // measure 78
0202
0000
0000
0303
,  // measure 79
0001
0000
1000
0010
1000
0000
0001
0000
1000
0100
1000
0000
0001
0000
2002
0000
,  // measure 80
0000
0000
0000
3003
;

//---------------dance-single - NewbStepper-DSP----------------
#NOTEDATA:;
#CHARTNAME:NewbStepper-DSP;
#STEPSTYPE:dance-single;
#DESCRIPTION:NewbStepper-DSP;
#DIFFICULTY:Medium;
#METER:11;
#RADARVALUES:0.573851,0.597916,0.305437,0.166602,0.009256,434,401,33,18,0,0,0,0,0,0.573851,0.597916,0.305437,0.166602,0.009256,434,401,33,18,0,0,0,0,0;
#CREDIT:NewbStepper;
#NOTES:
0000
0000
0000
0000
,
1001
0000
0000
0000
,
1001
0000
0000
0000
,
1010
0000
0101
0000
,
1010
1100
0101
0011
,
1001
0000
0000
0000
,
1000
0100
0010
0000
0100
0000
1000
0000
,
0001
0100
0010
0000
0100
0000
0001
0000
,
1000
0010
0001
0000
0010
0000
1000
0000
,
0001
0010
0100
1000
0001
0000
1001
0000
,
0001
0010
0100
0000
0010
0000
0001
0000
,
1000
0010
0100
0000
0010
0000
1000
0000
,
0001
0100
1000
0000
0100
0000
0001
0000
,
0010
0100
1000
0010
0100
0001
1000
0000
,
0001
0100
0010
0000
0100
0000
0001
0000
,
1000
0100
0010
0000
0100
0000
1000
0000
,
0001
0010
1000
0000
0010
0000
0001
0000
,
1000
0010
0100
0001
1000
0000
1001
0000
,
1000
0010
0100
0000
0010
0000
1000
0000
,
0001
0010
0100
0000
0010
0000
0001
0000
,
1000
0100
0001
0000
0100
0000
1000
0000
,
0010
0110
0000
0100
0101
0000
0001
1001
,
0000
0000
0000
0000
,
1000
0100
0001
0100
2000
0000
3010
0000
,
0100
0001
0010
0000
0100
1000
0010
0000
,
1000
0010
0001
0010
2000
0000
3100
0000
,
1100
0010
0101
0010
,
0001
0100
1000
0100
0002
0000
0013
0000
,
0100
1000
0010
0000
0100
0001
0010
0000
,
0200
0000
0000
0310
,
0001
0000
0000
1000
0100
0010
0001
0000
0000
0010
0000
0000
,
0002
0000
0103
2000
0000
3100
0020
0000
,
1030
0200
0000
0301
0200
0000
0310
0001
,
2000
0000
3100
0002
0000
0103
0020
0000
,
0031
0200
0000
1300
0200
0000
0310
0000
,
1000
0100
1000
0001
1000
0100
1000
0000
,
0001
0100
0001
1000
0001
0100
0001
0000
,
0010
0001
0100
0010
1000
0001
0100
0000
,
0110
0000
0110
0000
0001
1000
0100
0010
,
0000
0000
0000
0000
,
0001
0100
0010
0000
0100
0000
0001
0000
,
1000
0100
0010
0000
0100
0000
1000
0000
,
0001
0010
1000
0000
0010
0000
0001
0000
,
1000
0010
0100
0001
1000
0000
1001
0000
,
1000
0010
0100
0000
0010
0000
1000
0000
,
0001
0010
0100
0000
0010
0000
0001
0000
,
1000
0100
0001
0000
0100
0000
1000
0000
,
0010
0100
0001
0010
0100
1000
0001
0000
,
1000
0100
0010
0000
0100
0000
1000
0000
,
0001
0100
0010
0000
0100
0000
0001
0000
,
1000
0010
0001
0000
0010
0000
1000
0000
,
0001
0010
0100
1000
0001
0000
1001
0000
,
0001
0010
0100
0000
0010
0000
0001
0000
,
1000
0010
0100
0000
0010
0000
1000
0000
,
0001
0100
1000
0000
0100
0000
0001
0000
,
0010
0100
1000
0010
0100
0001
1000
0000
,
0010
0100
0001
0010
0100
1000
0001
0000
,
0220
0000
0000
0330
,
1001
0000
0000
0000
,
0001
0100
0010
1000
0000
0001
0000
1000
,
0100
0010
0001
1000
0000
0100
0000
0000
,
1000
0100
0010
0001
0000
1000
0000
0001
,
0100
1000
0100
0001
0010
0000
1001
0000
,
1000
0001
0010
0100
0000
1000
0001
0000
,
0100
0001
1000
0001
0000
0010
0100
0000
,
1000
0100
0010
0001
0000
0001
0100
0010
,
1000
1100
0001
0101
,
1000
0100
0010
0001
0000
1000
0000
0001
,
0100
0010
1000
0001
0000
0100
0000
0000
,
0001
0100
0010
1000
0000
0001
0000
1000
,
0100
0001
0100
1000
0010
0000
1001
0000
,
0001
0100
0010
0100
0000
0001
1000
0000
,
0100
1000
0001
1000
0000
0010
0100
0000
,
0001
0100
0010
1000
0000
1000
0100
0010
,
0001
0101
1000
1100
,
0010
0110
0001
0101
,
1000
1010
0001
0011
,
1000
0100
1000
0001
1000
0100
1000
0000
,
0001
0100
0001
1000
0001
0100
0001
0000
,
1000
0100
0001
0100
1000
0010
0100
2002
,
0000
0000
0000
3003
;

//---------------dance-single - NewbStepper-BSP----------------
#NOTEDATA:;
#CHARTNAME:NewbStepper-BSP;
#STEPSTYPE:dance-single;
#DESCRIPTION:NewbStepper-BSP;
#DIFFICULTY:Easy;
#METER:6;
#RADARVALUES:0.292214,0.369648,0.138835,0.148091,0,221,206,15,16,0,0,0,0,0,0.292214,0.369648,0.138835,0.148091,0,221,206,15,16,0,0,0,0,0;
#CREDIT:NewbStepper;
#NOTES:
0000
0000
0000
0000
,
1000
0000
0000
0000
,
0001
0000
0000
0000
,
1000
0000
1000
0000
,
0001
0001
0001
0001
,
1001
0000
0000
0000
,
1000
0100
1000
0000
,
1000
0010
1000
0000
,
0001
0100
0001
0000
,
0001
0010
0001
0000
,
0100
0010
0100
0000
,
0010
0100
0010
0000
,
1000
0100
0010
0001
,
1000
0000
1001
0000
,
0001
0100
0001
0000
,
0001
0010
0001
0000
,
1000
0100
1000
0000
,
1000
0010
1000
0000
,
0100
0010
0100
0000
,
0010
0100
0010
0000
,
0001
0100
0010
1000
,
1001
0000
0000
1001
0000
0000
1001
0000
,
0000
0000
0000
0000
,
0020
0000
0001
0000
,
0130
1000
0001
0100
,
0020
0000
1000
0000
,
0130
0000
1001
0000
,
0200
0000
0001
0000
,
0310
1000
0001
0010
,
0200
0000
0000
0310
,
0110
0000
0000
0000
,
1000
0100
0001
0000
,
1000
0100
0001
0000
,
1000
0010
0001
0000
,
1000
0010
0001
0000
,
0001
0000
0010
0000
,
1000
0000
0100
0000
,
0001
0000
1000
0000
,
0010
0000
0010
0000
0100
0000
0100
0100
,
0000
0000
0000
0000
,
0001
0100
0001
0000
,
0001
0010
0001
0000
,
1000
0100
1000
0000
,
1000
0010
1000
0000
,
0100
0010
0100
0000
,
0010
0100
0010
0000
,
0001
0100
0010
1000
,
0001
0000
1001
0000
,
1000
0100
1000
0000
,
1000
0100
1000
0000
,
0001
0100
0001
0000
,
0001
0010
0001
0000
,
0100
0010
0100
0000
,
0010
0100
0010
0000
,
1000
0100
0010
0001
,
1000
0000
1001
0000
,
0001
0000
1001
0000
,
2002
0000
0000
0000
,
3003
0000
0000
0000
,
1000
0100
0010
0000
,
1000
0010
0100
0000
,
0001
0100
0010
0000
,
0001
0010
0100
0000
,
1000
0010
0001
0000
,
1000
0100
0001
0000
,
0001
0010
0100
1000
,
0001
0000
1001
0000
,
0001
0100
0010
0000
,
0001
0010
0100
0000
,
1000
0100
0010
0000
,
1000
0010
0100
0000
,
0001
0010
1000
0000
,
0001
0100
1000
0000
,
0010
0000
0010
0000
,
2000
3000
0200
0300
,
0002
0003
0020
0030
,
1000
0100
0010
0001
,
2002
0000
0000
3003
,
0220
0000
0000
0330
,
2002
0000
0000
0000
0000
0000
0000
3003
;

//---------------dance-single - NewbStepper-bSP----------------
#NOTEDATA:;
#CHARTNAME:NewbStepper-bSP;
#STEPSTYPE:dance-single;
#DESCRIPTION:NewbStepper-bSP;
#DIFFICULTY:Beginner;
#METER:3;
#RADARVALUES:0.140157,0.295256,0.083301,0.101812,0,106,97,9,11,0,0,0,0,0,0.140157,0.295256,0.083301,0.101812,0,106,97,9,11,0,0,0,0,0;
#CREDIT:NewbStepper;
#NOTES:
0000
0000
0000
0000
,
1000
0000
0000
0000
,
0000
0000
0000
0000
,
0001
0000
0000
0000
,
0000
0000
0000
0000
,
0100
0000
0000
0000
,
0010
0000
0000
0000
,
1000
0000
0000
0000
,
0010
0000
0000
0000
,
0001
0000
0000
0000
,
0010
0000
0000
0000
,
1000
0000
0000
0000
,
0001
0000
0000
0000
,
1001
0000
0000
0000
,
0100
0000
0000
0000
,
0010
0000
0000
0000
,
0001
0000
0000
0000
,
0010
0000
0000
0000
,
1000
0000
0000
0000
,
0010
0000
0000
0000
,
0001
0000
0000
0000
,
1001
0000
0000
0000
,
0000
0000
0000
0000
,
1000
1000
1000
0000
,
0002
0000
0000
0003
,
0100
0100
0100
0000
,
0002
0000
0000
0003
,
0001
0001
0001
0000
,
2000
0000
0000
3000
,
0200
0000
0000
0300
,
0000
0000
0000
0000
,
2000
0000
0000
0000
,
0000
3000
0100
0000
,
0002
0000
0000
0000
,
0000
0003
0100
0000
,
1000
0000
1000
0000
,
0001
0000
0001
0000
,
1001
0000
1001
0000
,
1001
0000
0000
0000
,
0000
0000
0000
0000
,
0010
0000
0000
0000
,
0100
0000
0000
0000
,
1000
0000
0000
0000
,
0100
0000
0000
0000
,
0001
0000
0000
0000
,
0100
0000
0000
0000
,
1000
0000
0000
0000
,
1001
0000
0000
0000
,
0010
0000
0000
0000
,
0100
0000
0000
0000
,
0001
0000
0000
0000
,
0100
0000
0000
0000
,
1000
0000
0000
0000
,
0100
0000
0000
0000
,
0001
0000
0000
0000
,
1001
0000
0000
0000
,
1001
0000
0000
0000
,
2002
0000
0000
0000
,
3003
0000
0000
0000
,
0010
0010
0000
0000
,
0100
0100
0000
0000
,
0001
0001
0000
0000
,
1000
1000
0000
0000
,
0010
0000
0010
0000
,
0100
0000
0100
0000
,
1000
0000
1000
0000
,
0100
0000
0100
0000
,
0001
0001
0000
0000
,
1000
1000
0000
0000
,
0010
0010
0000
0000
,
0100
0100
0000
0000
,
0001
0000
0001
0000
,
0100
0000
0100
0000
,
1000
0000
1000
0000
,
0010
0000
0000
0000
,
1000
0000
0000
0000
,
0100
0000
0000
0000
,
0002
0000
0000
0003
,
2000
0000
0000
3000
,
0020
0000
0000
0030
;

//---------------dance-double - NewbStepper-EDP----------------
#NOTEDATA:;
#CHARTNAME:NewbStepper-EDP;
#STEPSTYPE:dance-double;
#DESCRIPTION:NewbStepper-EDP;
#DIFFICULTY:Hard;
#METER:14;
#RADARVALUES:0.710041,0.896873,0.277670,0.462783,0.226764,537,507,30,50,0,0,0,0,0,0.710041,0.896873,0.277670,0.462783,0.226764,537,507,30,50,0,0,0,0,0;
#CREDIT:NewbStepper;
#NOTES:
00000000
00000000
00000000
00000000
,
10100000
00000000
00000000
00000000
,
00110000
00000000
00000000
00000000
,
00011000
00000000
00001010
00000000
,
00000001
00000000
00001000
00000010
00001000
00000000
00000100
00010000
00000100
00000000
00010000
00001000
00010000
00000000
00001000
01000000
,
00002000
00000000
00000000
00003000
,
00010000
01000000
00100000
00020000
00000000
01030000
00000000
00100000
,
10000000
01000000
00010000
00002000
00000000
00003010
00000000
00000000
,
00001000
00000010
00000100
00002000
00000000
00003001
00000100
00001000
,
00010000
00000000
00100000
00000000
10000000
00000000
01000000
00000000
00200000
00000000
00000000
00320000
00000000
00000000
01030000
00000000
,
00001000
00000000
00010000
00000000
00100000
00000000
00020000
00000000
00000000
00000000
00031000
00000000
00000000
00000000
00000100
00000001
,
00000100
00000010
00010000
00002000
00000000
01003000
00000000
00100000
,
10000000
01000000
00100000
00020000
00000000
00031000
00000100
00000010
,
00000001
00000100
00001000
00010000
01000000
00010000
00011000
00000000
,
00001000
00000100
00000010
00002000
00000000
00003100
00000000
00000010
,
00000001
00000100
00001000
00020000
00000000
00130000
00000000
00000000
,
00010000
00100000
01000000
00020000
00000000
10030000
01000000
00010000
,
00001000
00000000
00000010
00000000
00000001
00000000
00000100
00000000
00000020
00000000
00000000
00002030
00000000
00000000
00003100
00000000
,
00010000
00000000
00001000
00000000
00000010
00000000
00002000
00000000
00000000
00000000
00013000
00000000
00000000
00000000
01000000
10000000
,
01000000
00100000
00001000
00020000
00000000
00030100
00000000
00000010
,
00001000
00010000
00001000
00000020
00000000
00000031
00000100
00001000
,
00011000
00011000
00000000
01010000
01010000
00000000
10100000
10100000
,
00000000
00000000
00000000
00000000
,
10000000
00000000
00100000
10000000
00100000
00000000
01000000
00000000
01000000
00000000
00000000
00010000
00000000
00000000
00100000
00000000
,
00001000
00010000
00001000
00000010
00001000
00010000
00100000
00000000
,
00010000
00000000
00000000
00010000
00001000
00000000
00000100
00000000
00000001
00000000
00000000
00000010
00000000
00000000
00000100
00000000
,
00001000
00000010
00000010
00000010
00010000
00001000
00000100
00000000
,
00000001
00000000
00000010
00000001
00000010
00000000
00000100
00000000
00000100
00000000
00000000
00001000
00000000
00000000
00000010
00000000
,
00010000
00001000
00010000
00100000
00010000
00001000
00000010
00001000
,
00020000
00000000
00000000
00130000
,
10000000
00000000
00000000
01000000
00100000
01000000
10000000
00000000
00000000
00010000
00000000
00000000
,
10000000
01000000
00010000
10000000
00100000
00010000
10000000
01000000
,
00010000
00001000
00000010
00000001
00001000
00000100
00000010
00000000
,
00000001
00000100
00001000
00000001
00000010
00001000
00000001
00000100
,
00001000
00010000
00100000
10000000
00010000
01000000
00100000
10000000
,
00010000
00000000
01000000
00100000
01000000
00000000
00001000
00010000
00001000
00000000
00100000
00000000
00001000
00010000
00001000
00000000
,
00000100
00000000
00000001
00001000
00000001
00001000
00000001
00000000
00000100
00000000
00001000
00000000
00010000
00000000
00100000
00000000
,
10000000
01000000
10000000
00000000
00010000
01000000
00010000
00000000
00100000
00001000
00100000
00000000
00001000
00010000
00001000
00000000
,
00011000
00000000
00001010
00000000
00000011
00000001
00000100
00001100
,
00000000
00000000
00000000
00000000
,
00010000
01000000
00100000
00020000
00000000
01030000
00000000
00100000
,
10000000
01000000
00010000
00002000
00000000
00003010
00000000
00000000
,
00001000
00000010
00000100
00002000
00000000
00003001
00000100
00001000
,
00010000
00000000
00100000
00000000
10000000
00000000
01000000
00000000
00200000
00000000
00000000
00320000
00000000
00000000
01030000
00000000
,
00001000
00000000
00010000
00000000
00100000
00000000
00020000
00000000
00000000
00000000
00031000
00000000
00000000
00000000
00000100
00000001
,
00000100
00000010
00010000
00002000
00000000
01003000
00000000
00100000
,
10000000
01000000
00100000
00020000
00000000
00031000
00000100
00000010
,
00000001
00000100
00001000
00010000
01000000
00010000
00011000
00000000
,
00001000
00000100
00000010
00002000
00000000
00003100
00000000
00000010
,
00000001
00000100
00001000
00020000
00000000
00130000
00000000
00000000
,
00010000
00100000
01000000
00020000
00000000
10030000
01000000
00010000
,
00001000
00000000
00000010
00000000
00000001
00000000
00000100
00000000
00000020
00000000
00000000
00002030
00000000
00000000
00003100
00000000
,
00010000
00000000
00001000
00000000
00000010
00000000
00002000
00000000
00000000
00000000
00013000
00000000
00000000
00000000
01000000
10000000
,
01000000
00100000
00001000
00020000
00000000
00030100
00000000
00000010
,
00000001
00000100
00000010
00002000
00000000
00013000
01000000
00100000
,
10000000
01000000
00010000
00001000
00000100
00000001
00000010
00000000
,
00000001
00000100
00001000
00010000
01000000
10000000
00100000
00100000
,
10000000
01000000
00100000
00010000
00001000
00000100
00000010
00000001
,
00001001
00000000
00000000
00000000
,
00000010
00000000
00001000
00000000
00010000
00000000
00000020
00000000
00000000
00000000
00001030
00000000
00000000
00000001
00000010
00000000
,
00001000
00010000
00100000
10000000
00000000
00100000
01000000
00000000
,
00100000
00000000
00010000
00000000
00001000
00000000
00200000
00000000
00000000
00000000
00310000
00000000
00000000
10000000
00100000
00000000
,
00010000
00001000
00010000
00000000
00001000
00000010
00001000
00000000
00000020
00000000
00000000
00000032
00000000
00000000
00000103
00000000
,
00001000
00000000
00010000
00000000
00100000
00000000
00020000
00000000
00000000
00000000
00031000
00000000
00000000
00000100
00000000
00000010
,
00000100
00000000
00001000
00000000
00010000
00000000
00001000
00000000
00100000
00010000
00100000
00000000
01000000
10000000
01000000
00000000
,
10000000
00100000
01000000
00020000
00000000
00031000
00000010
00000100
,
00000001
00000000
00000010
00000000
00001000
00010000
00001000
00010000
00001000
00000000
01000000
00000000
01000000
00000000
00000000
00000000
,
00100000
00000000
00010000
00000000
00001000
00000000
00200000
00000000
00000000
00000000
00310000
00000000
00000000
10000000
00100000
00000000
,
00010000
00001000
00000010
00000001
00000000
00000010
00000100
00000000
,
00000010
00000000
00001000
00000000
00010000
00000000
00000020
00000000
00000000
00000000
00001030
00000000
00000000
00000001
00000010
00000000
,
00001000
00010000
00001000
00000000
00010000
00100000
00010000
00000000
00200000
00000000
00000000
20300000
00000000
00000000
31000000
00000000
,
00010000
00000000
00001000
00000000
00000010
00000000
00002000
00000000
00000000
00000000
00013000
00000000
00000000
01000000
00000000
00100000
,
01000000
00000000
00010000
00000000
00001000
00000000
00010000
00000000
00000010
00001000
00000010
00000000
00000100
00000001
00000100
00000000
,
00000001
00000010
00000100
00002000
00000000
00013000
00100000
01000000
,
11000000
10100000
00110000
01010000
,
00011000
10010000
00011000
00001001
,
00001100
00001010
00000011
00000101
,
00002000
00000100
00000001
00000010
,
00023000
01000000
10000000
00100000
,
00031000
00000100
00000010
00000001
00000100
00001000
00010000
00022000
,
00000000
00000000
00000000
00033000
;

//---------------dance-double - NewbStepper-CDP----------------
#NOTEDATA:;
#CHARTNAME:NewbStepper-CDP;
#STEPSTYPE:dance-double;
#DESCRIPTION:NewbStepper-CDP;
#DIFFICULTY:Challenge;
#METER:17;
#RADARVALUES:0.840943,1.158462,0.277670,0.444272,0.634013,636,606,30,48,0,0,0,0,0,0.840943,1.158462,0.277670,0.444272,0.634013,636,606,30,48,0,0,0,0,0;
#CREDIT:NewbStepper;
#NOTES:
00000000
00000000
00000000
00000000
,
00001010
00000000
00000000
00000000
,
00000101
00000000
00000000
00000000
,
00000110
00000000
00001001
00000000
,
00000001
00000100
00000001
00000100
00000010
00001000
00000010
00001000
00000100
00010000
00000100
00010000
00001000
00100000
00001000
00100000
,
00020000
00000000
00000000
00030000
,
10000000
00000000
01000000
00000000
00100000
00000000
00020000
00000000
00000000
00000000
00031000
00000000
00000000
00000000
00010000
01000000
,
00010000
10000000
00100000
00020000
00000000
00031000
00000010
00000000
,
00000001
00000000
00000010
00000000
00000100
00000000
00002000
00000000
00000000
00000000
00013000
00000000
00000000
00001000
00000000
00000100
,
00001000
00000001
00001000
00000100
00010000
00001000
00100000
00010000
20000000
00000000
00000000
01000000
00000000
00000000
30010000
00000000
,
10000000
00000000
00100000
00000000
01000000
00000000
00020000
00000000
00000000
00000000
00031000
00000000
00000000
00000000
00010000
00100000
,
00010000
00000000
10000000
00000000
01000000
00000000
00010000
00000000
00001000
00010000
00001000
00000000
00000100
00000010
00000100
00000000
,
00000001
00000010
00000100
00002000
00000000
00013000
00100000
01000000
,
10000000
00000000
00100000
00000000
00010000
00001000
00010000
00001000
00000010
00000000
00000001
00000000
00001000
00000000
00000000
00000000
,
00000001
00000000
00000100
00000000
00000010
00000000
00002000
00000000
00000000
00000000
00013000
00000000
00000000
00000000
00001000
00000100
,
00001000
00000001
00000010
00002000
00000000
00013000
00100000
00000000
,
10000000
00000000
00100000
00000000
01000000
00000000
00020000
00000000
00000000
00000000
00031000
00000000
00000000
00010000
00000000
01000000
,
00010000
10000000
00010000
01000000
00001000
00010000
00000010
00001000
00000002
00000000
00000000
00000100
00000000
00000000
00001003
00000000
,
00000001
00000000
00000010
00000000
00000100
00000000
00002000
00000000
00000000
00000000
00013000
00000000
00000000
00000000
00001000
00000010
,
00001000
00000000
00000001
00000000
00000100
00000000
00001000
00000000
00010000
00001000
00010000
00000000
01000000
00100000
01000000
00000000
,
10000000
00000000
00100000
00000000
01000000
00000000
00020000
00000000
00000000
00000000
00031000
00000010
00001000
00000000
00000001
00000000
,
00000101
00000101
00000000
00001100
00001100
00000000
00011000
00011000
,
00000000
00000000
00000000
00000000
,
10000000
00000000
00000000
10000000
00200000
00000000
00010000
00000000
00310000
00000000
00000000
00001000
00000000
00000000
00000010
00000000
,
00000001
00000000
00000100
00000000
00001000
00000000
00000100
00000000
00000001
00000000
00000010
00000000
00000100
00001000
00000100
00000010
,
00000001
00000000
00000000
00000100
00000010
00000000
00001000
00000000
00002000
00000000
00000000
00023000
00000000
00000000
00130000
00000000
,
00010000
00000000
10000000
00000000
01000000
00000000
00010000
00000000
00001000
00000000
00100000
00000000
00001000
00010000
00000010
00001000
,
00000001
00000000
00000000
00000100
00000010
00000000
00001000
00000000
00002000
00000000
00000000
00003200
00000000
00000000
00000310
00000000
,
00000001
00000100
00001000
00010000
00100000
10000000
00100000
01000000
,
00020000
02030000
23000000
32000000
,
03010000
00000000
00000000
10000000
01000000
00010000
00001000
00000000
00000000
00011000
00000000
00000000
,
00010000
00001000
00000010
00010000
00001000
00000010
00010000
00001000
,
00000010
00000001
00000100
00001000
00001000
00010000
00001000
00100000
,
00001000
00010000
00100000
00001000
00010000
00100000
00001000
00010000
,
00100000
10000000
00010000
01000000
00010000
00100000
01000000
10000000
,
00010000
01000000
10000000
01000000
00010000
00000000
00010000
00100000
10000000
00100000
00010000
00000000
00001000
00000100
00000001
00000100
,
00001000
00000000
00001000
00000010
00000001
00000010
00001000
00000000
00000100
00000010
00001000
00000100
00010000
00001000
01000000
00010000
,
00100000
01000000
10000000
00100000
01000000
00010000
00100000
00001000
00010000
00000100
00001000
00000010
00000100
00000001
00000010
00000000
,
00000110
00000000
00001001
00000000
00000001
00001000
00010000
10000000
,
00000000
00000000
00000000
00000000
,
10000000
00000000
01000000
00000000
00100000
00000000
00020000
00000000
00000000
00000000
00031000
00000000
00000000
00000000
00010000
01000000
,
00010000
10000000
00100000
00020000
00000000
00031000
00000010
00000000
,
00000001
00000000
00000010
00000000
00000100
00000000
00002000
00000000
00000000
00000000
00013000
00000000
00000000
00001000
00000000
00000100
,
00001000
00000001
00001000
00000100
00010000
00001000
00100000
00010000
20000000
00000000
00000000
01000000
00000000
00000000
30010000
00000000
,
10000000
00000000
00100000
00000000
01000000
00000000
00020000
00000000
00000000
00000000
00031000
00000000
00000000
00000000
00010000
01000000
,
00010000
00000000
10000000
00000000
01000000
00000000
00010000
00000000
00001000
00010000
00001000
00000000
00000100
00000010
00000100
00000000
,
00000001
00000010
00000100
00002000
00000000
00013000
00100000
01000000
,
10000000
00000000
00100000
00000000
00010000
00001000
00010000
00001000
00000010
00000000
00000001
00000000
00001000
00000000
00000000
00000000
,
00000001
00000000
00000100
00000000
00000010
00000000
00002000
00000000
00000000
00000000
00013000
00000000
00000000
00000000
00001000
00000100
,
00001000
00000001
00000010
00002000
00000000
00013000
00100000
00000000
,
10000000
00000000
00100000
00000000
01000000
00000000
00020000
00000000
00000000
00000000
00031000
00000000
00000000
00010000
00000000
01000000
,
00010000
10000000
00010000
01000000
00001000
00010000
00000010
00001000
00000002
00000000
00000000
00000100
00000000
00000000
00001003
00000000
,
00000001
00000000
00000010
00000000
00000100
00000000
00002000
00000000
00000000
00000000
00013000
00000000
00000000
00000000
00001000
00000100
,
00001000
00000000
00000001
00000000
00000100
00000000
00001000
00000000
00010000
00001000
00010000
00000000
01000000
00100000
01000000
00000000
,
10000000
00100000
01000000
00020000
00000000
00031000
00000010
00000100
,
00000001
00000000
00000010
00000000
00001000
00010000
00001000
00010000
00100000
00000000
10000000
00000000
00010000
00000000
00000000
00000000
,
10000000
00000000
00100000
00000000
00010000
00001000
00010000
00001000
00000010
00000000
00000001
00000000
00001000
00000000
00000001
00000000
,
00000100
00001000
00010000
00100000
10000000
01000000
00010000
00001000
,
00011000
00000000
00000000
00000000
,
00100000
00000000
10000000
00000000
01000000
00000000
00020000
00000000
00000000
00000000
00031000
00000000
00000000
00010000
00000000
00001000
,
00000100
00000001
00000010
00001000
00000010
00000001
00001001
00000000
,
00000010
00000000
00000001
00000000
00000100
00000000
00002000
00000000
00000000
00000000
00013000
00000000
00000000
00001000
00000000
00010000
,
01000000
00100000
00010000
01000000
00100000
10000000
01000000
00010000
00002000
00000000
00000000
00003020
00000000
00000000
00000031
00000000
,
00000100
00000000
00001000
00000000
00010000
00000000
00002000
00000000
00000000
00000000
00003010
00000000
00000000
00000001
00000000
00000100
,
00001000
00000000
00010000
00000000
01000000
00000000
00010000
00000000
00001000
00100000
00001000
00000000
01000000
00100000
01000000
00000000
,
00010000
00100000
01000000
20000000
00000000
30100000
00010000
00001000
,
00000010
00000000
00000001
00000000
00000100
00000010
00000100
00000010
00001000
00000000
00000100
00000000
00001001
00000000
00000000
00000000
,
00000010
00000000
00000001
00000000
00000100
00000000
00002000
00000000
00000000
00000000
00013000
00000000
00000000
00001000
00000000
00010000
,
01000000
10000000
00100000
00010000
00100000
10000000
10010000
00000000
,
00100000
00000000
10000000
00000000
01000000
00000000
00020000
00000000
00000000
00000000
00031000
00000000
00000000
00010000
00000000
00001000
,
00000100
00000010
00001000
00000100
00000010
00000001
00000100
00001000
00020000
00000000
00000000
00230000
00000000
00000000
10300000
00000000
,
01000000
00000000
00010000
00000000
00001000
00000000
00020000
00000000
00000000
00000000
00130000
00000000
00000000
10000000
00000000
01000000
,
00010000
00000000
00001000
00000000
00000100
00000000
00001000
00000000
00010000
00000010
00010000
00000000
00000100
00000010
00000100
00000000
,
00001000
00000010
00000100
00000002
00000000
00000013
00001000
00010000
,
00110000
10100000
11000000
01010000
,
00001010
00000011
00000101
00001100
,
00011000
00110000
10100000
10010000
,
00100000
10000000
00100000
10000000
00100000
10000000
00100000
01000000
00010000
00100000
00001000
00010000
00000100
00000000
00000000
00000000
,
00000010
00000001
00000010
00000001
00000010
00000001
00000010
00000100
00001000
00000010
00010000
00001000
00100000
00000000
00000000
00000000
,
01000000
10000000
00100000
01000000
00010000
00100000
00001000
00010000
00000100
00001000
00000010
00000000
00000100
00000000
00002002
00000000
,
00000000
00000000
00000000
00003003
;

//---------------dance-double - NewbStepper-DDP----------------
#NOTEDATA:;
#CHARTNAME:NewbStepper-DDP;
#STEPSTYPE:dance-double;
#DESCRIPTION:NewbStepper-DDP;
#DIFFICULTY:Medium;
#METER:12;
#RADARVALUES:0.575173,0.597916,0.370226,0.148091,0.009256,435,395,40,16,0,0,0,0,0,0.575173,0.597916,0.370226,0.148091,0.009256,435,395,40,16,0,0,0,0,0;
#CREDIT:NewbStepper;
#NOTES:
00000000
00000000
00000000
00000000
,
11000000
00000000
00000000
00000000
,
00110000
00000000
00000000
00000000
,
01001000
00000000
00010100
00000000
,
00001010
00011000
00110000
00011000
,
00011000
00000000
00000000
00000000
,
00100000
00010000
01000000
00000000
00100000
00000000
10000000
00000000
,
01000000
00010000
00001000
00000000
00000100
00000000
00000001
00000000
,
00000010
00000001
00001000
00000000
00000100
00000000
00010000
00000000
,
00001000
00010000
01000000
10000000
00100000
00000000
10010000
00000000
,
10000000
00100000
01000000
00000000
00100000
00000000
10000000
00000000
,
00010000
00100000
01000000
00000000
00010000
00000000
00001000
00000000
,
00000100
00000001
00000010
00000000
00001000
00000000
00010000
00000000
,
00100000
10000000
01000000
00010000
00001000
00000000
00011000
00000000
,
00000010
00001000
00000100
00000000
00000010
00000000
00000001
00000000
,
00000100
00001000
00010000
00000000
01000000
00000000
10000000
00000000
,
00100000
10000000
00010000
00000000
01000000
00000000
00001000
00000000
,
00010000
00001000
00000100
00000001
00000010
00000000
00001001
00000000
,
00000001
00000010
00000100
00000000
00000010
00000000
00000001
00000000
,
00001000
00000010
00000100
00000000
00001000
00000000
00010000
00000000
,
01000000
10000000
00100000
00000000
00010000
00000000
00001000
00000000
,
00000010
00000001
00000000
00000100
00000010
00000000
00010000
00001000
,
00000000
00000000
00000000
00000000
,
01000000
00100000
10000000
01000000
00020000
00000000
00031000
00000000
,
00000010
00000001
00000100
00000000
00000010
00001000
00000100
00000000
,
00000100
00000010
00000001
00000100
00002000
00000000
00013000
00000000
,
01010000
00100000
11000000
00100000
,
00010000
01000000
10000000
01000000
00020000
00000000
00130000
00000000
,
00001000
00011000
00000100
00000110
,
00001002
00000000
00000000
00000103
,
00000001
00000000
00000000
00000100
00000010
00000100
00001000
00000000
00000000
00010000
00000000
00000000
,
00200000
00000000
10300000
02000000
00000000
03100000
00020000
00000000
,
01030000
00200000
00000000
00310000
00002000
00000000
00003100
00000001
,
00000020
00000000
00000031
00000200
00000000
00000310
00002000
00000000
,
00003100
00000020
00000000
00001030
00020000
00000000
01030000
00000000
,
10000000
01000000
10000000
00010000
10000000
01000000
00010000
00000000
,
00001000
00000100
00000001
00001000
00000001
00000100
00000001
00000000
,
00000010
00000101
00001000
00010100
,
00011000
00000000
00011000
00000000
00010000
01000000
10000000
00010000
,
00000000
00000000
00000000
00000000
,
00100000
00010000
01000000
00000000
00100000
00000000
10000000
00000000
,
01000000
00010000
00001000
00000000
00000100
00000000
00000001
00000000
,
00000010
00000001
00001000
00000000
00000100
00000000
00010000
00000000
,
00001000
00010000
01000000
10000000
00100000
00000000
10010000
00000000
,
10000000
00100000
01000000
00000000
00100000
00000000
10000000
00000000
,
00010000
00100000
01000000
00000000
00010000
00000000
00001000
00000000
,
00000100
00000001
00000010
00000000
00001000
00000000
00010000
00000000
,
00100000
10000000
01000000
00010000
00001000
00000000
00011000
00000000
,
00000010
00001000
00000100
00000000
00000010
00000000
00000001
00000000
,
00000100
00001000
00010000
00000000
01000000
00000000
10000000
00000000
,
00100000
10000000
00010000
00000000
01000000
00000000
00001000
00000000
,
00010000
00001000
00000100
00000001
00000010
00000000
00001001
00000000
,
00000001
00000010
00000100
00000000
00000010
00000000
00000001
00000000
,
00001000
00000010
00000100
00000000
00001000
00000000
00010000
00000000
,
01000000
10000000
00100000
00000000
00010000
00000000
00001000
00000000
,
00000010
00000001
00000100
00001000
00010000
00000000
00011000
00000000
,
00100000
10000000
01000000
00010000
00001000
00000000
00011000
00000000
,
00000010
00000101
00001000
00010100
,
00011000
00000000
00000000
00000000
,
00010000
01000000
10000000
00010000
00000000
10000000
00000000
01000000
,
00100000
00010000
10000000
00100000
00000000
00010000
00000000
00000000
,
00001000
00000100
00000001
00001000
00000000
00000010
00000000
00000100
,
00000001
00000010
00001000
00010000
00100000
00000000
10010000
00000000
,
00010000
00100000
01000000
00100000
00000000
00001000
00010000
00000000
,
00000100
00000010
00000001
00000010
00000000
00000100
00001000
00000000
,
00000001
00000100
00000010
00001000
00000000
00010000
01000000
00100000
,
10000000
11000000
00010000
01010000
,
00001000
00000100
00000001
00001000
00000000
00000001
00000000
00000100
,
00000010
00001000
00000001
00000010
00000000
00001000
00000000
00000000
,
00010000
01000000
10000000
00010000
00000000
00100000
00000000
01000000
,
10000000
00100000
00010000
00001000
00000010
00000000
00001001
00000000
,
00001000
00000010
00000100
00000010
00000000
00010000
00001000
00000000
,
01000000
00100000
10000000
00100000
00000000
01000000
00010000
00000000
,
10000000
01000000
00100000
00010000
00000000
00001000
00000100
00000010
,
00000001
00000101
00000010
00001100
,
00000100
00011000
00100000
01010000
,
00100000
11000000
00010000
01100000
,
00010000
00000100
00001000
00000100
00010000
00000100
00001000
00000000
,
00000001
00000100
00000010
00000100
00000001
00000100
00000010
00000000
,
00010000
00001000
00100000
00010000
01000000
00100000
10000000
20020000
,
00000000
00000000
00000000
30030000
;

//---------------dance-double - NewbStepper-BDP----------------
#NOTEDATA:;
#CHARTNAME:NewbStepper-BDP;
#STEPSTYPE:dance-double;
#DESCRIPTION:NewbStepper-BDP;
#DIFFICULTY:Easy;
#METER:6;
#RADARVALUES:0.286925,0.295718,0.083301,0.148091,0,217,208,9,16,0,0,0,0,0,0.286925,0.295718,0.083301,0.148091,0,217,208,9,16,0,0,0,0,0;
#CREDIT:NewbStepper;
#NOTES:
00000000
00000000
00000000
00000000
,
00001000
00000000
00000000
00000000
,
00010000
00000000
00000000
00000000
,
00001000
00000000
00001000
00000000
,
00010000
00001000
00010000
00001000
,
00011000
00000000
00000000
00000000
,
00010000
01000000
00010000
00000000
,
01000000
10000000
01000000
00000000
,
10000000
00100000
10000000
00000000
,
00100000
00010000
00100000
00000000
,
00010000
00001000
00010000
00000000
,
00001000
00000100
00001000
00000000
,
00000100
00000001
00000100
00000000
,
00001000
00010000
00001000
00000000
,
00010000
00100000
00010000
00000000
,
00100000
10000000
00100000
00000000
,
10000000
01000000
10000000
00000000
,
01000000
00010000
01000000
00000000
,
00010000
00001000
00010000
00000000
,
00001000
00000010
00001000
00000000
,
00000010
00000000
00000001
00000000
,
00001001
00000000
00000000
00001001
00000000
00000000
00001001
00000000
,
00000000
00000000
00000000
00000000
,
00000020
00000000
00001000
00000000
,
00000130
00000001
00000100
00001000
,
00020000
00000000
00100000
00000000
,
00031000
00000000
10010000
00000000
,
00200000
00000000
00010000
00000000
,
01300000
10000000
01000000
00010000
,
00002000
00000000
00000000
00003010
,
00000001
00000000
00000000
00000000
,
00000001
00000100
00001000
00000000
,
00010000
01000000
10000000
00000000
,
10000000
00100000
00010000
00000000
,
00001000
00000010
00000001
00000000
,
00000001
00000000
00000010
00000000
,
00001000
00000000
00010000
00000000
,
01000000
00000000
10000000
00000000
,
00100000
00000000
00100000
00000000
00010000
00000000
00010000
00010000
,
00000000
00000000
00000000
00000000
,
00001000
00000100
00001000
00000000
,
00000100
00000001
00000100
00000000
,
00000001
00000010
00000001
00000000
,
00000010
00001000
00000010
00000000
,
00001000
00010000
00001000
00000000
,
00010000
01000000
00010000
00000000
,
01000000
10000000
01000000
00000000
,
00010000
00001000
00010000
00000000
,
00001000
00000010
00001000
00000000
,
00000010
00000001
00000010
00000000
,
00000001
00000100
00000001
00000000
,
00000100
00001000
00000100
00000000
,
00001000
00010000
00001000
00000000
,
00010000
00100000
00010000
00000000
,
00100000
10000000
00100000
00000000
,
00010000
00001000
00010000
00000000
,
00001000
00000100
00001000
00000000
,
00010000
01000000
00010000
00000000
,
00011000
00000000
00000000
00000000
,
00001000
00000100
00000010
00000000
,
00001000
00000010
00000100
00000000
,
00000001
00000100
00000010
00000000
,
00000100
00001000
00010000
00000000
,
00010000
00100000
10000000
00000000
,
01000000
00100000
10000000
00000000
,
00100000
00010000
01000000
00000000
,
00100000
00010000
10000000
01000000
,
00010000
01000000
00100000
00000000
,
00010000
00100000
01000000
00000000
,
10000000
01000000
00100000
00000000
,
01000000
00010000
00001000
00000000
,
00001000
00000010
00000001
00000000
,
00000100
00000010
00000001
00000000
,
00000010
00001000
00000100
00000000
,
00000020
00000030
00000002
00000003
,
00000200
00000300
00002000
00003000
,
00020000
00030000
02000000
03000000
,
20020000
00000000
00000000
30030000
,
02200000
00000000
00000000
03300000
,
20020000
00000000
00000000
00000000
00000000
00000000
00000000
30030000
;
