#VERSION:0.83;
#TITLE:Dancer in the flare(XX-Special);
#ARTIST:猫叉Master;
#ARTISTTRANSLIT:Nekomata Master;
#BANNER:Dancer in the flare(XX-Special).png;
#BACKGROUND:Dancer in the flare(XX-Special)-bg.png;
#JACKET:Dancer in the flare(XX-Special)-jacket.png;
#MUSIC:Dancer in the flare(XX-Special).ogg;
#SAMPLESTART:74.527;
#SAMPLELENGTH:15;
#BPMS:0=132;

//---------------dance-single - forcednature-CSP----------------
#NOTEDATA:;
#CHARTNAME:forcednature-CSP;
#STEPSTYPE:dance-single;
#DESCRIPTION:forcednature-CSP;
#DIFFICULTY:Challenge;
#METER:16;
#CREDIT:forcednature;
#NOTES:
0000
0000
0000
0000
,
0000
0000
0000
0000
,
0000
0000
0000
0000
,
0000
0000
0000
0000
,
0000
0000
0000
0000
0000
0000
0000
0010
,
1001
1100
0001
1010
,
1000
0101
1000
0011
,
0001
0110
1000
0110
,
0010
0000
0000
0000
0000
0000
0100
0000
0000
0000
0000
0000
1001
0000
0000
0001
0010
0100
2000
0000
0000
0000
0000
0000
,
3001
0100
0010
1000
0001
0000
0001
0100
0010
1000
0001
0000
1000
0000
0010
0000
,
1000
0100
0010
0001
1000
0000
1000
0100
0010
0001
1000
0010
0100
0001
0010
0000
,
0001
0010
0100
1000
0001
0000
0001
0010
0100
1000
0001
0000
0100
0000
0010
0000
,
1000
0000
0000
0010
0000
0000
0100
0000
0000
0001
0000
0000
2000
0000
0000
0000
0000
0000
3200
0000
0000
0000
0000
0000
0320
0000
0000
0000
0000
0000
0031
0000
1000
0000
0001
0000
0100
0000
0000
0000
0010
0000
1000
0000
0000
0000
0000
0000
,
0001
0100
1000
0100
0001
0000
0001
0100
1000
0100
0001
0000
1000
0000
0010
0000
,
1000
0100
0001
0100
1000
0000
0010
0000
0100
0000
0001
0010
0001
0100
0010
1000
,
0100
0000
0010
1000
0010
0000
0001
0000
0100
0000
0010
0001
0010
0000
1000
0000
,
0100
0000
0000
0000
0000
0000
0010
0000
0000
0001
0000
0000
1000
0000
0000
0000
0000
0000
0010
0000
0100
0000
0001
0000
0100
0000
0000
0001
0000
0000
0010
0000
0000
0001
0000
0000
0100
0000
0000
0001
0000
0000
1000
0000
0000
0000
0000
0000
,
1010
0000
0000
0000
0000
0000
0000
0000
0000
0010
0000
0000
0100
0000
0000
0000
0000
0000
0001
0000
0000
0000
0000
0000
0010
0000
0000
0000
0000
0000
0100
0000
1000
0000
0100
0000
1000
0000
0000
0100
0000
0000
0010
0000
0000
0000
0000
0000
,
0001
0000
0000
0000
0000
0000
0100
0000
0001
0000
0100
0000
0001
0000
0000
0100
0000
0000
0010
0000
0000
0000
0000
0000
1000
0000
0000
0000
0000
0000
0100
0000
0000
0010
0000
0000
0001
0000
0000
0100
0000
0000
0010
0000
0000
1000
0000
0000
,
0001
0000
0000
0000
0000
0000
0000
0000
0000
0000
0000
0000
0000
0000
0000
0000
0000
0000
0000
0000
0000
0000
0000
0000
0200
0000
0000
0000
0000
0000
0000
0300
0000
0000
0000
0000
0200
0000
0000
0000
0000
0000
0000
0300
0000
0000
0000
0000
1000
0000
0000
0000
0000
0000
0000
0000
0000
0000
0000
0000
0000
0000
0000
0000
0000
0000
0000
0000
0000
0000
0000
0000
0000
0000
0000
0000
0000
0000
0000
0000
0000
0000
0000
0000
1000
0000
0000
0000
0000
0000
0000
0000
0000
0000
0000
0000
0010
0000
0000
0000
0000
0000
0000
0000
0000
0000
0000
0000
0000
0000
0000
0000
0000
0000
0000
0000
0000
0000
0000
0000
0100
0000
0000
0000
0000
0000
0000
0000
0001
0000
0000
0000
0000
0000
0000
0000
0100
0000
0000
0000
0000
0000
0000
0000
0001
0000
0000
0000
0000
0000
0000
0000
0000
0000
0000
0000
1000
0000
0000
0000
0000
0000
0000
0000
0000
0000
0000
0000
0010
0000
0000
0000
0000
0000
0000
0000
0000
0000
0000
0000
0000
0000
0000
0000
0000
0000
0000
0000
0000
0000
0000
0000
,
0100
0000
0000
0000
0000
0000
0001
0000
0010
0000
0001
0000
0010
0000
0000
0100
0000
0000
1000
0000
0000
0000
0000
0000
0001
0000
0000
0010
0000
0000
0001
0000
0000
0100
0000
0000
0010
0000
0000
1000
0000
0000
0100
0000
0000
0000
0000
0000
,
0110
0000
0000
0000
0000
0000
0000
0000
0000
0010
0000
0000
0001
0000
0000
0000
0000
0000
0000
0000
0000
0001
0000
0000
0100
0000
0000
0000
0000
0000
0010
0000
1000
0000
0010
0000
1000
0000
0000
0001
0000
0000
0010
0000
0000
0000
0000
0000
,
0100
0000
0000
0000
0000
0000
1000
0000
0001
0000
1000
0000
0001
0000
0000
0100
0000
0000
0010
0000
0000
0000
0000
0000
1000
0000
0000
0100
0000
0000
0010
0000
0000
0001
0000
0000
0010
0000
0000
0100
0000
0000
1000
0000
0000
0001
0000
0000
,
0100
0000
0000
0100
0010
0000
1000
0000
0001
0010
0100
0010
0001
0100
0010
1000
,
0002
0000
0000
0000
0000
0000
0000
0000
0013
0000
0100
0000
2000
0000
0000
0000
0000
0000
0000
0000
0000
0000
0000
0000
3010
0000
0000
0100
0000
0000
0010
0000
0000
0100
0000
0000
0001
0000
0000
0010
0000
0000
0100
0000
0000
1000
0000
0000
,
0020
0000
0100
0000
1030
0001
0020
0000
0100
0000
0031
1000
,
0020
0000
0000
0000
0000
0000
0000
0000
0001
0000
0000
0000
0000
0000
0000
0000
0100
0000
0000
0000
0000
0000
0000
0000
1030
0000
0000
0000
0000
0000
0010
0000
0000
0100
0000
0000
0001
0000
0000
0010
0000
0000
0001
0000
0000
0100
0000
0000
,
0020
0000
0001
0000
1030
0001
0020
0000
1000
0000
0031
1000
,
0200
0000
0000
0000
0000
0000
0000
0000
0001
0000
0000
0000
0000
0000
0000
0000
1300
0000
0000
0000
0100
0000
0000
0000
0010
0000
0000
0001
0000
0000
0100
0000
0000
0001
0000
0000
1000
0000
0000
0010
0000
0000
1000
0000
0000
0100
0000
0000
,
0020
0000
1000
0000
0031
0100
2000
0000
0001
0000
3100
0001
,
0020
0000
0000
0000
0000
0000
0000
0000
1000
0000
0000
0000
0000
0000
0000
0000
0100
0000
0000
0000
0000
0000
0000
0000
0031
0000
0000
0010
0000
0000
0100
0000
0000
1000
0000
0000
0001
0000
0000
0100
0000
0000
0001
0000
0000
0010
0000
0000
,
0200
0000
0001
0000
1300
0010
0002
0000
1000
0000
0013
1000
,
0200
0000
0000
0000
0001
0000
0000
0000
0310
0000
0100
0000
1000
0100
0010
0001
0000
0000
0001
0100
0010
1000
0000
0000
,
0101
0000
0000
0101
0000
0000
0000
0000
1100
0000
0000
1100
0000
0000
0000
0000
,
1001
0000
0000
0001
1000
0000
1000
0100
0001
0000
1000
0010
0001
0000
0001
0100
,
1100
0000
0000
0101
0000
0000
0010
0010
0110
0000
0000
1001
0000
0100
0010
0100
,
0110
0000
0000
1001
0000
0000
0001
0010
0001
0100
1000
0100
0010
1000
0100
1000
,
1010
0000
0000
0101
0000
0000
0001
1000
1100
0000
0000
0011
0000
0000
0100
0000
,
1001
0000
0000
0000
0000
0000
0000
0000
0000
0110
0000
0000
0000
0000
0000
0000
0000
0000
1000
0000
0100
0000
0010
0000
0001
0000
0000
0000
0000
0000
0001
0000
0100
0000
0010
0000
1000
0000
0000
0001
0000
0000
0010
0000
0000
0000
0000
0000
,
0110
0000
0000
1100
0000
0000
0001
0000
0101
0000
0000
1000
0010
0000
0100
0001
,
0020
0000
0000
0100
0000
0000
0032
0000
0000
2003
0000
0000
3010
1000
0001
0010
0000
0000
0001
1000
0001
0100
0000
0000
,
1000
0100
0001
0010
0100
0000
0001
0100
1000
0010
0100
0000
0001
0000
1000
0010
,
0001
0010
1000
0100
0010
0000
1000
0010
0001
0100
0010
0001
0010
1000
0001
0100
,
1000
0100
0001
1000
0010
0000
0001
0010
1000
0001
0100
0000
0010
0000
1000
0100
,
0001
0000
0000
0100
0000
0000
1000
0000
0000
0001
0000
0000
0020
0000
0000
0000
0000
0000
2030
0000
0000
0000
0000
0000
3002
0000
0000
0000
0000
0000
0103
0000
0010
0000
0100
0000
1000
0000
0000
0000
1000
0000
0010
0000
0000
0000
0000
0000
,
0001
0010
1000
0100
0001
0000
1000
0010
0001
0100
1000
0000
0001
0010
1000
0100
,
0001
0000
1000
0010
0001
0100
1000
0000
0001
0010
1000
0100
0001
1000
0010
0001
,
0100
0000
1000
0100
0001
0000
0001
0010
1000
0000
1000
0010
0100
0000
1000
0000
,
1001
0000
0000
0001
0000
0000
0100
0000
0000
0010
1000
0010
1000
0000
1000
0100
0000
0100
0010
0000
0010
0001
0000
0001
,
1000
0000
0000
1100
0000
0000
0010
0000
0101
0000
1000
1000
0100
0000
0001
0001
,
0100
0000
0010
0110
0000
0100
1000
0001
0100
0000
1000
0100
0001
0000
1000
0100
,
0101
0000
0010
0110
0000
0000
0001
0000
1100
0000
0001
0101
0000
0000
1000
0010
,
0100
0000
0000
0000
0000
0000
1000
0000
0000
0100
0000
0000
0001
0000
0000
0000
0000
0000
0001
0000
0000
0010
0000
0000
0100
0000
0000
0000
1000
0000
0010
0000
0100
0000
0001
0000
0010
0000
0000
0000
0000
0000
2002
0000
0000
0000
0000
0000
,
0000
0000
0000
0000
,
0000
0000
0000
0000
,
0000
0000
0000
0000
,
3003
0000
0000
0000
;

//---------------dance-double - forcednature-CDP----------------
#NOTEDATA:;
#CHARTNAME:forcednature-CDP;
#STEPSTYPE:dance-double;
#DESCRIPTION:forcednature-CDP;
#CHARTSTYLE:;
#DIFFICULTY:Challenge;
#METER:16;
#CREDIT:forcednature;
#NOTES:
00000000
00000000
00000000
00000000
,
00000000
00000000
00000000
00000000
,
00000000
00000000
00000000
00000000
,
00000000
00000000
00000000
00000000
,
00000000
00000000
00000000
00000000
00000000
00000000
00000000
00001000
,
00010000
00100000
10000000
00100000
,
00010000
00000100
00000001
00000100
,
00010000
00001000
00000100
00010000
,
01000000
00000000
00000000
00000000
00000000
00000000
00001000
00000000
00000000
00000000
00000000
00000000
00011000
00000000
00000000
00010000
00001000
00100000
00020000
00000000
00000000
00000000
00000000
00000000
,
01030000
00001000
00010000
00001000
00100000
00000000
00000100
00010000
00001000
00010000
00000010
00000000
00001000
00000000
00010000
00000000
,
00100000
00001000
00010000
00001000
01000000
00000000
00000010
00010000
00001000
00010000
00000100
00001000
00000010
00010000
00001000
00000000
,
00100000
00001000
00010000
00000100
00001000
00000000
00000010
00010000
00001000
01000000
00010000
00000000
00100000
00000000
00001000
00000000
,
01000000
00000000
00000000
00001000
00000000
00000000
00010000
00000000
00000000
00000010
00000000
00000000
00002000
00000000
00000000
00000000
00000000
00000000
00003200
00000000
00000000
00000000
00000000
00000000
00000320
00000000
00000000
00000000
00000000
00000000
00000031
00000000
00001000
00000000
00000001
00000000
00000100
00000000
00000000
00000000
00000010
00000000
00001000
00000000
00000000
00000000
00000000
00000000
,
00000100
00010000
00001000
00010000
00100000
00000000
01000000
00001000
00010000
00001000
00000010
00000000
00000100
00000000
00001000
00000000
,
00000010
00010000
00001000
00010000
01000000
00000000
00100000
00000000
00001000
00000000
00010000
00100000
01000000
00100000
10000000
00010000
,
00100000
00000000
01000000
00010000
00001000
00000000
00000100
00000000
00001000
00000000
00010000
00100000
00010000
00000000
00001000
00000000
,
00000010
00000000
00000000
00000000
00000000
00000000
00000001
00000000
00000000
00001000
00000000
00000000
00000010
00000000
00000000
00000000
00000000
00000000
00000100
00000000
00000001
00000000
00001000
00000000
00000001
00000000
00000000
00000010
00000000
00000000
00000001
00000000
00000000
00000100
00000000
00000000
00000010
00000000
00000000
00010000
00000000
00000000
00001000
00000000
00000000
00000000
00000000
00000000
,
00101000
00000000
00100000
00000000
01000000
00000000
10000000
00000000
00100000
00000000
01000000
10000000
01000000
00010000
00100000
00000000
,
00001000
00000000
00010000
00000100
00000010
00000001
00001000
00000000
00000010
00000000
00000100
00001000
00010000
00001000
00100000
00010000
,
00100000
00000000
00000000
00000000
00000000
00000000
01000000
00000000
00000000
00010000
00000000
00000000
00001000
00000000
00000000
00000000
00000000
00000000
00000100
00000000
00000000
00000000
00000000
00000000
00000010
00000000
00000000
00000000
00000000
00000000
00001000
00000000
00000100
00000000
00001000
00000000
00000100
00000000
00000000
00000010
00000000
00000000
00000001
00000000
00000000
00000000
00000000
00000000
,
00000100
00000000
00000000
00000000
00000000
00000000
00001000
00000000
00010000
00000000
00001000
00000000
00010000
00000000
00000000
00001000
00000000
00000000
01000000
00000000
00000000
00000000
00000000
00000000
00010000
00000000
00000000
00100000
00000000
00000000
00010000
00000000
00000000
10000000
00000000
00000000
00100000
00000000
00000000
00010000
00000000
00000000
00100000
00000000
00000000
00000000
00000000
00000000
,
01100000
00000000
00000000
00000000
00000000
00000000
01000000
00000000
00000000
00000000
00000000
00000000
00010000
00000000
00000000
00000000
00000000
00000000
00100000
00000000
00000000
00000000
00000000
00000000
00001000
00000000
00000000
00000000
00000000
00000000
00010000
00000000
00000010
00000000
00001000
00000000
00000010
00000000
00000000
00001000
00000000
00000000
00000100
00000000
00000000
00000000
00000000
00000000
,
00000010
00000000
00000000
00000000
00000000
00000000
00000001
00000000
00001000
00000000
00000001
00000000
00000100
00000000
00000000
00000010
00000000
00000000
00001000
00000000
00000000
00000000
00000000
00000000
00000100
00000000
00000000
00010000
00000000
00000000
00001000
00000000
00000000
00010000
00000000
00000000
01000000
00000000
00000000
00100000
00000000
00000000
01000000
00000000
00000000
10000000
00000000
00000000
,
00010000
00000000
01000000
00000000
00100000
00000000
00010000
00000000
00001000
00000010
00000100
00000010
00000001
00001000
00000001
00000100
,
00002000
00000000
00000000
00000000
00000000
00000000
00000000
00000000
00013000
00000000
00000000
00000000
00200000
00000000
00000000
00000000
00000000
00000000
00000000
00000000
00000000
00000000
00000000
00000000
10300000
00000000
00000000
00010000
00000000
00000000
10000000
00000000
00000000
01000000
00000000
00000000
00100000
00000000
00000000
00001000
00000000
00000000
00010000
00000000
00000000
00000100
00000000
00000000
,
00002000
00000000
00000010
00000000
00003100
00010000
00002000
00000000
00100000
00000000
01003000
00001000
,
00200000
00000000
00000000
00000000
00000000
00000000
00000000
00000000
10000000
00000000
00000000
00000000
00000000
00000000
00000000
00000000
01000000
00000000
00000000
00000000
00000000
00000000
00000000
00000000
00310000
00000000
00000000
00000000
00000000
00000000
01000000
00000000
00000000
00001000
00000000
00000000
00010000
00000000
00000000
00000010
00000000
00000000
00001000
00000000
00000000
00000100
00000000
00000000
,
00000020
00000000
00001000
00000000
00000130
00010000
00002000
00000000
00000100
00000000
00013000
00001000
,
02000000
00000000
00000000
00000000
00000000
00000000
00000000
00000000
00100000
00000000
00000000
00000000
00000000
00000000
00000000
00000000
13000000
00000000
00000000
00000000
01000000
00000000
00000000
00000000
00010000
00000000
00000000
01000000
00000000
00000000
00010000
00000000
00000000
00100000
00000000
00000000
01000000
00000000
00000000
00010000
00000000
00000000
00001000
00000000
00000000
00000000
00000000
00000000
,
00000200
00000000
00000010
00000000
00000301
00000100
00002000
00000000
00100000
00000000
00013000
00100000
,
02000000
00000000
00000000
00000000
00000000
00000000
00000000
00000000
10000000
00000000
00000000
00000000
00000000
00000000
00000000
00000000
00010000
00000000
00000000
00000000
00000000
00000000
00000000
00000000
03100000
00000000
00000000
01000000
00000000
00000000
00010000
00000000
00000000
00100000
00000000
00000000
01000000
00000000
00000000
00100000
00000000
00000000
00001000
00000000
00000000
00010000
00000000
00000000
,
00002000
00000000
00100000
00000000
01003000
00001000
00020000
00000000
00000010
00000000
00030100
00010000
,
00002000
00000000
00000000
00000000
00000010
00000000
00000000
00000000
00013000
00000000
00001000
00000000
00000010
00000100
00000010
00000100
00000000
00000000
00001000
00000001
00000100
00000010
00000000
00000000
,
00000110
00000000
00000000
00011000
00000000
00000000
00000000
00000000
01100000
00000000
00000000
00011000
00000000
00000000
00000000
00000000
,
00010100
00000000
00000000
00010000
00001000
00000000
00001000
00010000
00100000
00000000
00010000
00001000
00000010
00000000
00001000
00010000
,
01000000
00000000
00000000
01100000
00000000
00000000
00100000
00001000
00010000
00000000
00000000
00010010
00000000
00000010
00000100
00001000
,
00000100
00000000
00000000
00000101
00000000
00000000
00000001
00000010
00000001
00000100
00001000
00010000
00001000
01000000
00010000
00100000
,
01000000
00000000
00000000
10010000
00000000
00000000
10000000
00100000
00010000
00000000
00000000
00011000
00000000
00000000
00000100
00000000
,
00000110
00000000
00000000
00000000
00000000
00000000
00000000
00000000
00000000
00001001
00000000
00000000
00000000
00000000
00000000
00000000
00000000
00000000
00001000
00000000
00000100
00000000
00010000
00000000
00000100
00000000
00000000
00000000
00000000
00000000
00010000
00000000
00001000
00000000
01000000
00000000
00001000
00000000
00000000
00000000
00000000
00000000
00010000
00000000
00000000
00000000
00000000
00000000
,
00110000
00000000
00000000
01100000
00000000
00000000
10000000
00000000
01010000
00000000
00000000
00001000
00010000
00000000
00000100
00001000
,
00000020
00000000
00000000
00000000
00000000
00000000
00000230
00000000
00000000
00000302
00000000
00000000
00000013
00000100
00001000
00000100
00000000
00000000
00010000
00001000
01000000
00001000
00000000
00000000
,
00010000
00001000
00000010
00000100
00000010
00000000
00001000
00010000
00100000
01000000
00100000
00000000
00010000
00000000
00001000
00000100
,
00001000
00010000
01000000
00100000
01000000
00000000
00010000
00001000
00000100
00000010
00000100
00000001
00001000
00000100
00000001
00000100
,
00001000
00000010
00000100
00000001
00001000
00000000
00010000
01000000
00100000
10000000
00010000
00000000
00100000
00000000
01000000
00010000
,
01000000
00000000
00000000
10000000
00000000
00000000
00100000
00000000
00000000
10000000
00000000
00000000
00020000
00000000
00000000
00000000
00000000
00000000
00032000
00000000
00000000
00000000
00000000
00000000
00003002
00000000
00000000
00000000
00000000
00000000
00000013
00000000
00000001
00000000
00000100
00000000
00000001
00000000
00000000
00000000
00000001
00000000
00000010
00000000
00000000
00000000
00000000
00000000
,
00001000
00000010
00000001
00000100
00001000
00000000
00010000
00100000
10000000
01000000
00010000
00000000
00001000
00000010
00000001
00000100
,
00001000
00000000
00010000
00100000
10000000
01000000
00010000
00000000
00001000
00000010
00000001
00000100
00001000
00010000
00100000
10000000
,
01000000
00000000
00010000
00001000
00000010
00000000
00001000
00010000
00100000
00000000
00010000
00001000
00000100
00000000
00001000
00010000
,
01000000
00000000
00000000
00100000
00000000
00000000
00010000
00000000
00000000
00001000
00000000
00000000
00000100
00000000
00000100
00010000
00000000
00010000
00000010
00000000
00000010
00001000
00000000
00001000
,
00000001
00000000
00000000
00000110
00000000
00000000
00001000
00000000
00011000
00000000
00100000
00010000
01000000
00000000
00100000
10000000
,
01000000
00000000
00100000
01100000
00000000
00000000
01000000
00010000
00001000
00000000
00000100
00001000
00010000
00000000
00000100
00001000
,
00000010
00000000
00000000
00000110
00000000
00000000
00000000
00000000
00011000
00000000
00000000
01100000
00000000
00000000
10000000
01000000
,
00010000
00000000
00001000
00000100
00000001
00000000
00000001
00000010
00001000
00010000
00100000
00010000
00001000
00000000
00020200
00000000
,
00000000
00000000
00000000
00000000
,
00000000
00000000
00000000
00000000
,
00000000
00000000
00000000
00000000
,
00030300
00000000
00000000
00000000
;
