#TITLE:DROP OUT (20XX CyberTech Remix);
#ARTIST:Wavelength;
#BANNER:DROP OUT (20XX CyberTech Remix).png;
#BACKGROUND:DROP OUT (20XX CyberTech Remix)-bg.png;
#MUSIC:DROP OUT (20XX CyberTech Remix).ogg;
#OFFSET:-3.69;
#SAMPLESTART:34.382;
#SAMPLELENGTH:15;
#BPMS:0=130,160=260;

//---------------dance-single - Nitrospan-bSP----------------
#NOTES:
     dance-single:
     Nitrospan:
     Beginner:
     4:
     :
0000
0000
0000
0000
,
0000
0000
0000
0000
,
0000
0000
0000
0000
,
0000
0000
0000
0000
,
1001
0000
0100
0000
,
0010
0000
1000
0000
,
0100
0000
0010
0000
,
0001
0000
1000
0000
,
0001
0000
0001
0000
,
0100
0100
0100
0000
,
0010
0000
0010
0000
,
1000
1000
1000
0000
,
0010
0000
0010
0000
,
0100
0100
0100
0000
,
0001
0000
0001
0000
,
2000
0000
3000
0000
,
1001
1001
1001
0000
,
0001
0000
0100
0000
,
0001
0001
0001
0000
,
1000
0000
0100
0000
,
1000
1000
1000
0000
,
0001
0000
0010
0000
,
0001
0001
0001
0000
,
1000
0000
0010
0000
,
1000
1000
1000
0000
,
0010
0000
0100
0000
,
0010
0010
0010
0000
,
1000
0000
0001
0000
,
0100
0100
0100
0000
,
0001
0000
1000
0000
,
0010
0010
0010
0000
,
0100
0000
0010
0000
,
0100
0100
0100
0000
,
1001
0000
0001
0000
,
0010
0000
0100
0000
,
1000
0000
0010
0000
,
0100
0000
0001
0000
,
2002
0000
0000
0000
,
3000
0000
0000
0000
,
0003
0000
0000
0000
,
1000
0000
0000
0000
,
0001
0000
0000
0000
,
1000
0000
0000
0000
,
0001
0000
0000
0000
,
0100
0000
0000
0000
,
0010
0000
0000
0000
,
0100
0000
0000
0000
,
0010
0000
0000
0000
,
0110
0000
0000
0000
,
0001
0000
0000
0000
,
1000
0000
0000
0000
,
0100
0000
0000
0000
,
0010
0000
0000
0000
,
0001
0000
0000
0000
,
1000
0000
0000
0000
,
0010
0000
0000
0000
,
0100
0000
0000
0000
,
0001
0000
0000
0000
,
0010
0000
0000
0000
,
0100
0000
0000
0000
,
1000
0000
0000
0000
,
0001
0000
0000
0000
,
0200
0000
0000
0000
,
0000
0000
0300
0000
,
0100
0000
0000
0100
,
0000
0000
0000
0000
,
0010
0000
0000
0010
,
0000
0000
0000
0000
,
1000
0000
0000
1000
,
0000
0000
0000
0000
,
0001
0000
0000
0001
,
0000
0000
0000
0000
,
0010
0000
0000
0001
,
0000
0000
0000
0000
,
1000
0000
0000
0010
,
0000
0000
0000
0000
,
0100
0000
0000
0001
,
0000
0000
0000
0000
,
1000
0000
0000
0100
,
0000
0000
0000
0000
,
0020
0000
0000
0000
,
0000
0000
0000
0000
,
0000
0000
0000
0000
,
0000
0000
0030
0000
,
0010
0000
0001
0000
,
0100
0000
1000
0000
,
0010
0010
0010
0010
;

//---------------dance-single - Nitrospan-BSP----------------
#NOTES:
     dance-single:
     Nitrospan:
     Easy:
     7:
     :
0000
0000
0000
0000
,
0000
0000
0000
0000
,
0000
0000
0000
0000
,
0000
0000
0000
0000
,
1001
0000
0100
0001
,
1000
0000
0100
1000
,
0010
0000
0100
0001
,
0010
0000
0100
0100
,
0100
1000
0100
0001
,
0100
1000
0100
0001
,
0100
1000
0010
0001
,
0010
1000
0100
0001
,
1000
0010
0001
0010
,
1000
0010
0001
0010
,
1000
0010
0001
0100
,
0020
0000
0000
0030
,
0100
0010
0100
0000
0010
0100
0010
0000
,
1000
0000
0100
0000
1000
0000
0100
1000
,
0001
0000
0100
0000
0001
0000
0100
0001
,
0010
0000
0001
0000
0010
0000
0001
0010
,
0100
0000
0010
0000
0100
0000
0010
0100
,
1000
0000
0010
0000
1000
0000
0010
1000
,
0100
0000
1000
0000
0100
0000
1000
0001
,
0010
0000
0001
0000
0010
0000
0001
0100
,
0010
0000
0110
0000
1001
0000
0001
0010
,
0001
0000
0010
0000
0001
0000
0010
0001
,
1000
0000
0010
0000
1000
0000
0010
1000
,
0100
0000
1000
0000
0100
0000
1000
0100
,
0010
0000
0100
0000
0010
0000
0100
0010
,
0001
0000
0100
0000
0001
0000
0100
0001
,
0010
0000
0001
0000
0010
0000
0001
1000
,
0100
0000
1000
0000
0100
0000
1000
0010
,
0100
0000
0110
0000
1001
0000
1000
0100
,
0010
0011
0001
1001
,
1000
1100
0100
0110
,
0010
0011
0100
1100
,
0010
0000
0001
0000
1000
0000
0000
0001
0000
0000
0100
0000
0010
0000
0000
0000
,
1001
0000
0000
0000
,
2000
0000
3000
0000
,
0002
0000
0003
0000
,
0100
0000
0001
0000
,
1000
0000
0100
0000
,
1000
0000
0001
0000
,
0100
0000
0001
0000
,
1000
0000
0100
0000
,
1000
0000
0001
0000
,
0100
0000
0001
0000
,
1000
0000
0100
0000
,
0010
0000
0110
0000
,
0100
1000
0001
0000
,
0001
0000
0101
0000
,
0100
0001
0010
0000
,
0100
0000
1100
0000
,
1000
0010
0100
0000
,
0100
0000
0110
0000
,
0010
1000
0001
0000
,
0010
0000
0011
0000
,
0010
0100
1000
0000
,
1000
0000
1100
0000
,
0010
0001
0100
0000
,
0010
0000
0010
0000
,
0100
0000
0100
0000
,
0001
1000
0001
1000
,
0001
1000
0001
0000
,
2000
0000
3100
2000
,
0000
3100
1000
0000
,
0002
0000
0103
0002
,
0000
0103
0001
0000
,
0020
0000
0031
0020
,
0000
0031
0010
0000
,
0200
0000
1300
0200
,
0000
1300
0100
0000
,
0020
0000
0031
0200
,
0000
0301
0010
0000
,
0200
0000
1300
0020
,
0000
1030
0100
0000
,
0110
0000
0011
0000
,
1100
0000
1001
0000
,
0101
0000
1010
0000
,
0110
0000
1001
0000
,
0002
0000
0023
0000
,
0230
0000
2300
0000
,
3020
0000
0230
0000
,
0302
0000
2003
0000
,
3020
0000
0032
0000
,
0203
0000
2300
0000
,
3001
1000
0001
1000
;

//---------------dance-single - Nitrospan-DSP----------------
#NOTES:
     dance-single:
     Nitrospan:
     Medium:
     11:
     :
0000
0000
0000
0000
,
0000
0000
0000
0000
,
0000
0000
0000
0000
,
0000
0000
0000
0000
,
1001
0000
0100
0000
0010
1000
0100
0000
,
0110
0000
0010
0000
0100
1000
0001
0000
,
0101
0000
0100
0000
0010
1000
0001
0000
,
0011
0000
0010
0000
0100
1000
0001
0000
,
0100
0001
0100
0000
0010
0100
0010
0000
,
1000
0010
1000
0000
0100
1000
0100
0000
,
0010
0001
0010
0000
0001
0100
0001
0000
,
1000
0100
1000
0000
0001
0100
0001
0000
,
0100
0010
1000
0000
0010
0100
0001
0000
,
1000
0100
0010
0000
0100
1000
0001
0000
,
0100
0001
0010
0000
0001
1000
0010
0000
,
0200
0000
0000
0300
,
0010
0100
0001
1000
0100
0010
0001
0000
,
1000
0100
1100
0000
1000
0010
0100
0001
,
0010
0001
0011
0000
0001
0100
0010
1000
,
0100
0010
0110
0000
0010
0001
1000
0010
,
0100
0001
0101
0000
0010
1000
0001
0010
,
0100
1000
1100
0000
0010
0001
0100
1000
,
0100
0001
0101
0000
0010
1000
0001
0010
,
0100
1000
1001
0000
0100
0010
0001
0100
,
0010
1000
1001
0000
0110
0000
0010
0100
,
0001
0010
0011
0000
0001
0100
0010
1000
,
0100
1000
1100
0000
1000
0010
0100
0001
,
0010
0100
0110
0000
0100
1000
0001
0100
,
0010
1000
1010
0000
0100
0001
1000
0100
,
0010
0001
0011
0000
0100
1000
0010
0001
,
0010
1000
1010
0000
0100
0001
1000
0100
,
0010
0001
1001
0000
0010
0100
1000
0010
,
0100
0001
1001
0000
0110
0000
0100
0010
,
1000
0010
1000
0000
0010
0100
0010
0000
,
0100
0001
0100
0000
0001
0010
0001
0000
,
1000
0100
0010
0000
0001
0100
0010
0000
,
1000
0000
0010
0000
0100
0000
0001
0010
0000
0000
0100
0000
1000
0000
0000
0000
,
1001
0000
0000
0000
,
2000
0000
0000
3000
,
0002
0000
0000
0003
,
0100
0001
1000
0100
,
1000
0001
0100
0001
,
1000
0100
1000
0001
,
0100
0001
1000
0100
,
1000
0001
0100
0001
,
1000
0100
1000
0001
,
0100
0001
1000
0100
,
1000
0001
1001
0000
,
0010
0100
0101
0000
,
0010
1000
1010
0000
,
0010
0100
0001
1000
,
0100
0010
0001
0100
,
0010
1000
1010
0000
,
0100
0001
0101
0000
,
0010
1000
0001
0010
,
0100
1000
0010
1000
,
0001
0100
0101
0000
,
0010
1000
1010
0000
,
1000
0001
0010
0100
,
1000
0100
0010
0001
,
1000
0010
1001
0000
,
0001
0010
1001
0000
,
1000
0001
1000
0001
,
1000
0001
1000
0000
,
0201
0000
0310
2010
,
0000
3010
0100
0001
,
0102
0000
0013
0021
,
0000
0130
1000
0010
,
1020
0000
0130
0201
,
0000
0310
1000
0001
,
0021
0000
0130
1200
,
0000
0310
0001
1000
,
1002
0000
0013
2001
,
0000
3010
0100
0001
,
2001
0000
3100
1002
,
0000
0103
1001
0010
,
1000
0010
1000
0001
,
0100
0001
1000
0100
,
1000
0001
0010
0001
,
1000
0001
1001
0000
,
1000
0010
1000
0010
,
0100
0001
0100
0001
,
1000
0100
1000
0100
,
0010
0001
0010
0001
,
1000
0010
0100
1000
,
0001
0100
0010
0001
,
1000
0000
0010
0000
0100
0001
1000
0000
;

//---------------dance-single - Nitrospan-ESP----------------
#NOTES:
     dance-single:
     Nitrospan:
     Hard:
     14:
     :
0000
0000
0000
0000
,
0000
0000
0000
0000
,
0000
0000
0000
0000
,
0000
0000
0000
0000
,
0000
0000
1001
0000
0000
0000
0000
0000
0000
0010
0000
1000
0001
0000
0000
0000
,
0000
0000
1001
0000
0000
0000
0000
0000
0000
0010
0000
0001
1000
0000
0000
0000
,
0000
0000
1001
0000
0000
0000
0000
0000
0000
0010
0000
1000
0001
0000
0000
0000
,
0000
0000
1001
0000
0000
0000
0000
0000
0000
0010
0000
0001
1000
0000
0000
0000
,
0001
0100
0101
0000
0010
1000
0100
1000
,
0001
0000
0100
0000
1010
0000
0000
0010
0000
0010
0100
0000
0001
0000
0010
0000
,
0100
1000
1100
0000
0010
0001
0100
1000
,
0100
0000
0010
0000
1001
0000
0000
0000
0010
0000
0100
0000
0001
1000
0001
0000
,
0010
0001
0011
0000
0100
1000
0001
0100
,
0010
0000
1000
0000
0101
0000
0000
0010
0000
0010
1000
0000
0001
0000
0010
0000
,
0100
0000
1000
0000
0011
0000
0000
0000
0100
0000
1000
0000
0010
1000
0001
0000
,
0001
0100
0001
0100
0001
1000
0001
1000
0010
1000
0010
1000
0100
0010
0100
0010
,
0001
0100
0001
1000
0100
1000
0001
0000
,
1000
0000
0010
0000
0110
0000
0000
0010
0000
1000
0001
0000
0010
0000
0001
0000
,
0001
0000
0010
0000
0110
0000
0000
0010
0000
0001
1000
0000
0010
0000
0100
0000
,
0100
0000
1000
0000
1001
0000
0000
0100
0000
0010
1000
0000
0001
0000
0100
0000
,
0100
0000
0001
0000
1001
0000
0010
0000
0101
0000
0010
0000
1000
0100
1000
0100
,
1000
0000
0100
0000
0110
0000
0000
0100
0000
1000
0001
0000
0100
0000
0001
0000
,
0001
0000
0100
0000
0110
0000
0000
0100
0000
0001
1000
0000
0100
0000
0010
0000
,
0010
0000
1000
0000
1001
0000
0000
0010
0000
0100
1000
0000
0001
0000
0010
0000
,
0010
0000
0001
0000
1001
0000
0100
0000
0011
0000
1000
0000
0001
1000
0001
1000
,
0100
0000
1000
0000
0010
0000
0010
1000
0000
0001
0010
0000
0001
0000
0100
0000
,
0100
0000
1000
0000
0010
0000
0010
0001
0000
1000
0010
0000
0100
0000
1000
0000
,
0100
0000
0001
0000
0010
0000
0010
0001
0000
1000
0010
0000
0100
0000
1000
0000
,
0100
0000
0001
0000
0010
0000
0010
1000
0000
0001
0010
0000
0100
0000
1000
0000
,
0010
0000
1000
0000
0100
0000
0100
1000
0000
0001
0100
0000
0001
0000
0010
0000
,
0010
0000
1000
0000
0100
0000
0100
0001
0000
1000
0100
0000
0010
0000
1000
0000
,
0010
0000
0001
0000
0100
0000
0100
0001
0000
1000
0100
0000
0010
0000
1000
0000
,
0010
0000
0001
0000
0101
0000
0010
0000
1001
0000
0100
0000
0010
0100
0010
0100
,
0001
0000
1000
0100
1000
0000
0001
0100
0000
0001
1000
0000
0100
0000
1000
0001
,
0010
0000
0001
0000
1000
0000
0010
1000
0001
0000
0010
0001
1000
0000
0000
0000
,
1100
0100
0110
0100
0101
0100
1100
0001
,
0100
0000
0010
0000
1000
0001
0000
0010
0100
0000
1000
0000
0010
0100
0010
0100
,
0002
0000
0000
0003
,
2000
0000
0000
3000
,
0020
0000
0000
0030
,
0100
0001
1000
0100
,
1000
0001
0100
0001
,
1000
0100
1000
0001
,
0100
0001
1000
0100
,
1000
0001
0100
0001
,
1000
0100
1000
0001
,
0100
0001
1000
0100
,
1000
0000
0001
0000
1000
0001
1000
0001
,
1000
0000
0100
0000
1100
0000
1000
0001
,
0100
0000
0010
0000
0110
0000
0100
0001
,
0010
0000
0001
0000
0101
0000
0100
0010
,
1000
0000
0001
0000
0011
0000
0010
0100
,
1000
0000
0010
0000
1001
0000
0001
0100
,
0010
0000
1000
0000
0101
0000
0001
0010
,
0100
0000
1000
0000
0001
0100
0001
0100
,
0010
1000
0010
1000
0001
1000
0001
1000
,
0100
0000
0010
0000
0011
0000
0001
0100
,
0010
0000
1000
0000
0101
0000
0010
1000
,
0001
0000
0010
0000
1100
0000
1000
0001
,
0100
0010
0101
0000
,
0010
0000
1000
0001
0010
0000
0001
1000
,
0100
0000
1000
0001
0010
0000
0100
1000
,
0001
0100
0001
0100
0010
1000
0010
1000
,
0100
0010
0100
0000
0110
0000
0000
0000
,
0011
0001
0100
0101
,
0000
0100
0010
1000
,
1100
1000
0010
0110
,
0000
0001
0010
0100
,
1100
0010
0100
0101
,
0000
0010
1000
0001
,
0110
1000
0010
1001
,
0000
0110
0000
0001
1000
0000
1001
0000
,
0010
0100
0010
0000
1000
0010
1000
0000
,
0001
1000
0001
0000
0010
0001
0010
0000
,
0001
1000
0001
0000
0100
0010
0100
0000
,
0001
1000
0001
0000
0010
0100
0010
0100
,
0001
0010
0001
0000
0100
1000
0100
0000
,
0001
0010
0001
0000
0100
1000
0100
0000
,
0100
0001
0100
0000
0100
1000
0100
0000
,
0100
0010
0100
0000
1000
0001
1000
0001
,
0010
0100
0010
0100
1000
0001
1000
0001
,
0010
0100
0010
0100
1000
0001
1000
0001
,
0100
0001
0100
0001
1000
0001
1000
0001
,
1000
0100
1000
0100
0010
0001
0010
0001
,
1000
0001
1000
0001
0100
0010
0100
0010
,
1000
0001
1000
0001
0010
0100
0010
0100
,
1000
0010
0100
0001
0010
0100
1000
0001
;

//---------------dance-single - Marten-CSP----------------
#NOTES:
     dance-single:
     Marten:
     Challenge:
     16:
     :
0000
0000
0000
0000
,
0000
0000
0000
0000
,
0000
0000
0000
0000
,
0000
0000
0000
0000
,
0000
0000
1001
0000
0000
0000
0000
0000
0000
0100
0000
0001
1000
0000
0000
0000
,
0000
0000
1001
0000
0000
0000
0000
0000
0000
0100
0000
1000
0001
0000
0000
0000
,
0000
0000
1001
0000
0000
0000
0000
0000
0000
0100
0000
0001
1000
0000
0000
0000
,
0000
0000
1001
0000
1010
0000
0010
0000
0011
0000
0010
0000
1000
0100
0010
0001
,
1000
0000
0001
0000
0011
0000
0001
0000
0100
0010
0100
0001
1000
0000
0100
1000
,
0010
0000
0100
0000
1001
0000
1000
0100
0000
0001
0100
1000
0001
0000
0100
0010
,
0100
0000
0010
0000
1010
0000
1000
0000
0100
0010
0100
1000
0001
0000
0100
0001
,
0010
0000
0011
0000
0210
0000
1300
0000
0120
0000
0031
0000
1000
0010
0001
0010
,
0100
0000
0001
0000
0101
0000
0001
0000
0010
0100
1000
0001
1000
0000
0010
1000
,
0100
0000
0010
0000
1001
0000
0001
0100
0000
1000
0100
0001
1000
0000
0010
0100
,
0010
0000
1000
0000
1100
0000
1000
0000
0010
0100
0001
1000
0010
0100
0010
0100
,
0001
0100
0001
0100
0010
1000
0010
1000
0100
1000
0100
1000
0001
0010
0001
0010
,
1000
0010
0001
1000
0010
0001
0010
1000
0001
0010
1000
0010
0001
1000
0001
1000
,
0001
0000
0100
0000
1000
0000
0100
0010
0000
1000
0001
0000
1000
0000
0010
0000
,
1000
0000
0100
0000
0001
0000
0100
0010
0000
0001
1000
0000
0001
0000
0010
0000
,
0100
0000
1000
0000
0010
0000
0001
1000
0000
0100
0010
0000
1000
0000
0001
0000
,
1000
0000
1100
0000
1002
0000
0103
0000
2001
0000
3010
0000
1000
0100
0100
0100
,
1000
0000
0010
0000
0001
0000
0010
0100
0000
0001
1000
0000
0001
0000
0100
0000
,
0001
0000
0010
0000
1000
0000
0010
0100
0000
1000
0001
0000
1000
0000
0010
0000
,
0100
0000
0001
0000
0010
0000
1000
0001
0000
0100
0010
0000
0001
0000
1000
0000
,
0001
0000
0101
0000
2001
0000
3100
0000
1002
0000
0013
0000
0001
0100
0100
0100
,
0001
0000
0010
0000
1100
0000
1000
0010
0000
0001
0010
0000
0110
0000
0010
0000
,
1000
0000
0010
0000
0101
0000
0001
0010
0000
1000
0010
0000
0110
0000
0010
0001
,
0100
0000
0010
0000
1001
0000
0001
0010
1000
0010
0001
0000
1001
0000
1000
0001
,
0100
0000
0101
0000
0120
0000
1030
0000
0210
0000
0301
0000
1000
0010
0010
0010
,
1000
0000
0100
0000
0011
0000
0001
0100
0000
1000
0100
0000
0110
0000
0100
0000
,
0001
0000
0100
0000
1010
0000
1000
0100
0000
0001
0100
0000
0110
0000
0100
1000
,
0010
0000
0100
0000
1001
0000
1000
0010
0001
0010
1000
0000
1001
0000
0001
1000
,
0100
0000
1100
0000
0120
0000
0031
0000
0210
0000
1300
0000
0001
0010
0010
0010
,
0001
0000
1000
0100
0010
0000
0001
0100
0000
1000
0100
0001
0100
0000
0100
0100
,
1000
0000
0001
0000
1001
0000
1000
0001
0010
0000
0001
1000
0010
0000
0100
0001
,
0010
0001
0100
0001
0010
0100
1000
0010
1000
0100
0010
0001
1000
0010
0100
0001
,
1000
0100
0001
0100
1000
0100
0100
0001
0100
0100
1000
0100
0010
0001
0100
0010
,
0200
0000
0000
0000
,
2000
0000
0000
3000
,
0002
0000
0000
0003
,
0310
1000
0010
1000
0010
1000
0010
1000
,
0010
1000
0010
1000
0010
1000
0010
1000
,
0001
0100
0001
0100
0001
0100
0001
0100
,
0001
0100
0001
0100
0001
0100
0001
0100
,
0001
0010
0001
0010
0001
0010
0001
0010
,
0001
0010
0001
0010
0001
0010
0002
0000
,
2003
3020
0032
0023
,
2030
0000
0000
0000
3001
0010
0100
1000
,
0001
0100
0010
0100
0001
0000
0100
0010
,
1000
0100
0010
0100
1000
0000
0001
0100
,
0010
1000
0100
1000
0001
0000
1000
0100
,
0010
0001
0100
0001
0011
0000
1001
0000
,
1000
0100
0010
1000
0010
0000
0001
0100
,
0010
0001
0010
1000
0001
0000
0100
1000
,
0100
0010
1000
0001
1000
0100
0100
0100
,
1000
0001
0100
0010
1000
0100
0001
0100
,
1000
0000
0010
1000
0100
0000
0010
0001
,
0100
1000
0100
0001
1000
0000
0010
1000
,
0100
0001
0100
1000
0001
0000
1000
0010
,
0100
0001
0010
0100
1000
0000
0001
1000
,
0001
0010
0001
0010
0100
1000
0100
1000
,
0010
1000
0010
1000
0001
0100
0001
0100
,
1000
0100
0001
1000
0100
0001
0100
1000
,
0001
0100
1000
0100
0001
1000
0001
1000
,
0020
0100
0130
2000
,
0100
3100
1001
0001
,
0020
0100
0130
0002
,
0100
0000
0103
0000
1001
0000
1000
0010
,
0200
0010
0310
2000
,
0010
3010
1001
1000
,
0200
0010
0310
0002
,
0010
0000
0013
0000
0001
1000
0001
1000
,
0020
0001
1030
0200
,
0001
1300
1001
0001
,
0020
1000
0031
0200
,
1000
0000
0301
0000
1000
0001
1000
0001
,
1000
0010
0100
0010
1000
0001
0010
0100
,
0010
0001
0100
0010
0100
0001
1000
0100
,
0010
0100
1000
0010
0100
0010
1000
0100
,
0010
0001
1000
0001
1000
0100
0100
0100
,
1000
0010
0100
0001
1000
0010
0100
0001
,
1000
0100
0010
0001
1000
0100
0010
0001
,
0100
0010
1000
0001
0100
0010
1000
0001
,
0010
0100
1000
0001
0010
0100
1000
0001
,
1000
0100
0001
0100
1000
0100
0001
0100
,
1000
0010
0001
0010
1000
0010
0001
0010
,
1000
0100
0100
0100
0100
0100
0100
0100
;

//---------------dance-double - Kekkle-BDP----------------
#NOTES:
     dance-double:
     Kekkle:
     Easy:
     7:
     :
00000000
00000000
00000000
00000000
,
00000000
00000000
00000000
00000000
,
00000000
00000000
00000000
00000000
,
00000000
00000000
00000000
00000000
,
10000000
00000000
00010000
00000000
,
00001000
00000000
00000001
00000000
,
00000001
00000000
00001000
00000000
,
00010000
00000000
10000000
00000000
,
00010000
01000000
00100000
00000000
,
00010000
00001000
00000100
00000000
,
00000001
00001000
00000100
00000000
,
00000010
00001000
00010000
00000000
,
01000000
00100000
00001000
00000000
,
00000100
00000010
00010000
00000000
,
00001000
00010000
01000000
10000000
,
00200000
00000000
00000000
00300000
,
01000000
00001000
00010000
00010000
,
00000010
00000000
00001000
00000000
00000010
00000000
00001000
00000100
,
00000010
00000000
00000001
00000000
00000010
00000000
00000001
00001000
,
00000100
00000000
00010000
00000000
00000100
00000000
00010000
00001000
,
01000000
00000000
01100000
10010000
,
00010000
00000000
00100000
00000000
00010000
00000000
01000000
00100000
,
10000000
00000000
00100000
00000000
01000000
00000000
00010000
00100000
,
00001000
00000000
00100000
00000000
00001000
00000000
00010000
00000010
,
00001000
00000000
00000010
00000000
00001000
00000100
00000010
00000001
,
00002000
00000000
00000000
00003020
00000000
00000000
00020030
00000000
,
00000000
00001000
00000100
00031000
,
00200000
00000000
00000000
00320000
00000000
00000000
20030000
00000000
,
00000000
00100000
00010000
30100000
,
02000000
00000000
00000000
03002000
00000000
00000000
00023000
00000000
,
00000000
00001000
00000010
00031000
,
00000200
00000000
00000000
00000302
00000000
00000000
00000000
00000000
,
00001003
00000001
00000100
00000010
,
00001000
00000010
00010000
00000000
00001000
00000000
00100000
00000000
,
00010000
00100000
01000000
00000000
00100000
00000000
00010000
00000000
,
10000000
10000000
00010000
00010000
,
01000000
00000000
00001000
00000000
00000100
00000000
00000010
00001000
,
00000010
00000000
00000000
00000000
,
00020000
00000000
00000000
00030000
00000000
00000000
00000000
00000000
,
00002000
00000000
00000000
00003000
00000000
00000000
00000000
00000000
,
00010000
00000000
00000010
00000000
,
00000100
00000000
00001000
00000000
,
00100000
00000000
01000000
00000000
,
00010000
00000000
00000100
00000000
,
00000010
00000000
00001000
00000000
,
00010000
00000000
01000000
00000000
,
00100000
00000000
00001000
00000000
,
00010000
00000000
00010000
00000000
,
00000010
00000000
00001000
00000000
,
00000001
00000100
00001000
00000000
,
00010000
00000000
01000000
00000000
,
10000000
01000000
00010000
00000000
,
00001000
00000000
00000010
00000000
,
00000001
00000010
00001000
00000000
,
00010000
00000000
00100000
00000000
,
10000000
00100000
00010000
00000000
,
00001000
00010000
00001000
00000000
,
00000100
00000010
00000100
00000000
,
00001000
00010000
00001000
00000000
,
00100000
01000000
00100000
00000000
,
00002000
00000000
00000000
00003000
,
00010000
00000010
00000100
00000000
,
00000010
00000010
00000010
00000010
,
00000010
00000010
00000010
00000000
,
00002000
00000000
00003001
00002000
,
00000000
00003001
00000000
00000000
,
00002000
00000000
00003100
00002000
,
00000000
00003100
00001000
00000000
,
00000200
00000000
00010300
00000200
,
00000000
00010300
00000000
00000000
,
00002000
00000000
01003000
00002000
,
00000000
01003000
00001000
00000000
,
00200000
00000000
00310000
00200000
,
00000000
00310000
00000000
00000000
,
20000000
00000000
30100000
20000000
,
00000000
30100000
01000000
00000000
,
00011000
00000000
00000010
00000000
,
00011000
00000000
00100000
00000000
,
00011000
00000000
00000010
00000000
,
00011000
00000000
00100000
00000000
,
00002000
00000000
00000000
00000000
,
00000000
00000000
00000000
00000000
,
00100000
00000000
00010000
00000000
,
00100000
00000000
00013000
00000000
,
00000010
00000000
00010000
00000000
,
00100000
00000000
00001000
00000000
,
00000010
00010000
00001000
01000000
;

//---------------dance-double - Kekkle-DDP----------------
#NOTES:
     dance-double:
     Kekkle:
     Medium:
     11:
     :
00000000
00000000
00000000
00000000
,
00000000
00000000
00000000
00000000
,
00000000
00000000
00000000
00000000
,
00000000
00000000
00000000
00000000
,
10000000
01100000
00010000
00001000
,
00000010
00001001
00000100
00001000
,
00010000
10010000
01000000
10000000
,
00010000
01010000
00001000
00010000
,
00010000
00001000
00010000
00000000
00100000
10000000
01000000
10000000
,
00010000
01000000
00001000
00000000
00010000
00001000
00000100
00000001
,
00001000
00000100
00001000
00000000
00010000
00100000
10000000
01000000
,
00010000
01000000
00010000
00000000
00001000
00000100
00001000
00000000
,
00001000
00010000
00001000
00000000
00000010
00001000
00000100
00000000
,
00000001
00000100
00000001
00000000
00001000
00000100
00001000
00000000
,
00010000
00001000
00010000
00000000
00100000
00010000
10000000
00000000
,
01000000
00001000
00010000
00000000
00000010
00000100
00001000
00000000
,
00022000
00000000
00000000
00033000
,
00010000
00001000
00010000
00001000
00000100
00000001
00000100
00000001
,
00001000
00000100
00001000
00000100
00000000
00010000
00000000
01000000
,
10000000
01000000
10000000
01000000
00100000
01000000
00010000
01000000
,
00001000
00000000
00010000
00000000
00000000
00000000
00000100
00000000
00000000
00000001
00000000
00001000
00000100
00000000
00000000
00000000
,
00000001
00000100
00000001
00000100
00001000
00000100
00000010
00000100
,
00010000
00001000
00010000
00001000
00000000
00010000
00000000
01000000
,
00100000
01000000
00100000
01000000
00010000
00001000
00001000
00000100
,
00000001
00000000
00000100
00000000
00000000
00000000
00000001
00000000
00000000
00000001
00000000
00001000
00000100
00000000
00000000
00000000
,
00010000
00001000
00100000
01000000
00000000
00100000
00010000
00000000
,
10000000
00100000
01000000
00001000
00100000
00001000
00010000
00000000
,
00000100
00000010
00000001
00001000
00000000
00000010
00000100
00000000
,
00000001
00001000
00001000
00000000
00000100
00000100
00010000
00010000
,
00001000
01000000
00100000
00010000
00000000
00100000
10000000
00000000
,
00010000
00100000
00001000
00100000
00010000
01000000
00001000
00000000
,
00010000
00000010
00000100
00001000
00000000
00010000
00001000
00000000
,
00100000
01000000
10000000
00000000
00010000
00000000
01000000
00010000
,
10000000
01000000
10000000
00010000
01000000
00001000
00010000
00000100
,
00000010
00000001
00000100
00001000
00010000
01000000
10000000
01000000
,
00000000
00010000
00000000
00011000
00000000
00000010
00000000
00001000
,
00000000
00011000
00000000
00011000
00000000
00100000
01000000
10000000
,
00010000
00000000
00000000
00000000
,
00002000
00000000
00000000
00003000
,
00000002
00000000
00000000
00000003
,
00000001
00000100
00000001
00001000
,
00000100
00000000
00010000
00000000
,
00001000
00010000
01000000
00100000
,
00010000
00100000
00010000
10000000
,
00010000
01000000
00100000
00001000
,
00010000
00000000
00010000
00000000
,
00001000
00000000
00000100
00000000
,
00000001
00000000
00001000
00000100
,
00010000
00001000
00010000
00001000
,
00010000
00100000
01000000
10000000
,
01000000
00010000
01000000
00010000
,
01000000
00001000
00010000
00001000
,
00000100
00000001
00000100
00000001
,
00000100
00001000
00010000
01000000
,
00100000
00001000
00010000
00000100
,
00001000
00000001
00000000
00000000
,
00001000
00000100
00010000
00001000
,
00100000
01000000
01000000
10000000
,
00010000
01000000
00001000
00010000
,
00000100
00000010
00000010
00000001
,
00000100
00001000
00010000
00001000
,
00000100
00001000
00010000
01000000
,
10000000
00010000
00010000
01000000
,
00001000
00010000
00000100
00000000
,
00000020
00000000
00000031
00002000
,
00000000
00003010
00000000
00000000
,
00020000
00000000
00031000
00200000
,
00000000
00310000
01000000
00100000
,
20000000
00000000
30010000
00200000
,
00000000
00301000
00000000
00000000
,
00020000
00000000
00030010
00000200
,
00000000
00000301
00001000
00001000
,
00000200
00000000
00010300
00002000
,
00000000
01003000
00000000
00000000
,
00020000
00000000
01030000
00200000
,
00000000
10300000
00010000
00100000
,
00011000
00000000
00000100
00000000
,
00011000
00000000
01000000
00000000
,
00011000
00000000
00000100
00000000
,
00011000
00000000
01000000
00010000
,
00200000
00000000
00001000
00000000
,
00010000
00000000
01000000
00000000
,
10000000
00000000
00000000
01000000
00000000
00000000
00010000
00000000
,
00001000
00001000
00301000
00000000
,
00001000
00010000
00001000
00100000
,
01000000
00001000
00010000
00000010
,
00000100
00000000
00000001
00000000
00001000
00000010
00000100
00000000
;

//---------------dance-double - Kekkle-EDP----------------
#NOTES:
     dance-double:
     Kekkle:
     Hard:
     14:
     :
00000000
00000000
00000000
00000000
,
00000000
00000000
00000000
00000000
,
00000000
00000000
00000000
00000000
,
00000000
00000000
00000000
00000000
,
00000000
00000000
00011000
00000000
00000000
00000000
00000000
00000000
00000000
00100000
00000000
10000000
00010000
00000000
00000000
00000000
,
00000000
00000000
00011000
00000000
00000000
00000000
00000000
00000000
00000000
00000010
00000000
00001000
00000001
00000000
00000000
00000000
,
00000000
00000000
00000110
00000000
00000000
00000000
00000000
00000000
00000000
00001000
00000000
00001000
00010000
00000000
00000000
00000000
,
00000000
00000000
01100000
00000000
00000000
00000000
00000000
00000000
00000000
00010000
00000000
00010000
00001000
00000000
00000000
00000000
,
00100000
01000000
10010000
00000000
00100000
01000000
00010000
00001000
,
00010000
00000000
00001000
00000000
00011000
00000000
00000000
00000000
00000000
00000010
00000000
00000100
00001000
00000000
00010000
00000000
,
00001000
00010000
00011000
00000000
00100000
00010000
01000000
10000000
,
01000000
00000000
00010000
00000000
11000000
00000000
00000000
00000000
00100000
00000000
00001000
00000000
00010000
00001000
00010000
00000000
,
00100000
10000000
01000000
00000000
00001000
00010000
00001000
00000000
,
00000010
00000001
00000100
00000000
00010000
00001000
00010000
00000000
,
00100000
10000000
01000000
00000000
00001000
00010000
00001000
00000000
,
00000010
00000001
00000010
00000001
00001000
00000100
00001000
00000100
00010000
00000010
00010000
00000010
00001000
00000100
00001000
00000100
,
00000010
00001000
00000100
00001000
00010000
00001000
01000000
00000000
,
00010000
00000000
10000000
00000000
01000000
00000000
00100000
00001000
00000000
00010000
00001000
00000000
01000000
00000000
00001000
00000000
,
00010000
00000000
00000010
00000000
00000100
00000000
00000001
00001000
00000000
00000100
00001000
00000000
00001001
00000000
00000000
00000001
,
00000100
00000000
00000010
00000000
00010000
00000000
00000100
00010000
00000000
00001000
00100000
00000000
00010000
00000000
10000000
00000000
,
00100000
00000000
01010000
00000000
01010000
00000000
00000000
00000000
10010000
00000000
10000000
00000000
00010000
00100000
00001000
00010000
,
00000100
00000000
00001000
00000000
00000001
00000000
00000100
00000010
00000000
00010000
00000100
00000000
00010000
00000000
00001000
00000000
,
01000000
00000000
00100000
00000000
10000000
00000000
00010000
00100000
00000000
00001000
01000000
00000000
01001000
00000000
00000000
00001000
,
00010000
00000000
00000100
00000000
00000010
00000000
00000100
00001000
00000000
00000001
00000100
00000000
00000010
00000000
00010000
00000000
,
00000100
00000000
00010100
00000000
00010100
00000000
00000000
00000000
00011000
00000000
00010000
00000000
00001000
00100000
00001000
00010000
,
00000010
00000100
00000010
00001000
00000001
00001000
00000001
00000100
,
00001000
00000000
00010000
00000000
00010000
00000000
00100000
00000000
10000000
00000000
00010000
00000000
00010000
01000000
00010000
01000000
,
00010000
10000000
01000000
00010000
00001000
00000100
00000001
00000010
,
00000100
00000000
00000001
00000000
00000100
00000000
00000000
00001001
00000000
00000100
00001000
00000000
00000100
00010000
00001000
01000000
,
00100000
10000000
01000000
10000000
00010000
10000000
00010000
01000000
,
00001000
00000000
00010000
00000000
00000010
00000000
00001000
00000000
00000001
00000000
00000100
00000000
00000010
00001000
00000010
00001000
,
00000010
00001000
00000100
00010000
00001000
01000000
00100000
10000000
,
01000000
00000000
00010000
00000000
01000000
00000000
00000000
10010000
00000000
01000000
10000000
00000000
01000000
00100000
00010000
01000000
,
00001000
00000000
00010000
00000010
00001000
00000000
00000010
00000100
00000000
00000001
00001000
00000000
00001010
00000000
00000010
00010000
,
00001000
00000000
00100000
00000000
00101000
00000000
00001000
01000000
00010000
00000000
10000000
01000000
10000000
00010000
01000000
00001000
,
00010000
00000010
00001000
00000000
00000001
00001000
00000100
00000000
00010000
00001000
01000000
00000000
00010000
00100000
01000000
10000000
,
01000000
00000000
01100000
00000000
01100000
00000000
00100000
00001000
00000000
00010000
00000100
00000000
00001000
00000010
00000100
00000001
,
00002000
00000000
00003000
00000000
,
00000200
00000000
00000000
00000300
00000000
00000000
00000000
00000000
,
02000000
00000000
00000000
03000000
00000000
00000000
00000000
00000000
,
01000000
00001000
00010000
00000100
,
00000001
00000100
00001000
00010000
,
01000000
00100000
10000000
01000000
,
00010000
00001000
00000100
00000001
,
00001000
00000100
00000010
00000001
,
00000100
00001000
00010000
00001000
,
00000100
00001000
00010000
01000000
,
10000000
00000000
00000000
00000000
00010000
01000000
00001000
00010000
,
00001000
00001000
01000000
01000000
,
00100000
00100000
10000000
10000000
,
01000000
01000000
00010000
00010000
,
00000010
00000010
00000100
00000100
,
00000001
00000001
00001000
00001000
,
00000100
00000100
00010000
00010000
,
00001000
00001000
01000000
01000000
,
01000000
01000000
01000000
00000000
,
00010000
00000000
10000000
01000000
10000000
00000000
00010000
00000000
,
00010000
00000000
01000000
00001000
01000000
00000000
00001000
00000000
,
00001000
00000000
00010000
00000100
00010000
00000000
00000010
00000000
,
00000010
00000000
00000100
00000001
00000100
00000000
00000000
00000000
,
00000001
00000100
00000001
00000100
00000010
00010000
00000010
00010000
,
00001000
01000000
00001000
01000000
00100000
10000000
00100000
10000000
,
00020000
00000000
00030000
00000000
,
10000000
00010000
01000000
00001000
00010000
00000010
00001000
00000001
,
00000200
00000001
00000310
00020000
,
00000000
00031000
00100000
00010000
,
20000000
00010000
30100000
02000000
,
00000000
00000000
03001000
00000000
00010000
00000010
00000100
00000000
,
00000002
00001000
00000013
00000200
,
00000000
00010300
00001000
01000000
,
00020000
10000000
00130000
00002000
,
00000000
00000000
00013000
00000000
00000010
00000100
00000001
00001000
,
00000020
00010000
00001030
00000002
,
00000000
00000000
00001003
00000000
00000100
00010000
00001000
00000000
,
00200000
00001000
00310000
20000000
,
00000000
00000000
30010000
00000000
00100000
00010000
10000000
01000000
,
00100000
00000000
00001000
00010000
00000100
00000000
00000010
00000001
,
00000100
00000000
00000010
00010000
00001000
00000000
00100000
00010000
,
01000000
00000000
00001000
00010000
00000010
00000000
00000100
00000001
,
00000010
00000000
00000100
00010000
00001000
01000000
00100000
00000000
,
10000000
01000000
10000000
01000000
10000000
00010000
10000000
00010000
,
01000000
00001000
01000000
00001000
00010000
00000100
00010000
00000100
,
00001000
00000001
00001000
00000001
00000100
00000010
00000100
00000010
,
00001000
00000100
00001000
00000100
00010000
00001000
00010000
00001000
,
00100000
01000000
00100000
01000000
10000000
00010000
10000000
00010000
,
01000000
00010000
01000000
00010000
10000000
01000000
10000000
01000000
,
00100000
00001000
00010000
00001000
00000100
00000001
00000100
00000010
;

//---------------dance-double - leeium-CDP----------------
#NOTES:
     dance-double:
     leeium:
     Challenge:
     16:
     :
00000000
00000000
00000000
00000000
,
00000000
00000000
00000000
00000000
,
00000000
00000000
00000000
00000000
,
00000000
00000000
00000000
00000000
,
00000000
00000000
00011000
00000000
00000000
00000000
00000000
00000000
00000000
00000100
00000000
00000001
00001000
00000000
00000000
00000000
,
00000000
00000000
00011000
00000000
00000000
00000000
00000000
00000000
00000000
01000000
00000000
10000000
00010000
00000000
00000000
00000000
,
00000000
00000000
00011000
00000000
00000000
00000000
00000000
00000000
00000000
00000010
00000000
00000001
00000100
00000000
00000000
00000000
,
00000000
00000000
00011000
00000000
00011000
00000000
00000000
00000000
00100000
00000000
01000000
00000000
00010000
00100000
00010000
00100000
,
00010000
00000000
01000000
00000000
10010000
00000000
10000000
00000000
01000000
10000000
01000000
10000000
01000000
00000000
00100000
00000000
,
00001000
00000000
00010000
00000000
00011000
00000000
00010000
00000100
00000000
00000100
00000000
00000100
00001000
00000000
00001000
00000001
,
00001000
00000000
00000100
00000000
00001001
00000000
00000001
00000000
00000100
00000001
00000100
00000001
00000100
00000000
00000010
00000000
,
00001000
00000000
00001100
00000000
00001100
00000000
00001000
00000000
00001100
00000000
00001000
00000000
00000100
00001000
00000100
00001000
,
00000100
00000000
00000010
00000000
00001001
00000000
00000001
00000000
00000100
00000001
00000100
00000001
00000100
00000000
00000010
00000000
,
00001000
00000000
00000100
00000000
00010100
00000000
00000100
00010000
00000000
00010000
00000000
00010000
00001000
00000000
00001000
01000000
,
00001000
00000000
00100000
00000000
00110000
00000000
00010000
00000000
10000000
00010000
10000000
00010000
01000000
00100000
01000000
00100000
,
01000000
00010000
01000000
00010000
00100000
00010000
00100000
00010000
00100000
00001000
00100000
00001000
00010000
00001000
00010000
00001000
,
00010000
00001000
00001000
00010000
00010000
00001000
00001000
00010000
00001000
00010000
00010000
00001000
00001000
00000100
00001000
00000100
,
00000010
00000000
00000100
00000000
00000001
00000000
00000100
00000010
00000000
00001000
00000010
00000000
00000100
00000000
00001000
00000000
,
00010000
00000000
00001000
00000000
00100000
00000000
00010000
01000000
00000000
00100000
01000000
00000000
00010000
00000000
10000000
00010000
,
00100000
00000000
10000000
00000000
00100000
00000000
00010000
01000000
00000000
00100000
01000000
00000000
00001000
00000000
00100000
00000000
,
00010000
00000000
00110000
00000000
00110000
00000000
00010000
00000000
00110000
00000000
00010000
00000000
01000000
00010000
01000000
00010000
,
01000000
00000000
00010000
00000000
00100000
00000000
01000000
00100000
00000000
00010000
01000000
00000000
00100000
00000000
00010000
00000000
,
00001000
00000000
00000010
00000000
00000100
00000000
00001000
00000100
00000000
00001000
00000010
00000000
00000100
00000000
00000010
00000100
,
00000001
00000000
00000010
00000000
00000100
00000000
00001000
00000100
00000000
00001000
00000010
00000000
00001000
00000000
00000100
00000000
,
00001000
00000000
00001010
00000000
00001010
00000000
00001000
00000000
00001010
00000000
00001000
00000000
00000010
00000100
00000010
00000100
,
00000010
00000000
00001000
00000000
00000100
00000000
00000001
00000100
00000000
00000010
00000100
00000000
00001000
00000000
00000100
00000000
,
00001000
00000000
00010000
00000000
00100000
00000000
01000000
00010000
00000000
01000000
00100000
00000000
00010000
00000000
10000000
00100000
,
01000000
00000000
10000000
00000000
01000000
00000000
00010000
00100000
00000000
00010000
01000000
00000000
00010000
00000000
00100000
00000000
,
00010000
00000000
01010000
00000000
01010000
00000000
00010000
00000000
01010000
00000000
00010000
00000000
00100000
01000000
00100000
01000000
,
00100000
00000000
00010000
00000000
10000000
00000000
01000000
00010000
00000000
01000000
00100000
00000000
00010000
00000000
00100000
00000000
,
00001000
00000000
00010000
00000000
00000010
00000000
00001000
00000010
00000000
00000100
00000010
00000000
00000100
00000000
00000010
00001000
,
00000001
00000000
00000010
00000000
00000100
00000000
00000010
00000100
00000000
00001000
00000100
00000000
00001000
00000000
00000010
00000000
,
00010000
00000000
00011000
00000000
00011000
00000000
00010000
00000000
00011000
00000000
00001000
00000000
00010000
00001000
00010000
00001000
,
00010000
00000000
00010000
00001000
00010000
00000000
00010000
01000000
00000000
01000000
00100000
00010000
01000000
00000000
00100000
00010000
,
00001000
00000000
00010000
00000000
00001000
00000000
00001000
00000100
00000010
00000000
00001000
00000100
00000010
00000100
00001000
00000100
,
00010000
00000100
00010000
00000100
00010000
00001000
00010000
00001000
01000000
00010000
01000000
00010000
00100000
00010000
00100000
00001000
,
00010000
00001000
00001000
00010000
00010000
00001000
00001000
00010000
00001000
00010000
00010000
00001000
00010000
01000000
00010000
01000000
,
00200000
00000000
00000000
00000000
,
20000000
00000000
00000000
30000000
,
00020000
00000000
00000000
00030000
,
01300000
10000000
01000000
10000000
01000000
10000000
01000000
10000000
,
01000000
10000000
01000000
10000000
01000000
10000000
01000000
10000000
,
00010000
01000000
00010000
01000000
00010000
01000000
00010000
01000000
,
00010000
01000000
00010000
01000000
00010000
01000000
00010000
01000000
,
00001000
00010000
00001000
00010000
00001000
00010000
00001000
00010000
,
00001000
00010000
00001000
00010000
00001000
00010000
00001000
00010000
,
00000010
00001000
00000010
00000100
,
00000001
00000000
00000010
00000000
00000100
00001000
00000100
00010000
,
00001000
00100000
00010000
00100000
01000000
00000000
00100000
01000000
,
10000000
00010000
10000000
00010000
01000000
00000000
00100000
01000000
,
00001000
01000000
00001000
01000000
00010000
00000000
01000000
00001000
,
00100000
00010000
00100000
00001000
00010000
00000000
00011000
00000000
,
00001000
00000100
00001000
00000100
00000010
00000000
00000100
00000001
,
00001000
00000001
00001000
00000001
00000010
00000000
00000100
00010000
,
00001000
00010000
00001000
01000000
00010000
00100000
00010000
00100000
,
01000000
00010000
01000000
00010000
00001000
00010000
00001000
00010000
,
00001000
00000100
00001000
00000100
00000010
00000000
00000100
00000001
,
00001000
00000001
00001000
00000001
00000010
00000000
00000100
00001000
,
00000100
00010000
00000100
00010000
00001000
00000000
00010000
00001000
,
01000000
00010000
01000000
00010000
00100000
00000000
00010000
01000000
,
00100000
10000000
00100000
10000000
00010000
00100000
00010000
00100000
,
00001000
01000000
00001000
01000000
00001000
00010000
00001000
00010000
,
00001000
00010000
00010000
00001000
00001000
00010000
00010000
00001000
,
00001000
00010000
00001000
00010000
00001000
00010000
00001000
00010000
,
00002000
00000100
00013000
00020000
,
01000000
00031000
00001000
00010000
,
00002000
00000010
00013000
00020000
,
00100000
00000000
00031000
00000000
00001000
00000000
00010000
00001000
,
00020000
00100000
00130000
00020000
,
00001000
00031000
00010000
00001000
,
00002000
00000010
00003010
00002000
,
00010000
00000000
00013000
00000000
00001000
00010000
00001000
00010000
,
00002000
00000010
00013000
00020000
,
00100000
00031000
00010000
00001000
,
00020000
00100000
00031000
00002000
,
00000010
00000000
00013000
00000000
00001000
00010000
00001000
00010000
,
00000010
00001000
00000010
00001000
00000001
00000010
00000001
00000010
,
00000100
00001000
00000100
00001000
00000010
00001000
00000100
00010000
,
00001000
01000000
00001000
01000000
00010000
01000000
00010000
01000000
,
00100000
01000000
00100000
01000000
00100000
10000000
00010000
01000000
,
00010000
00100000
00010000
00100000
00001000
00010000
00001000
00010000
,
00000010
00001000
00000010
00001000
00000010
00000100
00000010
00000100
,
00000001
00000000
00000000
00000010
00000000
00000000
00000100
00000000
,
00001000
00000000
00010000
00100000
00000000
00000000
01000000
00000000
,
10000000
00100000
10000000
00100000
00010000
00100000
00010000
00100000
,
01000000
00001000
01000000
00001000
00010000
00001000
00010000
00001000
,
00000100
00000010
00000100
00001000
00000100
00000001
00000010
00000001
;
