#TITLE:DOUBLE TORNARD;
#SUBTITLE:;
#ARTIST:evo-X;
#TITLETRANSLIT:;
#SUBTITLETRANSLIT:;
#ARTISTTRANSLIT:;
#GENRE:;
#CREDIT:;
#MUSIC:DOUBLE TORNARD.ogg;
#BANNER:DOUBLE TORNARD.png;
#BACKGROUND:DOUBLE TORNARD-bg.png;
#CDTITLE:;
#SAMPLESTART:21.970;
#SAMPLELENGTH:15.000;
#SELECTABLE:YES;
#OFFSET:0.000;
#BPMS:0.000=153.000;
#STOPS:184.000=0.784;
#JACKET:DOUBLE TORNARD-jacket.png;
#BGCHANGES:;
#FGCHANGES:;

//--------------- dance-single - KONAMI-bSP ----------------
#NOTES:
     dance-single:
     KONAMI-bSP:
     Beginner:
     4:
     0.229516,0.419325,0.403948,0.018361,0,175,131,44,2,0,0,0,0,0,0.229516,0.419325,0.403948,0.018361,0,175,131,44,2,0,0,0,0,0:
0000
0000
0000
0000
,
0000
0000
0000
0000
,
0000
0000
0000
0000
,
0000
0000
0000
0000
,
0000
0000
0000
0000
,
0000
0000
0000
0000
,
0020
0000
0000
0030
,
0000
0000
0000
0000
,
1000
0000
0001
0000
,
1000
0000
0001
0000
,
0020
0000
0000
0000
,
0030
0000
0000
0000
,
0001
0000
1000
0000
,
0001
0000
1000
0000
,
1001
0000
1001
0000
,
1001
0000
1001
0000
,
1001
0000
1001
0000
,
1001
0000
1001
0000
,
1001
1001
1001
0000
,
1001
1001
1001
0000
,
1001
1001
1001
0000
,
1001
0000
1001
1001
,
0000
0100
0000
0010
,
0010
0010
0010
0000
,
0001
0000
1000
0000
,
0001
0000
1000
0000
,
0000
0100
0000
0010
,
0010
0010
0010
0000
,
0001
0000
1000
0000
,
0001
0000
1000
0000
,
1001
0000
1001
0000
,
1001
0000
1001
0000
,
1001
0000
1001
0000
,
1001
0000
1001
0000
,
1001
1001
1001
0000
,
1001
1001
1001
0000
,
1001
1001
1001
0000
,
1001
0000
1001
1001
,
0000
0000
0000
0000
,
0010
0010
0010
0010
,
0000
0000
0000
0000
,
1000
1000
1000
1000
,
0000
0000
0000
0000
,
0100
0100
0100
0100
,
0000
0000
0000
0000
,
0001
0001
0001
0001
,
0001
0000
0100
0000
,
1000
0000
0100
0000
,
0001
0000
0100
0000
,
1000
0000
1000
1000
,
1000
1000
1000
0000
,
0100
0000
0001
0001
,
0001
0001
0001
0000
,
0100
0000
1000
1000
,
1000
0000
0001
0001
,
0001
0000
1000
0000
,
0001
0000
0100
0100
,
0100
0000
0001
0001
,
0001
0000
1000
1000
,
1000
0000
0001
0000
,
1000
0000
0100
0100
,
0100
0000
0110
0000
,
0000
0000
0000
0000
,
0000
0000
0010
0000
,
0010
0000
0000
1001
,
1001
1001
0000
0000
;

//--------------- dance-single - KONAMI-BSP ----------------
#NOTES:
     dance-single:
     KONAMI-BSP:
     Easy:
     6:
     0.26755,0.32947,0.201974,0.018361,0,204,182,22,2,0,0,0,0,0,0.26755,0.32947,0.201974,0.018361,0,204,182,22,2,0,0,0,0,0:
0000
0000
0000
0000
,
0000
0000
0000
0000
,
0000
0000
0000
0000
,
0000
0000
0000
0000
,
0000
0000
0000
0000
,
0000
0000
0000
0000
,
0020
0000
0000
0030
,
0000
0000
0000
0000
,
0010
1000
0010
0001
,
0010
1000
0010
0001
,
0020
0000
0000
0000
,
0030
0000
0000
0000
,
0010
0001
0010
1000
,
0010
0001
0010
1000
,
1001
0000
0100
0000
,
1001
0000
0010
0000
,
1001
0000
0100
0000
,
1001
0000
0010
0000
,
1001
0100
0100
0000
,
1001
0010
0010
0000
,
1001
0100
0100
0000
,
1001
0000
1001
1001
,
0001
0100
1000
0100
,
0001
0100
1000
0100
,
0001
0100
1000
0100
,
0001
0100
1000
1000
,
1000
0100
0001
0100
,
1000
0100
0001
0100
,
1000
0100
0001
0100
,
1000
0100
0001
0001
,
1001
0000
0100
0000
,
1001
0000
0010
0000
,
1001
0000
0100
0000
,
1001
0000
0010
0000
,
1001
0100
0100
0000
,
1001
0010
0010
0000
,
1001
0100
0100
0000
,
1001
0000
0110
0110
,
1000
0001
1000
0001
,
1000
0001
1000
1000
,
0001
1000
0001
1000
,
0001
1000
0001
0001
,
0001
1000
0001
1000
,
0001
1000
0001
0001
,
1000
0001
1000
0001
,
1000
0001
1000
1000
,
0001
0000
0100
0000
,
1000
0000
0100
0000
,
0001
0000
0100
0000
,
1000
0000
1000
1000
,
0001
0001
1000
0000
,
0100
0000
0001
0001
,
1000
1000
0001
0000
,
0100
0000
1000
1000
,
0001
0001
1000
0100
,
0001
0100
1000
1000
,
0001
0001
1000
0100
,
0001
0010
0001
0001
,
1000
1000
0001
0100
,
1000
0100
0001
0001
,
1000
1000
0001
0100
,
1000
0010
0110
0000
,
0000
0000
0000
0000
,
0000
0000
0010
0010
0010
0000
0000
0000
,
0010
0000
0010
0001
,
0100
1001
0000
0000
;

//--------------- dance-single - KONAMI-DSP ----------------
#NOTES:
     dance-single:
     KONAMI-DSP:
     Medium:
     8:
     0.382963,0.448416,0.44067,0,0,292,244,48,0,0,0,0,0,0,0.382963,0.448416,0.44067,0,0,292,244,48,0,0,0,0,0,0:
0000
0000
0000
0000
,
0000
0000
0000
0000
,
0000
0000
0000
0000
,
0000
0000
0000
0000
,
0000
0000
0000
0000
,
0000
0000
0000
0000
,
0000
0000
0001
0000
0001
0000
0001
0100
,
0000
0000
1000
0000
1000
0000
1000
0100
,
0000
0000
0100
0000
0100
0000
0100
1000
,
0000
0000
0100
0000
1000
0000
0100
0010
,
0000
0000
0001
0000
0100
0000
0001
0100
,
0000
0000
0100
0000
0001
0000
0100
0001
,
0000
0100
1000
0100
,
1000
0100
1000
0000
0001
0100
0001
0000
,
0100
1100
1000
0110
,
1000
0001
1000
0010
0000
0000
0000
0000
,
1000
1010
0010
1100
,
1000
0001
0100
0010
0000
0000
0000
0100
,
0001
0011
0001
0110
,
0001
1000
0001
0010
0000
0000
0000
0100
,
0001
0101
0010
0101
,
0001
1000
0100
0000
0110
0000
1001
0000
,
0000
0010
0000
1000
0000
0001
0000
0010
,
0000
0001
0000
0100
0000
0001
0000
0010
,
0000
0101
0000
1000
0000
0001
0000
0100
,
0000
0001
0000
0010
0000
0001
0000
0100
,
0000
1010
0000
0011
0000
1000
0000
0010
,
0000
1000
0000
0100
0000
1000
0000
0010
,
0000
1100
0000
0101
0000
1000
0000
0100
,
1000
0001
0100
0000
0001
1000
0100
0000
,
0100
0101
0001
0110
,
0001
1000
0001
0010
0000
0000
0000
0000
,
0001
0011
0010
0101
,
0001
1000
0100
0010
0000
0000
0000
0100
,
1000
1010
1000
0110
,
1000
0001
1000
0010
0000
0000
0000
0100
,
1000
1100
0010
1100
,
1000
0001
0100
0000
0110
0000
1001
0000
,
1000
0010
0100
0000
0101
0000
0001
0000
,
0010
0100
1000
0100
,
0010
0001
1100
0000
0001
0000
0100
0000
,
1000
0100
0001
1000
,
0001
0010
0100
0000
1100
0000
1000
0000
,
0010
0100
0001
0100
,
0010
1000
0101
0000
1000
0000
0100
0000
,
0001
0100
1000
0001
,
1001
0000
1010
0000
,
0101
0000
1001
0000
,
1100
0000
0011
0000
,
1001
0000
1001
0100
,
0011
0100
1100
0100
,
0101
0100
1001
0100
,
0101
0100
1100
0100
,
1001
0100
1000
0101
,
1000
0100
0001
0100
,
1000
0001
0100
0000
0001
0000
1000
0000
,
0100
0010
0011
0001
,
1000
0100
0001
1100
,
0001
0100
1000
0100
,
0001
1000
0100
0000
1000
0000
0001
0000
,
0100
0000
0010
0000
1000
0010
1000
0010
,
1000
0010
1000
0010
0100
0000
0000
0000
,
0000
0000
0000
0000
,
0000
0000
0000
0010
0100
0000
0000
0000
,
0110
0000
0010
0000
0010
1000
0000
1010
,
0001
0100
0001
0000
0000
0000
0000
0000
;

//--------------- dance-single - KONAMI-ESP ----------------
#NOTES:
     dance-single:
     KONAMI-ESP:
     Hard:
     12:
     0.563953,0.599036,0.201974,0.064264,0.041313,430,408,22,7,0,0,0,0,0,0.563953,0.599036,0.201974,0.064264,0.041313,430,408,22,7,0,0,0,0,0:
0000
0000
0000
0000
,
0000
0000
0000
0000
,
0000
0000
0000
0000
,
0000
0000
0000
0000
,
0000
0000
0000
0000
,
0000
0000
0000
0000
,
0200
0000
0001
0000
0010
0000
0301
0010
,
0200
0000
1000
0000
0010
0000
1300
0010
,
0002
0000
0010
0000
1000
0000
0013
1000
,
0002
0000
0010
0000
1000
0000
0013
0100
,
2000
0000
0001
0000
0010
0000
3001
0010
,
2000
0000
0010
0000
0001
0000
3010
0001
,
0200
0010
1000
0310
,
1000
0010
1000
0001
1000
0010
1000
0100
,
0010
0001
1000
0100
1000
0010
0100
0010
,
1000
0001
1000
0100
0000
0000
0000
0000
,
1000
0100
1000
0010
0100
0010
1000
0100
,
1000
0001
0010
0100
0000
0000
0000
0010
,
0001
1000
0001
0100
0001
0010
0100
0010
,
0001
1000
0001
0100
0000
0000
0000
0010
,
0001
0100
0001
0010
0100
0010
0001
0100
,
0001
1000
0010
0100
0110
0000
0101
0000
,
0000
0000
0101
0000
0000
1100
0000
0000
1000
0000
0000
0001
0000
0000
0100
0000
,
0000
0001
1000
0010
0000
0001
0010
0100
,
0000
0000
0011
0000
0000
1010
0000
0000
1000
0000
0000
0001
0000
0000
0010
0000
,
0000
0001
1000
0100
0000
0001
0100
0010
,
0000
0000
1100
0000
0000
0101
0000
0000
0001
0000
0000
1000
0000
0000
0100
0000
,
0000
1000
0001
0010
0000
1000
0010
0100
,
0000
0000
1010
0000
0000
0011
0000
0000
0001
0000
0000
1000
0000
0000
0010
0000
,
1000
0100
0010
0001
1000
0010
0100
0100
,
0010
1000
0001
0100
0001
0010
0100
0010
,
0001
1000
0001
0100
0000
0000
0000
0000
,
0001
0100
0001
0010
0100
0010
0001
0100
,
0001
1000
0010
0100
0000
0000
0000
0010
,
1000
0001
1000
0100
1000
0010
0100
0010
,
1000
0001
1000
0100
0000
0000
0000
0010
,
1000
0100
1000
0010
0100
0010
1000
0100
,
1000
0001
0010
0100
0110
0000
1100
0000
,
0001
0010
0100
1000
1000
0010
0100
0001
,
0001
0010
0100
1000
0001
1000
0010
0100
,
0001
0100
0010
1000
1000
0100
0010
0001
,
0001
0100
0010
1000
0001
1000
0100
0010
,
1000
0010
0100
0001
0001
0010
0100
1000
,
1000
0010
0100
0001
1000
0001
0010
0100
,
1000
0100
0010
0001
0001
0100
0010
1000
,
1000
0100
0010
0001
1000
0001
0100
0010
,
1001
0000
0010
0001
1000
0100
0010
0001
,
1000
0100
0010
0100
1000
0100
0010
0001
,
1000
0100
0010
0001
0010
0100
0010
0001
,
1000
0100
0101
0000
1000
0100
0010
0001
,
1000
0100
0010
0001
1000
0100
0010
0001
,
1000
0100
0010
0100
1000
0100
0010
0001
,
1000
0100
0010
0001
0010
0100
0010
0001
,
1000
0100
0101
0000
1001
0001
0100
0010
,
0110
0100
0010
1000
0010
0001
0010
0100
,
1000
0100
0010
0001
1100
0100
1000
0100
,
0010
0100
1000
0001
0010
0100
1000
0001
,
0010
0100
1000
0001
1001
1000
0001
1000
,
0110
0100
0010
0100
0010
1000
0010
0100
,
0001
0100
0010
1000
0101
0100
0001
0100
,
1000
0100
0001
1000
0010
0100
0001
1000
,
0010
0100
0001
0100
0001
0010
0100
1000
,
0001
0010
0100
1000
0010
0100
0010
0100
,
0001
1000
0100
0010
0001
0010
0100
1000
,
0010
0100
0010
0100
0001
1000
0100
1100
,
0000
0001
0100
0000
0001
0000
0000
0000
0000
0000
0000
0000
0000
0000
0000
0000
;

//--------------- dance-single - NewbStepper-CSP ----------------
#NOTES:
     dance-single:
     NewbStepper-CSP:
     Challenge:
     13:
     0.582314,0.808699,0.192793,0.073445,0.353454,444,423,21,8,0,0,0,0,0,0.582314,0.808699,0.192793,0.073445,0.353454,444,423,21,8,0,0,0,0,0:
0000
0000
0000
0000
,
0000
0000
0000
0000
,
0000
0000
0000
0000
,
0000
0000
0000
0000
,
0000
0000
0000
0000
,
0000
0000
0000
0000
,
0001
0100
1000
0000
1000
0100
0001
0000
,
0020
0001
0100
0031
,
1000
0010
0001
0000
0001
0010
1000
0000
,
0100
1000
0010
0001
1000
0100
0001
0000
,
1000
0100
0001
0000
0001
0100
1000
0000
,
0020
1000
0100
1030
,
0001
0010
1000
0000
1000
0010
0001
0000
,
1000
0001
1000
0001
1000
0001
1000
0001
0100
0010
0100
0010
0100
0010
0100
0010
,
1000
0100
0010
0001
0100
1000
0100
0001
,
0010
1000
0010
0001
0000
0000
0000
0000
,
0001
0100
0010
1000
0100
0001
0100
1000
,
0010
0001
0010
1000
0000
0000
0000
0001
,
0100
0000
0000
0100
0010
0000
0000
0000
1000
0000
0000
1000
0001
0000
0000
0000
,
0010
0000
0000
0010
0100
0000
0000
0000
0001
0000
0000
0001
1000
0000
0000
0000
,
0010
0000
0000
0010
0001
0000
0000
0000
1000
0000
0000
1000
0010
0000
0000
0000
,
0100
0000
0000
0100
0001
0000
0000
0000
0110
0000
0000
0000
1001
0000
0000
0000
,
0010
1000
0100
0010
0001
0100
1000
0001
,
1000
0100
0001
0010
1000
0001
0100
0001
,
0100
1000
0001
0100
1000
0001
0010
0100
,
0001
1100
0101
1001
,
0010
0001
0100
0010
1000
0100
0001
1000
,
0001
0100
1000
0010
0001
1000
0100
1000
,
0100
0001
1000
0100
0001
1000
0010
0000
,
0001
1000
0001
1000
0001
1000
0001
1000
0100
0010
0100
0010
0100
0010
0100
0010
,
0001
0100
0010
1000
0100
0001
0100
1000
,
0010
0001
0010
1000
0000
0000
0000
0000
,
1000
0100
0010
0001
0100
1000
0100
0001
,
0010
1000
0010
0001
0000
0000
0000
1000
,
0100
0000
0000
0100
0010
0000
0000
0000
0001
0000
0000
0001
1000
0000
0000
0000
,
0010
0000
0000
0010
0100
0000
0000
0000
1000
0000
0000
1000
0001
0000
0000
0000
,
0010
0000
0000
0010
1000
0000
0000
0000
0001
0000
0000
0001
0010
0000
0000
0000
,
0100
0000
0000
0100
1000
0000
0000
0000
0110
0000
0000
0000
1001
0000
0000
0000
,
1000
0000
0010
0000
1000
0100
0000
0000
0010
0000
0000
0011
0000
0000
1100
0000
,
0000
0000
0010
0000
0001
0100
0000
0000
0010
0000
0000
1010
0000
0000
0101
0000
,
0000
0000
0010
0000
1000
0001
0000
0000
0101
0000
0000
1010
0000
0000
1001
0000
,
0000
0000
0010
0000
0001
1000
0000
0000
1100
0000
0000
0011
0000
0000
1001
0000
,
0010
0000
1000
0000
0001
0100
0000
0100
0010
0000
0010
1000
0000
1000
0100
0000
,
0010
0000
0001
0000
1000
0100
0000
0100
0010
0000
0010
0001
0000
0001
0100
0000
,
0010
0000
1000
0000
0100
0001
0000
0100
1000
0000
1000
0010
0000
0100
0001
0000
,
0010
0000
0001
0000
0100
1000
0000
0100
0001
0000
0001
0010
0000
0100
1000
0000
,
1001
0000
0002
0000
,
2003
0000
3020
0000
,
0032
0000
0203
0000
,
2300
0000
3001
0001
,
0100
0100
0010
0010
,
1000
0000
1000
0000
0001
0100
0001
1000
,
0100
0000
0010
0000
0100
0000
1000
0000
0001
0100
0001
0100
0001
0100
0001
0100
,
0010
1000
0010
1000
0010
1000
0010
1000
0001
0000
0010
0000
1000
0000
0001
0000
,
0100
0010
0001
0100
1000
0001
0010
0100
,
0001
1000
0100
0010
0001
0100
0010
0001
,
1000
0100
0001
0010
0010
0001
0100
1000
,
0010
0000
1000
0000
0100
0000
0001
0000
1000
0000
0100
0000
0010
0000
0001
0100
,
0010
0000
1000
0000
0001
0000
0100
0010
1000
0000
0100
0000
0001
0000
0100
0010
,
0001
0000
0100
0000
1000
0000
0100
0010
1000
0000
0010
0000
0001
0000
0010
0100
,
0001
0000
0010
0000
1000
0000
0010
0100
1000
0100
1000
0100
1000
0100
1000
0100
,
0010
0001
0010
0001
0010
0001
0010
0001
1000
0000
0010
0000
0001
0000
0000
0000
,
0010
1000
0100
0000
0001
0100
1000
0010
,
0001
1000
0100
0001
0010
0000
0000
0000
,
0110
0000
0000
0000
1000
0100
0010
0011
,
0000
0001
0100
0000
0110
0000
0000
0000
0000
0000
0000
0000
0000
0000
0000
0000
;

//--------------- dance-double - NewbStepper-BDP ----------------
#NOTES:
     dance-double:
     NewbStepper-BDP:
     Easy:
     6:
     0.266238,0.32947,0.201974,0.018361,0,203,181,22,2,0,0,0,0,0,0.266238,0.32947,0.201974,0.018361,0,203,181,22,2,0,0,0,0,0:
00000000
00000000
00000000
00000000
,
00000000
00000000
00000000
00000000
,
00000000
00000000
00000000
00000000
,
00000000
00000000
00000000
00000000
,
00000000
00000000
00000000
00000000
,
00000000
00000000
00000000
00000000
,
00200000
00000000
00000000
00300000
,
00000000
00000000
00000000
00000000
,
00010000
10000000
00100000
00010000
,
00001000
00000010
00000001
00000100
,
00000020
00000000
00000000
00000000
,
00000030
00000000
00000000
00000000
,
00001000
00000001
00000010
00001000
,
00010000
00100000
10000000
00010000
,
10010000
00000000
01000000
00000000
,
10010000
00000000
00001000
00000000
,
00001001
00000000
00000100
00000000
,
00001001
00000000
00010000
00000000
,
10010000
01000000
01000000
00000000
,
00011000
00010000
00001000
00000000
,
00001001
00000100
00000100
00000000
,
00001001
00000000
00001001
00001001
,
00000001
00000100
00001000
00010000
,
00100000
10000000
01000000
00010000
,
00001000
00000010
00000001
00000001
,
00000100
00001000
00010000
01000000
,
10000000
01000000
00010000
00001000
,
00000010
00000001
00000100
00001000
,
00010000
00100000
10000000
01000000
,
00010000
00001000
00000010
00000001
,
00001001
00000000
00000100
00000000
,
00001001
00000000
00010000
00000000
,
10010000
00000000
01000000
00000000
,
10010000
00000000
00001000
00000000
,
00001001
00000100
00000100
00000000
,
00011000
00001000
00010000
00000000
,
10010000
01000000
01000000
00000000
,
10010000
00000000
01100000
01100000
,
10000000
00010000
10000000
01000000
,
00010000
00001000
00000010
00000010
,
00000001
00001000
00000001
00000100
,
00001000
00010000
00100000
00100000
,
10000000
00010000
10000000
00100000
,
00010000
00001000
00000100
00000100
,
00000001
00001000
00000001
00000010
,
00001000
00010000
01000000
01000000
,
10000000
00000000
01000000
00000000
,
00010000
00000000
00001000
00000000
,
00000100
00000000
00000001
00000000
,
00000010
00000000
00000001
00000001
,
00001000
00001000
00000001
00000000
,
00000100
00000000
00001000
00001000
,
00010000
00010000
00001000
00000000
,
01000000
00000000
00010000
00010000
,
10000000
10000000
00010000
01000000
,
10000000
01000000
00010000
00100000
,
00001000
00010000
00010000
00001000
,
00001000
00000010
00000001
00000100
,
00001000
00000100
00000001
00001000
,
00000100
00010000
00001000
00001000
,
00010000
00010000
00001000
00010000
,
01000000
10000000
10010000
00000000
,
00000000
00000000
00000000
00000000
,
00000000
00000000
00000000
00100000
00100000
00000000
00000000
00000000
,
00100000
00000000
00100000
00010000
,
00001000
00011000
00000000
00000000
;

//--------------- dance-double - NewbStepper-DDP ----------------
#NOTES:
     dance-double:
     NewbStepper-DDP:
     Medium:
     8:
     0.377717,0.448416,0.385586,0,0,288,246,42,0,0,0,0,0,0,0.377717,0.448416,0.385586,0,0,288,246,42,0,0,0,0,0,0:
00000000
00000000
00000000
00000000
,
00000000
00000000
00000000
00000000
,
00000000
00000000
00000000
00000000
,
00000000
00000000
00000000
00000000
,
00000000
00000000
00000000
00000000
,
00000000
00000000
00000000
00000000
,
00000000
00000000
00000001
00000000
00000001
00000000
00000001
00000100
,
00000000
00000000
00001000
00000000
00001000
00000000
00001000
00000100
,
00000000
00000000
00000010
00000000
00000010
00000000
00000010
00010000
,
00000000
00000000
00001000
00000000
00100000
00000000
00010000
00001000
,
00000000
00000000
00000010
00000000
00000100
00000000
00000010
00001000
,
00000000
00000000
00100000
00000000
01000000
00000000
00100000
00010000
,
00000000
00000100
00001000
00010000
,
01000000
00100000
01000000
00000000
10000000
00010000
10000000
00000000
,
00100000
10100000
10000000
01100000
,
00010000
00001000
00010000
00000100
00000000
00000000
00000000
00000000
,
00000010
00000011
00000100
00000110
,
00001000
00010000
00001000
00100000
00000000
00000000
00000000
00000000
,
01000000
11000000
10000000
01100000
,
00010000
00001000
00010000
00000010
00000000
00000000
00000000
00000000
,
00000100
00000101
00000001
00000110
,
00001000
00100000
00010000
00000000
01100000
00000000
10010000
00000000
,
00000000
00100000
00000000
10000000
00000000
00010000
00000000
00100000
,
00000000
01000000
00000000
00010000
00000000
00001000
00000000
00000010
,
00000000
00000001
00000000
00000100
00000000
00000001
00000000
00000010
,
00000000
00000001
00000000
00000100
00000000
00001000
00000000
00001001
,
00000000
00000010
00000000
00000001
00000000
00001000
00000000
00000010
,
00000000
00010000
00000000
01000000
00000000
10000000
00000000
00100000
,
00000000
01000000
00000000
00001000
00000000
00010000
00000000
00001000
,
00000100
00000010
00000100
00000000
00000001
00001000
00000001
00000000
,
00000010
00000011
00000001
00000110
,
00001000
00010000
00001000
01000000
00000000
00000000
00000000
00000000
,
00100000
10100000
10000000
01100000
,
00010000
00001000
00010000
00000010
00000000
00000000
00000000
00000000
,
00000100
00000101
00000001
00000110
,
00001000
00010000
00001000
00100000
00000000
00000000
00000000
00000000
,
01000000
11000000
10000000
01100000
,
00010000
00000100
00001000
00000000
00000110
00000000
00001001
00000000
,
00000010
00000001
00001000
00000000
00001100
00000000
00000001
00000000
,
00000010
00000001
00001000
00000000
00001100
00000000
00000001
00000000
,
00000100
00000001
00000010
00000000
00001000
00000000
00010000
00000000
,
00001000
00100000
00001000
01000000
00010000
00000000
10000000
00000000
,
00100000
10000000
00010000
00000000
01010000
00000000
10000000
00000000
,
00100000
10000000
00010000
00000000
01010000
00000000
10000000
00000000
,
01000000
10000000
00100000
00000000
00010000
00000000
00001000
00000000
,
00010000
00000010
00010000
00000100
00001000
00000000
00000001
00000000
,
00001001
00000000
00001010
00000000
,
00010100
00000000
00011000
00000000
,
01001000
00000000
10100000
00000000
,
01010000
00000000
10010000
01000000
,
00110000
01000000
11000000
01000000
,
01010000
00010000
00011000
00001000
,
00001010
00000010
00000110
00000100
,
00000101
00000010
00010000
00011000
,
00001000
00000100
00000001
00000100
,
00001000
00010000
01000000
00000000
10000000
00000000
00010000
00000000
,
01000000
00100000
10000000
01000000
,
00010000
00001000
00000100
00000000
00000001
00000000
00001000
00000000
,
00000010
00000100
00000001
00000010
,
00001000
00010000
00100000
00000000
10000000
00000000
00010000
00000000
,
00100000
00000000
01000000
00000000
00010000
00001000
00010000
00001000
,
00010000
00001000
00010000
00001000
00010000
00000000
00000000
00000000
,
00000000
00000000
00000000
00000000
,
00000000
00000000
00000000
00000010
00000100
00000000
00000000
00000000
,
00000110
00000000
00000000
00000000
00001000
00000100
00000010
00000001
,
00000000
00000100
00000000
00000000
00000000
00000000
00000000
00000000
;

//--------------- dance-double - NewbStepper-EDP ----------------
#NOTES:
     dance-double:
     NewbStepper-EDP:
     Hard:
     11:
     0.455097,0.539132,0.073445,0.128529,0.114758,347,339,8,14,0,0,0,0,0,0.455097,0.539132,0.073445,0.128529,0.114758,347,339,8,14,0,0,0,0,0:
00000000
00000000
00000000
00000000
,
00000000
00000000
00000000
00000000
,
00000000
00000000
00000000
00000000
,
00000000
00000000
00000000
00000000
,
00000000
00000000
00000000
00000000
,
00000000
00000000
00000000
00000000
,
00020000
00000000
00001000
00000000
00100000
00000000
00031000
00000010
,
00002000
00010000
00000010
00013000
,
00200000
00000000
10000000
00000000
01000000
00000000
00310000
00001000
,
00000020
00000000
00000001
00000000
00000100
00000000
00001030
00010000
,
00002000
00000000
00010000
00000000
00000010
00000000
00013000
00100000
,
00020000
00001000
00100000
00031000
,
00000020
00000001
00000100
00001030
,
00010000
00001000
00100000
00010000
01000000
00100000
10000000
01000000
,
00010000
00001000
00000100
00000001
00001000
00000100
00000010
00000100
,
00001000
00000001
00000100
00001000
00000000
00000000
00000000
00000000
,
00001000
00010000
01000000
10000000
00010000
01000000
00100000
01000000
,
00010000
10000000
01000000
00010000
00000000
00000000
00000000
00001000
,
00100000
00010000
01000000
00100000
01000000
00010000
00100000
00001000
,
01000000
00100000
00010000
00001000
00000000
00000000
00000000
00010000
,
00000010
00001000
00000100
00000010
00000100
00001000
00000010
00010000
,
00000100
00000010
00001000
00010000
00011000
00000000
01001000
00000000
,
00100000
00000000
00010000
00000000
00000000
10000000
00000000
00000000
01000000
00000000
00000000
00010000
00000000
00000000
00001000
00000000
,
00000000
00100000
01000000
00100000
00000000
00001000
00010000
00000100
,
00000000
00000000
00001000
00000000
00000000
00000001
00000000
00000000
00000100
00000000
00000000
00001000
00000000
00000000
00010000
00000000
,
00000000
00000010
00000100
00000010
00000000
00010000
00001000
01000000
,
00000000
00000000
00010000
00000000
00000000
10000000
00000000
00000000
00100000
00000000
00000000
00010000
00000000
00000000
00001000
00000000
,
00000000
01000000
00100000
01000000
00000000
00001000
00010000
00000010
,
00000000
00000000
00001000
00000000
00000000
00000001
00000000
00000000
00000010
00000000
00000000
00001000
00000000
00000000
00010000
00000000
,
00001000
00010000
00001000
00010000
00000100
00001000
00000001
00000100
,
00001000
00010000
01000000
10000000
00010000
01000000
00100000
01000000
,
00010000
10000000
01000000
00010000
00000000
00000000
00000000
00000000
,
00010000
00001000
00000100
00000001
00001000
00000100
00000010
00000100
,
00001000
00000001
00000100
00001000
00000000
00000000
00000000
00010000
,
00000010
00001000
00000100
00000010
00000100
00001000
00000010
00010000
,
00000100
00000010
00001000
00010000
00000000
00000000
00000000
00001000
,
00100000
00010000
01000000
00100000
01000000
00010000
00100000
00001000
,
01000000
00100000
00010000
00001000
00011000
00000000
00010100
00000000
,
00000010
00000000
00000001
00000000
00000000
00000001
00000000
00000000
00001000
00000000
00000000
00001000
00000000
00000000
00000001
00000000
,
00000000
00000000
00000100
00000000
00000000
00001000
00000000
00000000
00010000
00000000
00000000
01000000
00000000
00000000
00100000
00000000
,
00000000
00000000
00010000
00000000
00000000
00010000
00000000
00000000
10000000
00000000
00000000
10000000
00000000
00000000
01000000
00000000
,
00000000
00000000
00100000
00000000
00000000
01000000
00000000
00000000
00010000
00000000
00000000
00001000
00000000
00000000
00010000
00000000
,
00100000
00000000
10000000
00000000
00000000
10000000
00000000
00000000
00010000
00000000
00000000
00010000
00000000
00000000
10000000
00000000
,
00000000
00000000
01000000
00000000
00000000
00010000
00000000
00000000
00001000
00000000
00000000
00000100
00000000
00000000
00000010
00000000
,
00000000
00000000
00001000
00000000
00000000
00001000
00000000
00000000
00000001
00000000
00000000
00000001
00000000
00000000
00000100
00000000
,
00000000
00000000
00000010
00000000
00000000
00000100
00000000
00000000
00001000
00000000
00000000
00010000
00000000
00000000
00001000
00000000
,
00011000
00000000
00002000
00000000
,
00000100
00000000
00023000
00000000
,
00100000
00000000
00032000
00000000
,
00000010
00000000
00013000
00010000
,
01000000
01000000
10000000
10000000
,
00100000
00000000
00100000
00000000
00010000
00001000
00010000
00001000
,
00000100
00000001
00000100
00000001
00001000
00000010
00000100
00001000
,
00010000
00100000
10000000
00000000
00010000
10000000
01000000
00010000
,
00001000
00100000
01000000
00100000
00001000
00010000
00100000
00010000
,
00001000
00000010
00000001
00000000
00001000
00000001
00000100
00001000
,
00010000
00000010
00000100
00000010
00010000
00001000
00000010
00001000
,
00010000
00100000
10000000
00000000
00010000
00100000
00001000
00010000
,
01000000
00100000
00001000
00010000
00000100
00000010
00001000
00010000
,
00000010
00001000
00000100
00000010
00001000
00010000
00100000
01000000
,
00001000
00010000
00000010
00000100
00001000
00010000
01000000
00100000
,
00010000
01000000
00100000
10000000
20010000
00000000
00000000
00000000
,
30020000
00000000
00032000
00000000
,
00003002
00000000
00000000
00000010
00000013
00000000
00000000
00000000
,
00000001
00000000
00000000
00000000
00000100
00001000
00010000
00011000
,
00000000
00100000
01000000
00000000
01100000
00000000
00000000
00000000
00000000
00000000
00000000
00000000
00000000
00000000
00000000
00000000
;

//--------------- dance-double - NewbStepper-CDP ----------------
#NOTES:
     dance-double:
     NewbStepper-CDP:
     Challenge:
     14:
     0.577068,0.808699,0.119348,0.055084,0.344274,440,427,13,6,0,0,0,0,0,0.577068,0.808699,0.119348,0.055084,0.344274,440,427,13,6,0,0,0,0,0:
00000000
00000000
00000000
00000000
,
00000000
00000000
00000000
00000000
,
00000000
00000000
00000000
00000000
,
00000000
00000000
00000000
00000000
,
00000000
00000000
00000000
00000000
,
00000000
00000000
00000000
00000000
,
10000000
01000000
00010000
00000000
00001000
00000010
00000001
00000000
,
00000100
00000001
00001000
00000001
00000010
00000100
00001000
00000000
,
00000001
00000100
00001000
00000000
00010000
00100000
10000000
00000000
,
01000000
10000000
00100000
00010000
10000000
01000000
00010000
00000000
,
10000000
00100000
00010000
00000000
00001000
00000100
00000001
00000000
,
00000010
00000001
00001000
00000001
00000100
00000010
00001000
00000000
,
00000001
00000010
00001000
00000000
00010000
01000000
10000000
00000000
,
00100000
10000000
00100000
10000000
00010000
00100000
00010000
00100000
00001000
00010000
00001000
00010000
00000010
00001000
00000010
00001000
,
00000001
00000100
00001000
00010000
00000100
00000001
00001000
00010000
,
00000100
00010000
00100000
10000000
00000000
00000000
00000000
00000000
,
10000000
01000000
00010000
00001000
01000000
10000000
00010000
00001000
,
01000000
00001000
00000010
00000001
00000000
00000000
00000000
00001000
,
00000001
00000000
00000000
00000001
00000100
00000000
00000000
00000000
00000010
00000000
00000000
00000010
00001000
00000000
00000000
00000000
,
00010000
00000000
00000000
00010000
01000000
00000000
00000000
00000000
00100000
00000000
00000000
00100000
10000000
00000000
00000000
00000000
,
10000000
00000000
00000000
10000000
01000000
00000000
00000000
00000000
00100000
00000000
00000000
00100000
00010000
00000000
00000000
00000000
,
00001000
00000000
00000000
00001000
00000100
00000000
00000000
00000000
00000110
00000000
00000000
00000000
00001001
00000000
00000000
00000000
,
00000010
00001000
00100000
00010000
00001000
00000010
00001000
01000000
,
00100000
00010000
00001000
00000010
00000001
00000100
00001000
01000000
,
10000000
00010000
00100000
01000000
00010000
00001000
00000010
00010000
,
00100000
01000000
01100000
10010000
,
00100000
00010000
00000010
00001000
00010000
00100000
00010000
00000100
,
00000010
00001000
00010000
00100000
10000000
01000000
00010000
00000100
,
00000001
00001000
00000010
00000100
00001000
00010000
00100000
00001000
,
00000010
00000001
00000010
00000001
00001000
00000010
00001000
00000010
00010000
00001000
00010000
00001000
00100000
00010000
00100000
00010000
,
10000000
01000000
00010000
00001000
01000000
10000000
00010000
00001000
,
01000000
00001000
00000010
00000001
00000000
00000000
00000000
00000000
,
00000001
00000100
00001000
00010000
00000100
00000001
00001000
00010000
,
00000100
00010000
00100000
10000000
00000000
00000000
00000000
00010000
,
10000000
00000000
00000000
10000000
01000000
00000000
00000000
00000000
00100000
00000000
00000000
00100000
00010000
00000000
00000000
00000000
,
00001000
00000000
00000000
00001000
00000100
00000000
00000000
00000000
00000010
00000000
00000000
00000010
00000001
00000000
00000000
00000000
,
00000001
00000000
00000000
00000001
00000100
00000000
00000000
00000000
00000010
00000000
00000000
00000010
00001000
00000000
00000000
00000000
,
00010000
00000000
00000000
00010000
01000000
00000000
00000000
00000000
01100000
00000000
00000000
00000000
10010000
00000000
00000000
00000000
,
10000000
00000000
00100000
00000000
10000000
01000000
00000000
00000000
00010000
00000000
00000000
00001000
00000000
00000000
00011000
00000000
,
00000000
00000000
00000010
00000000
00000001
00000100
00000000
00000000
00001000
00000000
00000000
00010000
00000000
00000000
00011000
00000000
,
00000000
00000000
01000000
00000000
10000000
00100000
00000000
00000000
00010000
00000000
00000000
00001000
00000000
00000000
00011000
00000000
,
00000000
00000000
00000100
00000000
00000001
00000010
00000000
00000000
00001000
00000000
00000000
00010000
00000000
00000000
00011000
00000000
,
00001000
00000000
00010000
00000000
00100000
01000000
00000000
01000000
00010000
00000000
00010000
10000000
00000000
10000000
01000000
00000000
,
00010000
00000000
00001000
00000000
00000010
00000100
00000000
00000100
00001000
00000000
00001000
00000001
00000000
00000001
00000100
00000000
,
00001000
00000000
00010000
00000000
00100000
00010000
00000000
00001000
00010000
00000000
00000010
00010000
00000000
00001000
00010000
00000000
,
00010000
00000000
00001000
00000000
00000010
00001000
00000000
00010000
00001000
00000000
00000000
00000000
00011000
00000000
00000000
00000000
,
00100000
00000000
00020000
00000000
,
20030000
00000000
32000000
00000000
,
03020000
00000000
00032000
00000000
,
00003200
00000000
00000301
00000001
,
00001000
00001000
00010000
00010000
,
10000000
00000000
10000000
00000000
00100000
10000000
01000000
00010000
,
00001000
00000000
00000100
00000000
00000001
00000000
00000010
00000000
00000001
00000100
00000001
00000100
00000010
00001000
00000010
00001000
,
00000100
00010000
00000100
00010000
00001000
00100000
00001000
00100000
00010000
00000000
00100000
00000000
10000000
00000000
00010000
00000000
,
01000000
00100000
00001000
00000010
00000001
00000100
00010000
00001000
,
00100000
10000000
01000000
00001000
00010000
00100000
00001000
00010000
,
00000100
00000001
00001000
00000010
00000001
00000100
00001000
00001000
,
00010000
00000000
00001000
00000000
00000010
00000000
00000001
00000000
00001000
00000000
00000100
00000000
00000010
00000000
00000001
00000100
,
00000010
00000000
00001000
00000000
00000001
00000000
00000100
00001000
00010000
00000000
01000000
00000000
00010000
00000000
00001000
00100000
,
00010000
00000000
00001000
00000000
00000100
00000000
00000010
00001000
00010000
00000000
00000100
00000000
00001000
00000000
00010000
00100000
,
00001000
00000000
00010000
00000000
00100000
00000000
10000000
00010000
10000000
01000000
10000000
01000000
00100000
00010000
00100000
00010000
,
01000000
00001000
01000000
00001000
00010000
00000100
00010000
00000100
00001000
00000000
00000010
00000000
00000001
00000000
00000000
00000000
,
00000010
00001000
00000100
00000000
00010000
00001000
00000010
00000001
,
00000100
00001000
00010000
00100000
10000000
00000000
00000000
00000000
,
10010000
00000000
00000000
00000000
00010000
01000000
00100000
00010000
,
00000000
00001000
00010000
00000000
00011000
00000000
00000000
00000000
00000000
00000000
00000000
00000000
00000000
00000000
00000000
00000000
;
