#TITLE:DM STAR ~関西 energy style~;
#ARTIST:NAOKI;
#TITLETRANSLIT:DM STAR ~Kansai energy style~;
#BANNER:DM STAR ~Kansai energy style~.png;
#BACKGROUND:DM STAR ~Kansai energy style~-bg.png;
#MUSIC:DM STAR ~Kansai energy style~.ogg;
#SAMPLESTART:39.45;
#SAMPLELENGTH:15;
#BPMS:0=155.1;

//---------------dance-single - DDRDAIKENKAI-bSP----------------
#NOTES:
     dance-single:
     DDRDAIKENKAI-bSP:
     Beginner:
     5:
     :
0000
0000
0000
0000
,
0000
0000
0000
0000
,
0000
0000
0000
0000
,
0000
0000
0000
0000
,
0000
0000
0000
0000
,
0000
1000
0000
1000
,
0000
0001
0000
0001
,
0000
1000
0000
1000
,
1000
0000
0001
0000
,
2002
0000
3003
0000
,
0001
0001
0001
0000
,
0100
0100
0100
0000
,
0010
0010
0010
0000
,
1000
1000
1000
0000
,
0100
0100
0100
0000
,
0010
0010
0010
0000
,
0001
0001
0001
0000
,
1001
1001
1001
0000
,
1000
1000
0000
0001
,
0000
1000
0000
0001
,
0000
0100
0000
0010
,
0000
0100
0000
0010
,
0000
1000
0000
0100
,
0000
0010
0000
0001
,
0000
0100
0000
0010
,
0000
1000
1000
1000
,
1000
0000
0100
0100
,
0100
0100
0000
0010
,
0010
0000
0001
0001
,
0001
0001
0000
0100
,
0100
0000
0001
0001
,
0001
0001
0000
1000
,
1000
0000
0100
0100
,
0100
0100
0000
0010
,
0020
0000
0030
0000
,
0002
0000
0003
0000
,
2000
0000
3000
0000
,
0020
0000
0030
0000
,
0200
0000
0300
0000
,
0020
0000
0030
0000
,
2000
0000
3000
0000
,
2002
0000
3003
0000
,
0001
0001
0001
0000
,
1000
1000
1000
0000
,
0100
0100
0100
0000
,
0010
0010
0010
0000
,
0100
0000
1000
0000
,
0001
0001
0001
0000
,
0100
0000
0010
0000
,
0110
0000
0000
0000
,
1000
0000
0001
0000
,
1000
1000
1000
1000
,
1000
0000
0001
0000
,
0010
0000
0001
0001
,
0001
0001
0000
0100
,
0000
0010
0000
1000
,
1000
0000
0010
0000
,
0100
0000
0001
0001
,
0001
0000
1000
0000
,
1000
0000
1000
0000
,
0100
0000
0010
0000
,
0001
0000
0001
0000
,
1000
0000
0001
0000
,
1000
0000
1000
0000
,
0100
0000
0100
0000
,
0010
0000
0010
0010
,
0010
0000
0001
0001
,
0001
0001
0000
1000
,
1000
0000
0010
0010
,
0010
0010
0000
0100
,
0100
0000
0010
0010
,
0010
0010
0000
1000
,
1000
0000
0001
0001
,
0001
0001
0000
1000
,
1000
1000
0000
0100
,
0100
0100
0000
0010
,
0000
0110
0000
0000
;

//---------------dance-single - DDRDAIKENKAI-BSP----------------
#NOTES:
     dance-single:
     DDRDAIKENKAI-BSP:
     Easy:
     8:
     :
0000
0000
0000
0000
,
0000
0000
0000
0000
,
0000
0000
0000
0000
,
0000
0000
0000
0000
,
0000
0000
0000
0000
,
1000
0000
1000
0000
1000
0000
0001
0100
,
0000
0100
0002
0000
0000
0000
0003
0000
,
0010
0000
0010
0000
0010
0000
0001
1000
,
0000
1000
0200
0000
0000
0000
0310
0000
,
0220
0000
0000
0330
,
0010
0010
0100
0100
,
1000
0000
0001
0000
0100
0100
0100
0000
,
0010
0010
1000
1000
,
0001
0000
1000
0000
0100
0100
0100
0000
,
0010
0001
0100
0010
,
1000
0000
0100
0000
1000
1000
1000
0000
,
0001
0100
1000
0100
,
0110
0000
0110
0000
1000
0001
1000
0000
,
0100
0010
0001
0100
,
0010
2000
0100
3100
,
1000
0010
0100
0001
,
0020
0000
0100
0130
,
0010
0001
0010
1000
,
0100
0002
1000
1003
,
0100
1000
0001
0100
,
1000
0010
0002
0103
,
0010
1001
1000
0100
,
0010
0002
1000
1003
,
0100
1001
1000
0001
,
0100
0020
1000
1030
,
1001
0110
0100
0001
,
0010
0002
0100
0103
,
0001
0110
0010
1000
,
0001
2000
3100
0010
,
0020
0000
0000
0032
0000
0000
1003
0000
,
0010
0000
0110
0000
0000
1000
1000
0000
,
0002
0000
0000
0203
0000
0000
0310
0000
,
1000
1001
0002
2003
,
3100
1000
0001
0000
0000
0000
0100
0000
,
0001
1000
0100
0000
0000
0000
0010
0000
,
0100
1000
0001
0000
0000
0000
0100
0000
,
0010
1000
0001
0000
0100
0000
0110
0000
,
1001
0000
1001
0000
0001
1000
0100
0000
,
0010
0001
0100
0010
,
1000
0000
1000
0000
0001
1000
0010
0000
,
0100
0010
1000
0001
,
0010
0000
0010
0000
0100
1000
0001
0000
,
0010
0001
1000
0010
,
0100
0000
0100
0000
0010
1000
0100
0000
,
0110
0110
0011
1100
,
0100
0001
0100
1000
,
0001
0000
0100
0000
0010
0100
0010
0000
,
1000
0100
0010
0001
,
0100
0000
0010
0000
1000
0001
1000
0000
,
0001
0010
0100
1000
,
0010
0000
0100
0000
0001
1000
0001
0000
,
1001
0010
1001
0100
,
1000
0010
0001
0100
,
2000
0000
0000
0000
3002
0000
0000
0203
,
0000
0320
0000
1000
,
2030
0000
0000
0000
3020
0000
0000
0230
,
0000
0302
0000
0013
,
0210
0000
0000
0000
2300
0000
0000
3002
,
0000
0203
0000
0310
,
1000
0100
0001
0010
,
1000
1000
0100
0010
,
0120
0001
0031
0100
,
0010
2000
0001
3001
,
0010
0100
0001
0010
,
1000
0200
0010
0310
,
0110
0001
1000
0010
,
0100
0002
1000
1003
,
1001
0010
1001
0100
,
1000
0000
0100
0000
1001
0000
1000
0010
,
0000
0010
1000
0000
1000
0000
0001
0010
,
0000
0010
0001
0000
0100
0000
0010
1000
,
0000
2002
3003
0000
;

//---------------dance-single - DDRDAIKENKAI-DSP----------------
#NOTES:
     dance-single:
     DDRDAIKENKAI-DSP:
     Medium:
     12:
     :
0000
0000
0000
0000
,
0000
0000
0000
0000
,
0000
0000
0000
0000
,
0000
0000
0000
0000
,
0000
0000
0000
0000
,
1000
0000
1000
0000
0001
0000
0100
0020
,
0000
1030
0200
0000
0310
0000
0110
0000
,
0010
0000
0010
0000
0100
0000
1000
0020
,
0000
0130
0002
0000
1003
0001
1000
0000
,
0220
0000
0000
0330
,
1000
0000
0100
0000
1000
0000
0100
0000
0010
0000
0000
0001
0000
0000
1000
0000
,
0100
1000
0100
1000
0001
0100
0001
0000
,
1000
0000
0010
0000
1000
0000
0010
0000
0100
0000
0000
0001
0000
0000
0010
0000
,
0100
1000
0100
1000
0010
1000
0001
0000
,
0100
0000
0010
0000
0100
0000
0010
0000
1000
0000
0000
0001
0000
0000
1000
0000
,
0100
0010
0100
0010
0001
0100
0001
0000
,
0001
0000
1000
0000
0001
0000
0100
0000
0010
0000
0000
0100
0000
0000
0010
0000
,
1000
0000
0000
0001
1000
0000
0010
0000
0100
0000
0001
0000
1000
0000
0000
0000
,
0010
0000
0000
0010
1000
0000
0000
1000
0001
0000
1000
0000
0100
0000
0000
0000
,
0010
0000
0000
0010
0001
0000
0000
0001
1000
0000
0100
0000
0010
0000
0000
0000
,
0100
0000
0000
0100
1000
0000
0000
1000
0001
0000
0100
0000
0010
0000
0000
0000
,
0100
0000
0000
0100
0001
0000
0000
0001
1000
0000
0010
0000
0100
0000
0001
0000
,
0010
0000
0000
0010
0100
0000
0000
0100
0010
0000
0001
0000
0100
0000
0000
0000
,
0010
0000
0000
0010
1000
0000
0000
1000
0001
0000
1000
0000
0100
0000
0000
0000
,
1000
0000
0000
1000
0001
0000
0000
0001
0100
0000
0100
0000
0010
0000
0000
0010
,
1000
0100
0001
0100
2000
0000
3001
0000
,
1001
0000
0110
0000
1001
0000
1000
0010
,
1000
0100
0020
0000
0031
0000
1001
0000
,
1100
0000
0101
0000
1100
0000
0001
0010
,
0001
1000
0020
0000
1030
0000
1010
0000
,
0110
0000
1001
0000
0110
0000
1000
0100
,
1000
0001
0200
0000
0301
0000
1001
0000
,
0011
0000
1010
0000
0011
0000
0001
1000
,
0010
1000
0002
0000
0103
0010
0110
0000
,
0002
0000
1003
0010
0000
0100
0000
0001
,
1000
0001
0000
0100
0000
1000
0000
0100
,
0001
1000
0000
0100
0000
0001
0000
0100
,
1000
0001
0000
0100
0002
0000
1003
0000
,
1001
0000
0001
0000
0100
0000
0000
0000
0001
0000
0000
0001
1000
0000
0000
0000
,
1010
0000
0000
0000
1001
0000
0000
0000
1000
0000
0000
1000
0001
0000
0000
0000
,
0100
0000
0010
0000
0110
0000
0000
0000
0010
0000
0000
1000
0001
0000
2000
0000
,
0010
0000
0000
0000
0001
0000
0000
0000
3100
0000
0000
0100
0000
0000
0100
0000
,
1000
0010
1000
0000
1000
0001
1000
0000
,
1000
0010
1000
0100
0010
0001
1000
0000
,
0001
0100
0001
0000
0001
1000
0001
0000
,
0001
0010
0001
0100
0010
1000
0001
0000
,
0010
1000
0010
0000
0010
0001
0010
0000
,
0010
0100
1000
0100
0010
0001
0100
0000
,
0100
0010
0100
0000
0100
1000
0100
0000
,
0100
0010
1000
0001
1000
0100
0020
0000
,
0031
1000
0100
1000
0001
1000
0100
0000
,
0010
0001
1000
0001
0010
0001
1000
0000
,
0001
0100
0001
1000
0001
0100
0001
0000
,
1000
0010
1000
0001
1000
0010
1000
0000
,
0010
0100
0010
0001
0010
0100
0010
0000
,
1000
0100
0010
0100
0001
0100
1000
0000
,
0001
0010
0001
0100
0010
1000
0100
0010
,
0001
0010
0100
1000
0002
0000
0103
0000
,
0020
0000
1000
0000
1030
0001
1000
0200
,
0000
0010
0320
0000
0000
0000
0031
0000
,
0200
0000
0010
0000
0310
1000
0010
0200
,
0000
0001
0302
0000
0000
0000
1003
0100
,
0220
0000
0330
0000
0010
0001
0010
0200
,
0000
1000
2300
0000
0000
0000
3010
1000
,
1010
0000
1001
0000
0001
0010
0001
0010
,
0110
0000
1100
0000
1000
0001
1000
0001
,
1001
0000
0110
0000
1000
0001
1000
0010
,
1000
0100
0020
0000
0031
0000
1001
0000
,
1100
0000
0101
0000
0100
0010
0100
0001
,
1000
0100
0020
0000
0130
0000
1100
0000
,
1001
0000
0110
0000
0010
1000
0001
1000
,
0010
0100
0002
0000
0013
0000
0011
0000
,
0210
1300
0120
0031
,
0100
0010
0100
0000
0110
0000
1000
0010
,
0000
0001
0100
0000
0010
0001
0000
0010
,
1000
0010
0001
0010
0100
0000
1000
0002
,
0000
1003
2002
0000
3003
0000
0000
0000
;

//---------------dance-single - DDRDAIKENKAI-ESP----------------
#NOTES:
     dance-single:
     DDRDAIKENKAI-ESP:
     Hard:
     14:
     :
0000
0000
0000
0000
,
0000
0000
0000
0000
,
0000
0000
0000
0000
,
0000
0000
0000
0000
,
0000
0000
0000
0000
,
1000
0010
1000
0001
1000
0100
1000
2000
,
3001
0100
0200
0000
0310
0100
0110
0000
,
0010
1000
0010
0100
0010
0001
0010
0020
,
1030
0001
0002
1000
1000
2000
3003
0000
,
0110
0000
0110
0000
0100
0000
0001
0000
1000
0001
1000
0000
0010
0100
0010
0100
,
0010
0000
1000
0000
0001
0100
0000
0000
0002
0000
0000
0023
0000
0000
0032
0000
,
1003
0000
0100
0000
0010
0000
0001
0000
0100
0001
0100
0000
0001
0000
0000
0000
,
0010
0000
0001
0000
1000
0010
0000
0000
0200
0000
0000
0302
0000
0000
2003
0000
,
3100
0000
1000
0000
0010
0000
0001
0000
1000
0100
0010
0000
0110
0000
0000
0000
,
0100
0000
0001
0000
0010
0100
0000
0000
0020
0000
0000
0032
0000
0000
2003
0000
,
3010
0000
1000
0000
0100
0000
0010
0000
0001
1000
0100
0000
0010
0000
0001
0000
,
0100
0000
1000
0000
0100
0001
0000
0000
2000
0000
0000
3020
0000
0000
0230
0000
,
0310
0000
0000
0000
0100
0000
0000
0000
0001
1000
0001
0000
1001
0000
0000
0000
,
0001
0000
0000
0001
1000
0000
0001
0000
0000
0001
0100
0000
0010
0000
1000
0000
,
0100
0000
0000
0100
0010
0000
0100
0000
0000
0100
0010
0000
0100
0000
1000
0000
,
0010
0000
0000
0010
1000
0000
0001
0000
0000
0001
1000
0000
0010
0000
0100
0000
,
0001
0000
0000
0001
0010
0000
0100
0000
1000
0000
0100
0000
0010
0000
0001
0000
,
1000
0000
0000
0001
0100
0000
0010
0000
0000
0010
0100
0000
0001
0000
1000
0000
,
0100
0000
0000
0010
0100
0000
1000
0000
0000
1000
0001
0000
0100
0000
0010
0000
,
1010
0000
0000
0010
0100
0000
0001
0000
1000
0001
1000
0000
0010
0000
0100
0000
,
0001
0000
0000
1000
0100
0000
0010
0000
0002
0000
0000
0000
0103
0000
0000
0000
,
0110
0000
2001
0000
3100
0001
0100
1000
,
0100
0010
0002
0000
1003
0000
0001
1000
,
1100
0000
1020
0000
1030
0001
0100
0010
,
1000
0001
2000
0000
3100
0000
0010
0001
,
1001
0000
1200
0000
0310
1000
0010
0001
,
0010
0100
2000
0000
3001
0000
0100
0001
,
1001
0000
0120
0000
0130
0010
1000
0001
,
1001
0000
0001
0000
1000
0000
0010
0000
0100
0001
0100
0000
0001
0010
0001
0000
,
2000
0000
3001
0100
0000
0010
0000
1000
,
0001
1000
0000
0010
0100
0010
0000
0100
,
0001
1000
0000
0010
0000
0100
0000
0001
,
0100
1000
0000
0100
0002
0000
2003
0000
,
3100
0000
0100
0000
1100
0000
0000
1000
0001
0000
0100
0001
0100
0000
0000
0000
,
0101
0000
0000
0000
1010
0000
0000
0000
0000
0000
1000
0001
1000
0000
0000
0000
,
0100
0000
0100
0000
0110
0000
0000
0000
0001
0000
1000
0010
1000
0000
0002
0000
,
0100
0000
0000
0000
0103
0000
0000
0000
0020
0000
0000
2030
0000
0000
3001
0000
,
1001
0000
0010
0000
1001
0000
0000
0000
0200
0000
0000
0302
0000
0000
0023
0000
,
0130
1000
0010
1000
0001
1000
0100
0000
,
0010
0001
0100
0001
0010
1000
0100
0001
,
0010
0001
0100
1000
0010
0100
1001
0000
,
0001
0000
0100
1000
0000
0000
0100
0000
0001
0000
0010
0001
0000
0000
1000
0000
,
0010
0000
1000
0001
1000
0000
0001
0100
0001
0000
0010
0100
0010
0000
0001
0000
,
1000
0000
0010
2000
0000
0000
0000
0000
3001
0000
0010
0002
0000
0000
0000
0000
,
0103
0000
0010
0100
0000
0001
0000
1000
0100
0000
0010
0000
0110
0000
0000
0000
,
0001
0000
1000
0100
0000
1000
0001
0000
1000
0100
0000
1000
0001
0000
0100
0000
,
0001
0000
0010
0100
0000
0010
0001
0000
0010
0100
0000
0010
0001
0000
0100
0000
,
0010
0000
1000
0001
0000
1000
0100
0000
1000
0001
0000
0010
0001
0000
1000
0000
,
0001
0000
0100
0010
0000
0100
0001
0000
1000
0000
0100
0000
0010
0000
0001
0000
,
1000
0000
0001
0100
0000
0001
1000
0000
0001
0010
0000
0001
1000
0000
0100
0000
,
0001
0000
0100
1000
0000
0001
1000
0000
0010
1000
0000
0001
1000
0000
0010
0000
,
0001
0000
0010
1000
0000
0010
0100
0000
0010
1000
0000
0001
1000
0000
0100
0000
,
0010
0000
0001
1000
0000
0001
1000
0000
0200
0000
0000
0000
2300
0000
0000
0000
,
3020
0030
0020
0030
0010
0100
0010
2000
,
0000
3001
0002
0000
0010
0000
0023
0000
,
0230
0000
0301
0000
0100
1000
0010
2000
,
0000
3010
0020
0000
0031
0000
0010
0100
,
0120
0000
1030
0000
0001
0010
0100
0010
,
0001
0100
0200
0000
0310
0000
1000
0100
,
2000
0000
3001
0000
1000
0001
0100
0010
,
1000
0000
0100
0000
0001
0000
0100
0000
1000
0100
1000
0100
1000
0100
1000
0100
,
1000
0100
0010
0001
0010
1000
0010
0001
,
0010
0100
1000
0010
0001
0010
1010
0000
,
0101
0100
0001
0010
0001
1000
0010
1000
,
0100
0001
0100
1000
0010
0100
0110
0000
,
1001
1000
0010
0100
0001
0010
1000
0001
,
0100
1000
0001
0100
0010
1000
1001
0000
,
0110
0010
1000
0100
1000
0010
0001
1000
,
0100
0001
1001
0000
0110
0000
1000
0020
,
0000
0130
1000
0000
0002
0103
0000
0010
,
0001
0100
1000
0010
0001
0000
1000
0002
,
0000
0103
0220
0000
0330
0000
0000
0000
;

//---------------dance-single - DDRDAIKENKAI-CSP----------------
#NOTES:
     dance-single:
     DDRDAIKENKAI-CSP:
     Challenge:
     16:
     :
0000
0000
0000
0000
,
0000
0000
0000
0000
,
0000
0000
0000
0000
,
0000
0000
0000
0000
,
0000
0000
0000
0000
,
1000
0000
0000
0000
1100
0000
0000
0100
1000
0100
0010
0000
0001
0000
0000
0001
,
0100
0000
0000
0000
0101
0000
0000
0100
0001
0100
0010
0000
1000
0000
0000
1000
,
0001
0000
0000
0000
0011
0000
0000
0010
0001
0010
0100
0000
1000
0000
0000
1000
,
0010
0000
0000
0000
1010
0000
0000
0010
1000
0100
0010
0000
0100
0000
0000
0000
,
0110
0000
0110
0000
0001
0000
1000
0000
0010
0100
0010
0000
1000
0001
1000
0001
,
1000
0000
0001
0000
0010
0001
0000
0000
1000
0000
0001
0100
0000
0010
1000
0000
,
0001
0000
0010
0000
0100
0000
0010
0001
1000
0001
1000
0000
0001
0010
0001
0000
,
1000
0000
0100
0000
1000
0010
0000
0000
0100
0000
0010
0100
0000
0010
1000
0000
,
0001
0000
0100
0000
1000
0000
0100
0001
0100
0010
0100
0000
0010
1000
0010
0000
,
1000
0000
0100
0000
0010
0001
0000
0000
1000
0000
0001
0100
0000
0001
1000
0000
,
0100
0000
0010
0000
0100
0000
1000
0010
1000
0100
1000
0000
0100
0010
0100
0000
,
1000
0000
0001
0000
0100
0010
0000
0000
1000
0000
0010
0100
0000
0010
1000
0000
,
1001
0000
0000
0001
0010
0000
0001
1000
0001
1000
0001
0000
0100
0010
0100
0000
,
0001
0010
0001
0010
0001
0000
1000
0100
1000
0100
1000
0000
0010
0100
0010
0100
,
0010
0000
1000
0000
0200
0000
0000
0000
1300
0010
1000
0010
1000
0100
1000
0100
,
0010
0001
0010
0001
0010
0000
0001
0100
0001
0100
0001
0000
1000
0010
1000
0010
,
2000
0000
0000
0000
0001
0000
0000
0000
3001
0010
0001
0010
0100
0010
0100
0010
,
0001
0100
0001
0100
0010
0000
1000
0100
1000
0100
0010
0000
0001
0100
0001
0100
,
0010
0000
1000
0000
0002
0000
0000
0000
1003
0010
1000
0001
1000
0100
1000
0100
,
0010
0001
0010
0001
1000
0000
0010
1000
0010
1000
0001
0000
0010
0001
0010
0100
,
2000
0000
0001
0000
3001
0010
0001
0010
0002
0000
1000
0000
1003
0000
0000
0000
,
1001
0001
1001
0100
1001
0100
1001
0101
,
1100
0001
0020
0000
0031
0000
0001
1000
,
1001
1000
1001
0100
1001
0100
1001
0101
,
1100
0010
0200
0000
0310
0000
0110
0110
,
1001
0001
1001
0010
1001
0010
1001
0011
,
1010
0001
0200
0000
0310
0000
0100
0010
,
1010
0100
1010
0001
1010
0001
1010
1000
,
1100
0000
1100
0000
0010
0000
0001
0000
1000
0100
0010
0000
0001
0100
0010
1000
,
0100
1000
0010
0001
0000
0010
0000
1000
,
0100
0001
0100
1000
0000
0001
0000
0100
,
1000
0100
0001
1000
0000
0100
0000
0010
,
1000
0010
0001
1000
0020
1000
1030
0000
,
0001
0000
1000
0000
0001
0100
0000
0010
0100
0000
0010
1000
0000
0100
1000
0000
,
0100
0000
0010
0000
0100
1000
0000
0001
0010
0000
0010
0100
0000
0010
0001
0000
,
1000
0000
0001
0000
1000
0010
0000
0100
0010
0000
0100
0001
0000
0010
0001
0000
,
0010
0000
0100
0000
0010
0001
0000
1000
0200
0000
0000
0320
0000
0030
0001
0000
,
1001
0000
1000
0000
0001
0100
0000
0000
0001
1000
0000
0100
1000
0000
0001
0000
,
1000
0000
0010
0000
0100
0000
0001
1000
0010
1000
0001
0000
1000
0100
1000
0000
,
0001
0000
0010
0000
0001
1000
0000
0000
0100
1000
0000
0001
0100
0000
0010
0000
,
0100
0000
0001
0000
0010
0000
0100
1000
0100
0010
0001
0000
1000
0100
0010
0000
,
0001
0000
1000
0000
0010
1000
0000
0000
0001
0100
0000
0010
0100
0000
1000
0000
,
0100
0000
0001
1000
0100
0000
1000
0001
0100
0010
1000
0000
0100
0010
0001
0000
,
1000
0000
0001
0000
1000
0010
0000
0000
1000
0100
0000
0010
0001
0000
0100
0000
,
0110
0000
0000
0010
1000
0000
0001
1000
0100
1000
0100
0000
0010
0001
1000
0000
,
0001
1000
0010
0100
0001
0000
1000
0010
0100
0001
1000
0000
0010
0100
0010
1000
,
0100
1000
0100
1000
0010
1000
0010
1000
0010
0100
0010
0100
0001
0100
0001
0100
,
0001
0010
0100
1000
0010
0000
1000
0100
0010
0001
0100
0000
0010
1000
0100
0010
,
0002
0000
0000
0000
1003
0000
0000
0000
0100
0010
0100
1000
0100
0010
0001
1000
,
0001
0010
0001
1000
0010
0000
1000
0100
1000
0001
0010
0000
0001
0100
0001
1000
,
0010
0000
1000
0000
2000
0000
0000
0000
3010
0100
0001
0100
0010
0100
0001
1000
,
0010
0100
0010
1000
0001
0000
0100
0010
0100
0001
1000
0000
0001
0010
0100
1000
,
0002
0000
0010
0000
0013
0100
0010
0100
2000
0000
0001
0000
3002
0000
0000
0000
,
0203
0010
0320
0130
0020
0130
0010
0020
,
1030
0001
0002
0000
1000
0000
0103
0000
,
2000
0001
3002
1003
0002
1003
0100
0200
,
1300
0010
0020
0000
0130
0000
0010
0110
,
2001
0000
3200
0000
0301
0100
1000
0001
,
2001
3100
0200
0000
0310
0000
0001
0100
,
0101
0001
1001
0001
0011
0010
0110
0100
,
1000
0000
0001
0000
0100
0000
0010
0000
0100
0001
0100
0001
0100
0001
0100
0001
,
0200
0301
1001
0010
1001
0100
1001
0101
,
1100
0001
0020
0000
2030
0000
3100
0001
,
1001
1000
1001
0100
1001
0010
1001
0011
,
1010
0001
0200
0000
2300
0000
3010
0001
,
0011
0001
1001
0100
1001
0010
1001
1100
,
0101
1000
0002
0000
1003
0000
1010
0010
,
0110
1000
1010
0001
0011
1000
1100
1001
,
0010
1001
1100
0000
0011
0000
1001
1010
,
0000
1001
0101
0000
1001
0010
0000
1100
,
0010
0001
0100
0010
1000
0000
1100
1001
,
0000
0100
0220
0000
0330
0000
0000
0000
;

//---------------dance-double - DDRDAIKENKAI-BDP----------------
#NOTES:
     dance-double:
     DDRDAIKENKAI-BDP:
     Easy:
     8:
     :
00000000
00000000
00000000
00000000
,
00000000
00000000
00000000
00000000
,
00000000
00000000
00000000
00000000
,
00000000
00000000
00000000
00000000
,
00000000
00000000
00000000
00000000
,
00001000
00000000
00001000
00000000
00010000
00000000
00010000
01000000
,
00000000
01000000
20000000
00000000
00000000
00000000
31000000
00000000
,
00100000
00000000
00100000
00000000
00001000
00000000
00001000
00000010
,
00000000
00000010
00000002
00000000
00000000
00000000
00001003
00000000
,
00002002
00000000
00000000
00003003
,
00000001
00000001
00001000
00001000
,
00000100
00010000
00001000
01000000
,
00100000
00100000
10000000
10000000
,
01000000
00010000
00001000
00000100
,
00000001
00000001
00001000
00001000
,
00000100
00010000
00001000
00100000
,
01000000
01000000
10000000
10000000
,
10010000
00000000
10010000
00000000
00010000
10000000
00010000
00000000
,
01000000
00010000
00100000
01000000
,
10000000
00100000
00010000
00001000
,
00000100
00000001
00000010
00000100
,
00002000
00000000
00000100
00003100
,
00000010
00000001
00000100
00000010
,
00001000
00000100
00010000
00001000
,
00100000
00010000
01000000
00100000
,
10000000
01000000
00200000
00310000
,
00011000
00001000
01000000
00010000
,
00100000
00002000
00010000
00013000
,
00000100
00000010
00000100
00010000
,
00001000
00002000
01003000
00100000
,
01100000
01000000
00001000
00010000
,
00000100
00000020
00000001
00000031
,
00001001
00001000
00000100
00010000
,
00001000
00100000
00001000
00010000
,
00000020
00000000
00000000
00002030
00000000
00000000
00003001
00000000
,
00000010
00000000
00000110
00000000
00000000
00000001
00001000
00000000
,
00000200
00000000
00000000
00020300
00000000
00000000
00031000
00000000
,
00010000
00010000
00020000
02030000
,
23000000
00000000
00000000
30020000
00000000
00000000
01030000
00000000
,
00100000
00000000
00100000
00000000
00100000
01000000
00010000
00000000
,
00100000
00010000
00100000
00000000
00000000
00000000
00010000
00000000
,
00000100
00000010
00001000
00001001
,
00000110
00000000
00000110
00000000
00000100
00000010
00000100
00000000
,
00000001
00000100
00001000
00100000
,
01000000
00000000
01000000
00000000
10000000
00010000
01000000
00000000
,
00100000
00010000
00001000
00000100
,
00000010
00000000
00000010
00000000
00000100
00001000
00000100
00000000
,
00000001
00000010
00001000
00010000
,
01000000
00000000
01000000
00000000
10000000
00100000
01000000
00000000
,
10000000
00000000
01000000
00000000
00010000
00100000
01000000
00000000
,
00010000
00010000
00001000
00001000
,
00000010
00000000
00000010
00000000
00000001
00001000
00000001
00000000
,
00000100
00000100
00001000
00001000
,
00100000
01000000
00100000
00000000
01000000
10000000
01000000
00000000
,
10000000
01000000
00100000
00010000
,
00001000
00000100
00000010
00000001
,
00001001
00000100
00001001
00000010
,
00000100
00010000
00001000
01000000
,
00200000
00000000
00000000
00000000
00320000
00000000
00000000
00032000
,
00000000
00003200
00000000
00000301
,
00000002
00000000
00000000
00000000
00000023
00000000
00000000
00000230
,
00000000
00002300
00000000
01003000
,
02100000
00000000
00000000
00000000
23000000
00000000
00000000
30020000
,
00000000
02030000
00000000
03100000
,
10000000
00010000
00001000
00000001
,
00000100
00000000
00000100
00000000
00000010
00000100
00000010
00000000
,
00000110
00000100
00001000
01000000
,
00100000
20000000
00010000
30010000
,
10010000
10000000
00010000
00001000
,
00000100
00000020
00000100
00000130
,
00000110
00000001
00000100
00001000
,
00100000
20000000
00010000
30010000
,
10010000
00010000
00011000
00001000
,
00000100
00000000
00000010
00000000
00001001
00000000
00000001
00000100
,
00000000
00000100
00000010
00000000
00001000
00000000
00000100
00010000
,
00000000
00010000
00001000
00000000
01000000
00000000
00100000
10000000
,
00000000
20020000
30030000
00000000
;

//---------------dance-double - DDRDAIKENKAI-DDP----------------
#NOTES:
     dance-double:
     DDRDAIKENKAI-DDP:
     Medium:
     11:
     :
00000000
00000000
00000000
00000000
,
00000000
00000000
00000000
00000000
,
00000000
00000000
00000000
00000000
,
00000000
00000000
00000000
00000000
,
00000000
00000000
00000000
00000000
,
00010000
00000000
00010000
00000000
00001000
00000000
00001000
00200000
,
00000000
01000000
02300000
00000000
03100000
00000000
01100000
00000000
,
00100000
00000000
00100000
00000000
00001000
00000000
00001000
00000200
,
00000000
00000001
00000302
00000000
00001003
00000100
00000010
00000000
,
00000220
00000000
00000000
00000330
,
00001000
00000000
00000010
00000000
00000100
00000000
00000000
00000000
00000001
00000000
00000000
00000010
00000000
00000000
00000100
00000000
,
00001000
00000100
00010000
00000000
00001000
00100000
00010000
00000000
,
10000000
00000000
00100000
00000000
01000000
00000000
00000000
00000000
00010000
00000000
00000000
00100000
00000000
00000000
01000000
00000000
,
10000000
00010000
00100000
00000000
00001000
00010000
00000100
00010000
,
00000100
00000000
00001000
00000000
00000100
00000000
00000000
00000000
00010000
00000000
00000000
00001000
00000000
00000000
00100000
00000000
,
01000000
10000000
01000000
00000000
10000000
00100000
10000000
00000000
,
00100000
00000000
01000000
00000000
00010000
00000000
00000000
00000000
00100000
00000000
00000000
00001000
00000000
00000000
00010000
00000000
,
00011000
00110000
01100000
10010000
,
10000000
00100000
10000000
00000000
10000000
00010000
10000000
00000000
,
10000000
01000000
00100000
00000000
00100000
00001000
00010000
00000000
,
00010000
00001000
00010000
00000000
00010000
00000100
00010000
00000000
,
00010000
00000100
00000010
00000000
00000010
00000001
00000010
00000001
,
00000100
00000010
00001000
00000000
00001000
00000001
00000100
00000000
,
00000100
00000001
00001000
00000000
00001000
00010000
00100000
00000000
,
00100000
00010000
00100000
00000000
00100000
01000000
00100000
00000000
,
00100000
00010000
00001000
00010000
00200000
00000000
01300000
00000000
,
01100000
00000000
10010000
00000000
01100000
00000000
01000000
00010000
,
10000000
01000000
00200000
00000000
00301000
00000000
00011000
00000000
,
00000110
00000000
00001001
00000000
00000110
00000000
00000010
00000001
,
00001000
00000100
00020000
00000000
00031000
00000000
00011000
00000000
,
00110000
00000000
01010000
00000000
11000000
00000000
10000000
00100000
,
00010000
00001000
00020000
00000000
01030000
00000000
01100000
00000000
,
00110000
00011000
00001100
00000110
,
00000010
00000001
00000200
00000000
00000310
00000000
00000010
00001000
,
00000002
00000000
00000000
00000203
00000000
00000310
00001000
00000000
,
00000100
00000000
00010000
00000000
00000000
01000000
10000000
00000000
,
00010000
00010000
01000000
00000000
00000000
00000000
01010000
00000000
,
10000000
00000000
00010000
00000000
00100000
00010000
01000000
00000000
,
01000000
00000000
00010000
00000000
00100000
00000000
00000000
00000000
00100000
00000000
00000000
00010000
10000000
00000000
00000000
00000000
,
10100000
00000000
00000000
00000000
10010000
00000000
00000000
00000000
10000000
00000000
00000000
10000000
00010000
00000000
00000000
00000000
,
01000000
00000000
00010000
00000000
01010000
00000000
00000000
00000000
00100000
00000000
00000000
00001000
00010000
00000000
00002000
00000000
,
00010000
00000000
00000000
00000000
00013000
00000000
00000000
00000000
00000100
00000000
00000000
00000100
00000000
00000000
00000100
00000000
,
00000010
00000000
00000001
00000000
00000000
00000100
00000000
00000000
00000010
00000000
00000000
00001000
00000000
00000000
00000001
00000000
,
00001000
00000100
00010000
00000000
00010000
01000000
10000000
00000000
,
10000000
00000000
00100000
00000000
00000000
01000000
00000000
00000000
00010000
00000000
00000000
10000000
00000000
00000000
00010000
00000000
,
00100000
00001000
00010000
00000000
00010000
00001000
00000010
00000000
,
00000001
00000000
00000010
00000000
00000000
00001000
00000000
00000000
00000010
00000000
00000000
00000001
00000000
00000000
00000100
00000000
,
00000010
00001000
00010000
00000000
00010000
00100000
01000000
00000000
,
01000000
00000000
00010000
00000000
00000000
00001000
00000000
00000000
00010000
00000000
00000000
00001000
00000000
00000000
00010000
00000000
,
00000100
00000000
00000000
00000100
00001000
00000000
00000100
00000000
00010000
00000000
00001000
00000000
00011000
00000000
00000000
00000000
,
00010000
00000000
00000000
00010000
01000000
00000000
00000000
00000000
01000000
00000000
00100000
00000000
00010000
00000000
00000000
00000000
,
00100000
00000000
00000000
00100000
00010000
00000000
00000000
00000000
01000000
00000000
00010000
00000000
00100000
00000000
00000000
00000000
,
00001000
00000000
00000000
00001000
00010000
00000000
00000000
00000000
00001000
00000000
00100000
00000000
00010000
00000000
00000000
00000000
,
00100000
00000000
00000000
00100000
00001000
00000000
00000000
00001000
00000100
00000000
00000001
00000000
00000100
00000000
00000010
00000000
,
00001000
00000000
00000000
00001000
00000001
00000000
00000000
00000000
00000100
00000000
00000000
00000100
00000001
00000000
00000000
00000000
,
00001000
00000000
00000000
00001000
00000100
00000000
00000000
00000100
00010000
00000000
00001000
00000000
00010000
00000000
00000000
00000000
,
00011000
00100000
10010000
01000000
,
10000000
00010000
01000000
00100000
20000000
00000000
31000000
00000000
,
00200000
00000000
00010000
00000000
00310000
10000000
00010000
02000000
,
00000000
00010000
03020000
00000000
00000000
00000000
00130000
00000000
,
00002000
00000000
00010000
00000000
00013000
00001000
00010000
00000200
,
00000000
00010000
00020300
00000000
00000000
00000000
00030100
00001000
,
00002100
00000000
00000001
00000000
00003001
00000100
00000010
00002000
,
00000000
00000100
00003200
00000000
00000310
00000000
00000010
00000001
,
00000011
00000000
00001001
00000000
00001000
00000100
00001000
00000100
,
00001100
00000000
00011000
00000000
00010000
00001000
00010000
00001000
,
00011000
00000000
00000110
00000000
00000001
00001000
00000001
00000100
,
00000010
00001000
00000200
00000000
00010300
00000000
00011000
00000000
,
01100000
00000000
10010000
00000000
00010000
00100000
01000000
10000000
,
00010000
00100000
00002000
00000000
00013000
00000000
00011000
00000000
,
00001100
00000000
00001010
00000000
00000001
00000100
00000001
00000010
,
00000100
00010000
00002000
00000000
00013000
00000000
00011000
00000000
,
00101000
00110000
11000000
01100000
,
01000000
10000000
00100000
00000000
01100000
00000000
10000000
01000000
,
00000000
00100000
00010000
00000000
00001000
00000100
00000000
00000010
,
00000001
00000010
00000100
00000010
00000001
00000000
00000100
00000020
,
00000000
00001030
00002002
00000000
00003003
00000000
00000000
00000000
;

//---------------dance-double - DDRDAIKENKAI-EDP----------------
#NOTES:
     dance-double:
     DDRDAIKENKAI-EDP:
     Hard:
     14:
     :
00000000
00000000
00000000
00000000
,
00000000
00000000
00000000
00000000
,
00000000
00000000
00000000
00000000
,
00000000
00000000
00000000
00000000
,
00000000
00000000
00000000
00000000
,
20000000
00010000
30020000
00100000
00230000
00301000
00010000
00020000
,
00000000
00001000
00032000
00000000
00003100
00000010
00000110
00000000
,
00000020
00001000
00002030
00000001
00003002
00000013
00000100
00000200
,
00000000
00010000
00020300
00000000
00031000
00100000
00110000
00000000
,
00011000
00000000
00011000
00000000
00001000
00000000
00100000
00000000
00010000
10000000
00010000
00000000
01000000
00000000
00010000
00100000
,
00010000
00000000
10000000
00000000
00010000
00000000
01000000
00000000
00010000
00000000
00100000
01000000
00000000
00000000
00100000
00000000
,
00001000
00000000
00010000
00000000
00000100
00000000
00010000
00000000
00001000
00000000
00100000
00010000
00000000
00000000
00100000
00000000
,
00001000
00000000
00000100
00000000
00000001
00000000
00000010
00000000
00000100
00000000
00000010
00000001
00000000
00000000
00000100
00000000
,
00000010
00000000
00010000
00000000
00001000
00000000
00100000
00010000
00100000
00000000
01000000
00000000
01100000
00000000
00000000
00000000
,
10000000
00010000
00000000
10000000
01000000
00000000
00100000
00000000
00001000
00000000
00000100
00000000
00000001
00000000
00000000
00000000
,
00000010
00000100
00000000
00000010
00001000
00000000
00000010
00000000
00000001
00000000
00000100
00000000
00001000
00000000
00000000
00000000
,
00010000
00100000
00010000
00000000
00001000
00000000
00100000
00000000
01000000
00000000
10000000
00100000
10000000
00000000
00000000
00000000
,
10010000
00000000
00000000
00010000
00001000
00000000
00000100
00000000
00000001
00001000
00000001
00000000
00001001
00000000
00001000
00000000
,
00000001
00000000
00000000
00000010
00000000
00000000
00001000
00000000
00000000
00000010
00000000
00000000
00000001
00000000
00000100
00000000
,
00000010
00000000
00000000
00001000
00000000
00000000
00000100
00000000
00000000
00001000
00000000
00000000
00000010
00000000
00000100
00000000
,
00001000
00000000
00000000
00010000
00000000
00000000
01000000
00000000
00000000
00010000
00000000
00000000
00001000
00000000
00100000
00000000
,
00010000
00000000
00000000
10000000
00000000
00000000
01000000
00000000
00100000
00000000
00010000
00000000
00001000
00000000
00010000
00000000
,
00100000
00000000
00000000
01000000
00000000
00000000
10000000
00000000
00000000
00100000
00000000
00000000
01000000
00000000
00010000
00000000
,
00001000
00000000
00000000
00000010
00000000
00000000
00000100
00000000
00000000
00000001
00000000
00000000
00000010
00000000
00000100
00000000
,
00000110
00000000
00000000
00000100
00001000
00000000
00000001
00000000
00000100
00000010
00000000
00000000
00001000
00000000
00000100
00000000
,
00010000
00000000
00000000
01000000
10000000
00000000
00100000
00000000
00020000
00000000
00000000
00000000
00031000
00000000
00000000
00000000
,
00011000
00000000
00001100
00000000
00010000
00001000
00010000
01000000
,
10000000
00100000
20000000
00000000
31000000
00000000
01010000
00000000
,
00011000
00000000
00110000
00000000
00001000
00010000
00001000
00000010
,
00000001
00000100
00000002
00000000
00000103
00000000
00000010
00000100
,
00000110
00000000
00001001
00000000
00000001
00000010
00001000
00010000
,
00100000
01000000
20000000
00000000
31000000
00000000
00010000
00100000
,
01100000
00000000
10010000
00000000
10000000
00100000
00010000
00001000
,
00000100
00000010
00001000
00000001
00001000
00000100
00010100
00000000
,
00002000
00000000
00013000
02000000
00000000
03010000
00000000
00001000
,
00000100
00001000
00010000
01000000
00000000
00010000
00000000
00001000
,
00000100
00001000
00010000
00001000
00000000
00000100
00000000
00001000
,
00100000
00000000
00110000
01000000
00002000
00000000
00023000
00000000
,
00030100
00000000
00000100
00000000
00001100
00000000
00000000
00000000
00000010
00000000
00000001
00000100
00000001
00000000
00000000
00000000
,
00000101
00000000
00000000
00000000
00001010
00000000
00000000
00000000
00000100
00000000
00010000
00001000
00010000
00000000
00000000
00000000
,
00100000
00000000
00100000
00000000
01100000
00000000
00000000
00000000
10000000
00000000
01000000
00100000
01000000
00000000
00020000
00000000
,
00001000
00000000
00000000
00000000
00031000
00000000
00000000
00000000
00000020
00000000
00000000
00000032
00000000
00000000
00001003
00000000
,
00001001
00000000
00001100
00000000
00000010
00000001
00000100
00000000
,
00000010
00001000
00000100
00010000
00001000
00100000
01000000
00000000
,
10000000
00100000
00010000
00100000
01000000
00010000
00001000
00010000
,
00100000
01000000
00010000
00001000
00000100
00000001
00000010
00000000
,
00000001
00000100
00000001
00000100
00001000
00000100
00001000
00000100
,
00001000
00010000
01000000
10000000
00100000
01000000
00010000
00100000
,
00010000
01000000
00010000
01000000
10000000
01000000
10000000
01000000
,
00010000
00100000
01000000
00100000
00001000
00000100
00000002
00000000
,
00000013
00000000
00000000
00000010
00000100
00000000
00001000
00000000
00000000
00001000
00000100
00000000
00000010
00000000
00000001
00000000
,
00000100
00000000
00000000
00000100
00000010
00000000
00001000
00000000
00000000
00001000
00000100
00000000
00000001
00000000
00000100
00000000
,
00010000
00000000
00000000
00010000
00001000
00000000
00000100
00000000
00000000
00000100
00001000
00000000
00100000
00000000
01000000
00000000
,
00100000
00000000
00000000
00100000
00010000
00000000
01000000
00000000
00100000
00000000
00010000
00000000
00001000
00000000
00000100
00000000
,
00001000
00000000
00000000
00001000
00100000
00000000
00010000
00000000
00000000
00010000
01000000
00000000
00100000
00000000
01000000
00000000
,
00010000
00000000
00000000
00010000
00100000
00000000
01000000
00000000
00000000
01000000
00100000
00000000
00010000
00000000
01000000
00000000
,
01010000
00000000
00000000
00010000
00100000
00000000
00001000
00000000
00010000
00000100
00010000
00000000
00001000
00000000
00010000
00000000
,
00000100
00000000
00000000
00000100
00001000
00000000
00000001
00000000
00000200
00000000
00000000
00000000
00002300
00000000
00000000
00000000
,
00203000
00300000
00200000
00300000
00100000
01000000
00100000
00020000
,
00000000
10000000
20030000
00000000
31000000
00000000
01100000
00000000
,
00200000
00000000
00320000
00000000
01030000
10000000
01000000
00020000
,
00000000
00100000
00230000
00000000
00310000
00000000
00000100
00000010
,
00000120
00000000
00001030
00000000
00000100
00001000
00000001
00000100
,
00000010
00000100
00000002
00000000
00001003
00000000
00000100
00000010
,
00000001
00001000
00010000
10000000
,
01000000
00000000
00100000
00000000
00010000
00000000
00100000
00000000
00001000
00010000
00001000
00010000
00001000
00010000
00001000
00010000
,
00001000
00000100
00000001
00000010
00000100
00000001
00000100
00010000
,
00001000
00000100
00001000
00100000
01000000
10000000
11000000
00000000
,
00110000
00010000
10000000
00100000
00010000
00100000
01000000
00010000
,
00100000
00001000
00000010
00001000
00010000
00000100
00001100
00000000
,
00011000
00010000
01000000
00100000
00010000
00001000
00000010
00000001
,
00000100
00001000
00010000
00100000
10000000
01000000
01100000
00000000
,
10010000
01000000
00100000
00001000
00000100
00000001
00000010
00000100
,
00010000
00001000
00011000
00000000
00001100
00000000
00010000
00200000
,
00000000
00310000
00000200
00000000
00020300
01030000
00000000
10000000
,
00100000
00010000
00001000
00000100
00000001
00000000
00001000
00020000
,
00000000
00031000
00022000
00000000
00033000
00000000
00000000
00000000
;

//---------------dance-double - DDRDAIKENKAI-CDP----------------
#NOTES:
     dance-double:
     DDRDAIKENKAI-CDP:
     Challenge:
     15:
     :
00000000
00000000
00000000
00000000
,
00000000
00000000
00000000
00000000
,
00000000
00000000
00000000
00000000
,
00000000
00000000
00000000
00000000
,
00000000
00000000
00000000
00000000
,
10000000
00000000
00000000
10000000
01000000
00000000
00000000
01000000
00100000
00010000
00100000
00000000
00010000
00000000
00000000
00010000
,
01000000
00000000
00000000
01000000
00100000
00000000
00000000
00100000
00010000
00100000
01000000
00000000
00010000
00000000
00000000
00010000
,
00100000
00000000
00000000
00100000
00001000
00000000
00000000
00001000
00010000
00001000
00000100
00000000
00000010
00000000
00000000
00000010
,
00001000
00000000
00000000
00001000
00000100
00000000
00000000
00000100
00001000
00000100
00010000
00000000
00001000
00000000
00000000
00000000
,
00011000
00000000
00011000
00000000
00001000
00000000
00100000
00000000
01000000
10000000
01000000
00000000
00100000
00010000
00100000
00010000
,
01000000
00000000
00010000
00000000
00100000
00000000
00001000
00000000
00000100
00000000
00000001
00001000
00000000
00000001
00001000
00000000
,
00000100
00000000
00010000
00000000
00001000
00000000
00100000
00000000
00010000
10000000
00010000
00000000
10000000
00000000
10000000
00000000
,
01000000
00000000
00010000
00000000
01000000
00000000
00100000
00000000
00001000
00000000
00000100
00000010
00000000
00000100
00000010
00000000
,
00000001
00000000
00000010
00000000
00000100
00000000
00001000
00000000
00100000
00010000
00100000
00000000
01000000
00000000
01000000
00000000
,
00100000
00000000
00001000
00000000
00010000
00000000
00000100
00000000
00000010
00000000
00000001
00000100
00000000
00000001
00000100
00000000
,
00001000
00000000
00000100
00000000
00000010
00000000
00001000
00000000
00000100
00001000
00000100
00000000
00000010
00000100
00000010
00000000
,
00000100
00000000
00010000
00000000
00001000
00000000
01000000
00000000
00010000
00000000
10000000
00100000
00000000
10000000
00100000
00000000
,
01100000
00000000
00000000
00100000
00010000
00000000
00000100
00000000
00000010
00000100
00000010
00000000
00000110
00000000
00000000
00000000
,
00001000
00000000
00000000
00001000
00000100
00000000
00000010
00000000
00000000
00000010
00000100
00000000
00010000
00000000
00001000
00000000
,
00000100
00000000
00000000
00000100
00000010
00000000
00001000
00000000
00000000
00001000
00000100
00000000
00000001
00000000
00000100
00000000
,
00001000
00000000
00000000
00001000
01000000
00000000
00100000
00000000
00000000
00100000
00010000
00000000
01000000
00000000
00010000
00000000
,
00001000
00000000
00000000
00001000
00010000
00000000
00100000
00000000
01000000
10000000
01000000
00000000
00100000
00000000
00010000
00000000
,
10000000
00000000
00000000
10000000
01000000
00000000
00100000
00000000
00000000
00100000
01000000
00000000
00010000
00000000
01000000
00000000
,
10000000
00000000
00000000
10000000
00010000
00000000
00100000
00000000
00000000
00100000
00001000
00000000
00010000
00000000
01000000
00000000
,
01100000
00000000
00000000
00100000
00001000
00000000
00000100
00000000
00001000
00010000
00001000
00000000
00010000
00000000
01000000
00000000
,
00100000
00010000
00100000
00000000
00010000
10000000
00010000
10000000
02000000
00000000
00000000
00000000
03100000
00000000
00000000
00000000
,
01100000
00100000
10010000
00000000
11000000
00100000
00001000
00001000
,
00000010
00001000
00000200
00000000
00000310
00000000
00000001
00000100
,
00000110
00000010
00001001
00000000
00000011
00000100
00001000
00001000
,
00100000
00010000
02000000
00000000
13000000
00000000
01000000
00100000
,
01100000
00100000
10010000
00000000
10100000
01000000
00010000
00001000
,
00000100
00000010
00000002
00000000
00000103
00000000
00000010
00001000
,
00001010
00000010
00001001
00000000
00000101
00000010
00001000
00010000
,
00100000
00000000
01000000
00000000
00010000
00000000
01000000
00000000
10000000
00100000
10000000
00000000
00010000
01000000
00010000
01000000
,
00100000
00000000
00010000
00000000
00000000
00001000
00000000
00000000
00000010
00000000
00000000
00001000
00000000
00000000
00010000
00000000
,
00000000
00100000
00000000
00000000
00010000
00000000
00000000
00001000
00000000
00000000
00000010
00000000
00000001
00000100
00000000
00000010
,
00001000
00000000
00100000
00000000
00000000
10000000
00000000
00000000
01000000
00000000
00000000
00100000
00000000
00000000
00001000
00000000
,
00000010
00000001
00000000
00000000
00000011
00000000
00000000
00000010
00000002
00000000
00000100
00000000
00000203
00000000
00000000
00000000
,
00000301
00000000
00001000
00000000
00000001
00000010
00000000
00000001
00001000
00000000
00000010
00001000
00000000
00000100
00010000
00000000
,
00001000
00000000
00000010
00000000
00001000
00010000
00000000
00001000
00100000
00000000
00010000
10000000
00000000
00100000
10000000
00000000
,
01000000
00000000
00010000
00000000
01000000
10000000
00000000
00010000
00100000
00000000
00010000
01000000
00000000
00001000
00010000
00000000
,
00100000
00000000
10000000
00000000
00100000
00010000
00000000
00001000
00000200
00000000
00000000
00000302
00000000
00000000
00000013
00000000
,
00000110
00000000
00000100
00000000
00010000
00000000
00001000
00000000
01000000
00000000
00100000
10000000
00000000
00010000
01000000
00000000
,
00010000
00000000
00100000
00000000
00001000
00000000
00010000
00000000
00000100
00000010
00000100
00000000
00001000
00000001
00001000
00000000
,
00000010
00000000
00001000
00000000
00000010
00000000
00000100
00000000
00001000
00000000
00010000
00100000
00000000
10000000
01000000
00000000
,
00010000
00000000
01000000
00000000
00100000
00000000
00001000
00000000
00010000
00001000
00010000
00000000
00000100
00001000
00000100
00000000
,
00000010
00000000
00000100
00000000
00010000
00000000
00100000
00000000
10000000
00000000
01000000
00100000
00000000
00010000
00100000
00000000
,
00010000
00000000
01000000
00000000
10000000
00000000
01000000
00000000
00100000
10000000
00100000
00000000
01000000
00010000
01000000
00000000
,
00100000
00000000
10000000
00000000
00010000
00000000
00100000
00000000
00001000
00000000
00000010
00000001
00000000
00000010
00000100
00000000
,
00000110
00000000
00000100
00010000
00000000
00001000
00000000
00100000
01000000
00100000
01000000
00000000
01100000
00000000
00000000
00000000
,
00010000
00100000
00010000
00000000
01000000
00000000
00001000
00010000
00001000
00000000
00100000
00000000
00010000
00100000
00010000
00000000
,
10000000
00000000
00010000
00000000
00020000
00000000
00000000
00000000
00130000
00001000
00100000
00000000
00001000
00010000
00001000
00000000
,
00010000
00000100
00010000
00000000
00001000
00000000
00100000
00010000
00100000
00000000
00001000
00000000
00010000
00000100
00010000
00000000
,
00002000
00000000
00000000
00000000
00003010
00000000
00000000
00000000
00000010
00000001
00000100
00000000
00000010
00001000
00000100
00000000
,
00000010
00001000
00000010
00000000
00000100
00000000
00010000
00001000
00010000
00000000
00000100
00000000
00000010
00000001
00000010
00000000
,
00000100
00000000
00010000
00000000
00200000
00000000
00000000
00000000
10300000
01000000
10000000
00000000
00010000
00100000
00010000
00000000
,
01000000
00100000
01000000
00000000
00010000
00000000
00100000
01000000
00100000
00000000
00010000
00000000
10000000
01000000
10000000
00010000
,
00200000
00000000
00001000
00000000
00301000
00010000
00001000
00010000
00002000
00000000
00000000
00000000
00003200
00000000
00000000
00000000
,
00000320
00001000
00002030
00000000
00003100
00000001
00000100
00000200
,
00010300
00001000
00002000
00000000
00013000
00000000
00020000
01000000
,
02030000
10000000
23000000
00000000
30100000
01000000
00010000
00020000
,
00130000
00001000
00002000
00000000
00010000
00000000
00003100
00000010
,
00000110
00000000
00000020
00000000
00001030
00000100
00000001
00000100
,
00001000
00010000
00002000
00000000
00003100
00000000
00010000
00001000
,
00011000
10010000
00011000
00001001
,
00000001
00000000
00001000
00000000
00000100
00000000
00010000
00000000
00001000
00010000
00001000
00010000
00001000
00010000
00001000
00010000
,
00000100
00000000
00000011
00000000
00000101
00000010
00010000
00010000
,
00100000
00010000
02000000
00000000
03100000
00000000
10000000
01000000
,
01100000
00100000
10010000
00000000
10100000
01000000
00010000
00010000
,
00000010
00001000
00000200
00000000
00000301
00000000
00000100
00000010
,
00000110
00000010
00001001
00000000
00000011
00000100
00001000
00010000
,
01000000
00100000
20000000
00000000
31000000
00000000
00100000
00010000
,
00110000
00100000
10010000
00000000
11000000
00100000
00010000
00001000
,
00000010
00001000
00000100
00000000
00000110
00000000
00000001
00000101
,
00000000
00001010
00001010
00000000
00001100
00010000
00000000
00011000
,
01000000
10000000
00100000
00010000
00000100
00000000
00010000
00002000
,
00000000
00013000
00022000
00000000
00033000
00000000
00000000
00000000
;
