#VERSION:0.83;
#TITLE:DAWN OF FALCON;
#ARTIST:L.E.D.-G;
#BANNER:DAWN OF FALCON.png;
#BACKGROUND:DAWN OF FALCON-bg.png;
#JACKET:DAWN OF FALCON-jacket.png;
#MUSIC:DAWN OF FALCON.ogg;
#OFFSET:-0.03;
#SAMPLESTART:40.288;
#SAMPLELENGTH:15;
#BPMS:0=155;

//---------------dance-single - Marten-ESP----------------
#NOTEDATA:;
#CHARTNAME:Marten-ESP;
#STEPSTYPE:dance-single;
#DESCRIPTION:Marten-ESP;
#DIFFICULTY:Hard;
#METER:13;
#RADARVALUES:0.606005,0.670897,0.345917,0.154752,0.496118,466,428,38,17,0,0,0,0,0,0.606005,0.670897,0.345917,0.154752,0.496118,466,428,38,17,0,0,0,0,0;
#CREDIT:Marten;
#NOTES:
// measure 0
0000
0000
0000
0000
,  // measure 1
0000
0000
0000
0000
,  // measure 2
0000
0000
0000
0000
,  // measure 3
0000
0000
0000
0000
,  // measure 4
0001
0000
1000
0010
0100
0000
0001
0000
,  // measure 5
1000
0100
0000
0010
0000
0010
0000
0100
,  // measure 6
1000
0000
0001
0100
0001
0000
1000
0000
,  // measure 7
0001
0010
0100
1000
,  // measure 8
2100
0000
3010
0000
0100
0001
0100
0010
,  // measure 9
1000
1000
0001
0001
0000
0010
0100
0000
,  // measure 10
0012
0000
0103
0000
0010
1000
0001
0010
,  // measure 11
0011
0000
0000
0110
0000
0000
1100
0000
0000
0000
1000
0000
1001
0000
0000
0000
,  // measure 12
0001
0100
0001
0010
0001
0100
0001
1000
,  // measure 13
0100
1000
0010
1000
0100
1000
0010
0100
,  // measure 14
0001
0010
1000
0010
0001
0100
1000
0100
,  // measure 15
0101
0000
0000
1001
0000
0000
1100
0000
0000
0110
0000
0000
0010
0000
0001
0000
,  // measure 16
2002
0000
0000
0000
,  // measure 17
0003
3002
2003
3001
,  // measure 18
1001
0000
0101
0000
0110
0000
0010
1000
,  // measure 19
1100
0000
0110
0000
0011
0000
0001
1000
,  // measure 20
1001
0000
1100
0000
0101
0000
0001
0100
,  // measure 21
0010
1000
0001
1000
2001
0000
3001
0000
,  // measure 22
0101
0000
0000
0001
0010
0000
0100
0000
1000
0000
0100
0000
1000
0000
0010
0000
,  // measure 23
0100
0000
0000
0001
0100
0000
0010
0000
1000
0000
0100
0000
0001
0000
0100
0000
,  // measure 24
1000
0000
1000
0000
0001
0000
0001
0000
0010
0000
0010
0000
0100
0000
0100
1000
,  // measure 25
0020
0000
0000
0000
0000
0000
0000
0000
0130
0001
0000
1000
0000
0001
0010
0100
,  // measure 26
1000
0000
0001
0000
0100
0000
0001
0010
0001
0000
0100
0000
0010
0000
1000
0000
,  // measure 27
0100
0000
0001
0000
0100
0000
1000
0000
0010
0000
0100
0000
0001
0010
0001
0010
,  // measure 28
0100
0000
1000
0000
0100
0000
1000
0010
1000
0000
0010
0000
0100
0000
0001
0000
,  // measure 29
0100
0000
0010
0000
1000
0000
0100
0000
1000
0000
0001
0000
1000
0010
0100
0001
,  // measure 30
1000
0100
1000
0001
0100
0001
0010
0100
,  // measure 31
1000
0000
0001
0000
0100
0000
0010
0000
1000
0000
0100
0000
1000
0000
0010
0100
,  // measure 32
0010
0000
0100
0000
0001
0000
0010
0100
0010
0000
1000
0000
0010
0000
0001
0100
,  // measure 33
0001
0001
1000
1000
1001
0000
0110
0000
,  // measure 34
0001
0000
0100
0000
0010
0000
0100
0001
0100
0000
0001
0000
0010
0000
0100
0000
,  // measure 35
1000
0000
0100
0000
0010
0000
0100
0000
0001
0000
0100
0000
1000
0010
1000
0010
,  // measure 36
0100
0000
0001
0000
0100
0000
0010
1000
0010
0000
0100
0000
0001
0000
0100
0000
,  // measure 37
0010
0000
0100
0000
1000
0000
0100
0000
0001
0000
0010
0000
0100
0010
0100
0010
,  // measure 38
0001
0010
0100
1000
0001
0010
0100
1000
,  // measure 39
0001
0000
0100
0000
0010
0000
1000
0000
0001
0000
0100
0000
0010
0000
1000
0001
,  // measure 40
1000
0000
0010
0000
0100
0000
0001
0000
0101
0000
0000
1100
0000
0000
1000
0010
,  // measure 41
1000
0000
0000
0011
0000
0000
0001
0000
1000
0000
0100
0010
0000
0100
1000
0010
,  // measure 42
0200
0000
0000
0000
,  // measure 43
0000
0000
0000
0000
,  // measure 44
0320
0000
0000
0000
,  // measure 45
2030
0000
0001
3001
,  // measure 46
1000
0100
0010
0001
,  // measure 47
1000
0000
0000
0001
0000
0000
0100
0000
0010
1000
0000
1000
,  // measure 48
0100
0000
0000
0100
0000
0000
0010
0000
0000
0010
0000
0001
,  // measure 49
0010
0000
0000
0010
0000
0000
0100
1000
0010
0100
0001
0100
,  // measure 50
0010
0000
0010
1000
0000
1000
0001
0000
0001
0010
0001
1000
,  // measure 51
0100
0000
0100
1000
0000
1000
0001
0100
0010
1000
0100
0010
,  // measure 52
0001
0000
0001
1000
0000
1000
0010
0000
0010
0100
0001
0100
,  // measure 53
0010
0000
0010
1000
0000
1000
0100
1000
0010
0100
0001
0010
,  // measure 54
0100
0000
1000
0100
0000
1000
0010
0000
1000
0100
0000
0010
,  // measure 55
0001
0000
0100
0001
0000
0010
0001
0000
0100
0001
0000
0010
,  // measure 56
0100
0000
0100
1000
0000
1000
0001
0000
0101
0000
1100
0000
,  // measure 57
2002
0000
0000
3003
,  // measure 58
0101
0000
0100
0001
0000
0001
0010
0000
0010
0100
1000
0100
,  // measure 59
0010
0000
0010
0001
0000
0001
1000
0100
1000
0010
1000
0001
,  // measure 60
0100
0000
0100
0001
0000
0001
0010
0000
0010
0001
1000
0100
,  // measure 61
1000
0000
1000
0010
0000
0000
0110
0000
1001
0000
0010
0100
,  // measure 62
0010
0000
0010
1000
0000
1000
0001
0010
0100
0010
0001
1000
,  // measure 63
0010
0000
0010
0100
0000
0100
0001
1000
0100
0010
0100
1000
,  // measure 64
0001
0000
0000
1001
0000
0011
0000
0000
0001
1000
0000
0000
,  // measure 65
2200
0000
0000
3300
0000
0000
0001
0100
0010
1010
0000
0000
,  // measure 66
0202
0000
0000
0000
,  // measure 67
0303
0000
0000
0000
;

//---------------dance-double - NewbStepper-EDP----------------
#NOTEDATA:;
#CHARTNAME:NewbStepper-EDP;
#STEPSTYPE:dance-double;
#DESCRIPTION:NewbStepper-EDP;
#DIFFICULTY:Hard;
#METER:14;
#RADARVALUES:0.598202,0.670897,0.318608,0.109237,0.523427,460,425,35,12,0,0,0,0,0,0.598202,0.670897,0.318608,0.109237,0.523427,460,425,35,12,0,0,0,0,0;
#CREDIT:NewbStepper;
#NOTES:
00000000
00000000
00000000
00000000
,
00000000
00000000
00000000
00000000
,
00000000
00000000
00000000
00000000
,
00000000
00000000
00000000
00000000
,
10000000
00000000
00000000
00000000
00010000
00000000
00010000
01000000
00100000
00000000
00000000
00000000
00100000
00000000
00010000
00000000
,
00000000
00000000
00001000
00000000
00000010
00000000
00000001
00000000
00000000
00000000
00000100
00000000
00000000
00000001
00001000
00000001
,
00000010
00000000
00000001
00000100
00001000
00000000
00010000
01000000
,
10000000
00010000
01000000
00100000
00000000
10000000
01000000
00010000
,
00001000
00010000
00011000
00000000
00000000
00001000
00000010
00000001
,
00000100
00000100
00000100
00000010
00000010
00001000
00000100
00000000
,
00010000
00001000
00011000
00000000
00000000
00010000
00100000
10000000
,
11000000
00000000
00000000
01100000
00000000
00000000
00110000
00000000
00000000
00000000
00010000
00000000
10000000
00000000
00000000
00000000
,
00010000
01000000
00010000
01000000
00100000
10000000
00100000
10000000
,
01000000
00010000
01000000
00010000
00001000
00000010
00001000
00000010
,
00000001
00000100
00001000
00000100
00000001
00000010
00001000
00010000
,
00100000
00000000
00000000
10100000
00000000
00000000
01000000
00000000
00000000
01010000
00000000
00000000
00100000
00000000
00001000
00000000
,
00022000
00000000
00000000
00000000
,
00000000
00033000
00010000
00001000
,
00011000
01010000
11000000
10100000
,
00110000
00001100
00000101
00000011
,
00001010
00011000
01010000
10100000
,
10000000
01000000
00010000
00000000
00001000
00000100
00000001
00000010
,
00000011
00000000
00000000
00000001
00000100
00000000
00001000
00000000
00010000
00000000
00100000
00000000
10000000
00000000
00010000
00000000
,
00100000
00000000
00000000
00100000
00010000
00000000
10000000
00000000
01000000
00000000
00010000
00000000
00001000
00000000
00000100
00000000
,
00000001
00000000
00000001
00000000
00000010
00000000
00000010
00000000
00000100
00000000
00000100
00000000
00001000
00000000
00001000
00000010
,
00000200
00000000
00000000
00000000
00000000
00000000
00000000
00000000
00001300
00010000
00000000
00010000
00000000
00001000
00100000
00010000
,
10000000
00000000
01000000
00000000
00010000
00000000
00001000
00100000
00001000
00000000
00010000
00000000
01000000
00000000
10000000
00000000
,
00100000
00000000
00010000
00000000
00001000
00000000
00000010
00000000
00000001
00000000
00000100
00000000
00000001
00000000
00001000
00000100
,
00000010
00000000
00000000
00000000
00000001
00000000
00000100
00001000
00000100
00000000
00000000
00000000
00000010
00000000
00000000
00000000
,
00001000
00000000
00000000
00000000
00010000
00000000
01000000
00000000
00000000
00000000
00100000
00000000
00000000
00000000
10000000
00010000
,
10000000
00000000
01000000
00000000
00010000
00000000
00001000
00100000
00010000
00000000
00000000
00000000
10000000
00000000
01000000
00000000
,
00010000
00000000
00000000
00000000
00001000
00000000
00000100
00000000
00000001
00000000
00000000
00000000
00000010
00000000
00000001
00000100
,
00000010
00000000
00000000
00000000
00001000
00000000
00000001
00000010
00000100
00000000
00000000
00000000
00010000
00000000
00001000
00010000
,
00001000
00000000
00100000
00000000
00010000
00000000
10000000
00100000
01000000
00000000
00000000
00000000
01010000
00000000
00000000
00000000
,
00010000
00000000
01000000
00000000
10000000
00000000
01000000
00010000
01000000
00000000
00001000
00000000
00010000
00000000
00100000
00000000
,
10000000
00000000
01000000
00000000
00010000
00000000
00001000
00000000
00000010
00000000
00000001
00000000
00001000
00000010
00001000
00000010
,
00000100
00000000
00000001
00000000
00000100
00000000
00001000
00010000
00001000
00000000
00000010
00000000
00000001
00000000
00000100
00000000
,
00000010
00000000
00000100
00000000
00001000
00000000
00010000
00000000
01000000
00000000
10000000
00000000
00100000
01000000
00100000
01000000
,
00010000
10000000
01000000
00100000
00010000
01000000
00100000
00010000
,
00001000
00000000
00100000
00000000
00010000
00000000
00001000
00000000
00000100
00000000
00010000
00000000
00001000
00000000
00000100
00000010
,
00000100
00000000
00000001
00000000
00000010
00000000
00001000
00000000
00011000
00000000
00000000
00011000
00000000
00000000
01000000
00100000
,
01000000
00000000
00000000
11000000
00000000
00000000
00010000
00000000
00001000
00000000
00000000
00000011
00000000
00000000
00001000
00000010
,
00000200
00000000
00000000
00000000
,
00000000
00000000
00000000
00000000
,
00000320
00000000
00000000
00000000
,
00002030
00000000
00010000
00013000
,
01100000
10000000
01000000
00010000
,
00001000
00000000
00000000
00000100
00000000
00000000
00000001
00000000
00000010
00000100
00000000
00001000
,
00000001
00000000
00000000
00000100
00000000
00000000
00001000
00000000
00000000
00010000
00000000
00100000
,
01000000
00000000
00000000
10010000
00000000
00000000
10000000
01000000
00100000
00010000
00000000
00010000
,
10000000
00000000
10000000
01000000
00000000
01000000
00100000
00000000
00100000
00010000
01000000
00100000
,
10000000
00000000
10000000
01000000
00000000
01000000
00010000
00001000
00000010
00000100
00000000
00000100
,
00001000
00000000
00001000
00000001
00000000
00000001
00000100
00000000
00000100
00000010
00001000
00000100
,
00000010
00000000
00000010
00000001
00000000
00000001
00000100
00001000
00010000
00100000
10000000
00010000
,
10000000
00000000
10000000
00100000
00000000
00100000
00010000
00000000
00010000
00001000
00010000
00001000
,
00000100
00000000
00000100
00000001
00000000
00000001
00000010
00000000
00000010
00001000
00000010
00001000
,
00010000
00000000
00010000
00100000
00000000
00100000
10000000
00000000
11000000
00000000
01010000
00000000
,
00022000
00000000
00000000
00033000
,
00000101
00000000
00000100
00000001
00000000
00000001
00000010
00000000
00000010
00001000
00010000
00100000
,
00010000
00000000
00010000
00001000
00000000
00001000
00100000
00010000
01000000
00100000
10000000
01000000
,
00010000
00000000
00010000
00001000
00000000
00001000
00100000
00000000
00100000
00010000
10000000
01000000
,
10000000
00000000
10000000
00010000
00000000
00010000
10000000
00000000
10100000
00000000
00010000
00001000
,
00000010
00000000
00000010
00000001
00000000
00000001
00000100
00000000
00000100
00001000
00010000
01000000
,
00010000
00000000
00010000
00001000
00000000
00001000
00100000
00010000
10000000
00100000
00010000
00001000
,
00000010
00000001
00000100
00001000
00000100
00000001
00000000
00000000
00000100
00000010
00000000
00000000
,
00002020
00000000
00000000
00003030
00000000
00000000
00010000
00100000
01000000
00010000
00000000
00001000
,
00022000
00000000
00000000
00000000
,
00033000
00000000
00000000
00000000
;

//---------------dance-single - NewbStepper-DSP----------------
#NOTEDATA:;
#CHARTNAME:NewbStepper-DSP;
#STEPSTYPE:dance-single;
#DESCRIPTION:NewbStepper-DSP;
#DIFFICULTY:Medium;
#METER:11;
#RADARVALUES:0.452553,0.540723,0.227577,0.072825,0.245783,348,323,25,8,0,0,0,0,0,0.452553,0.540723,0.227577,0.072825,0.245783,348,323,25,8,0,0,0,0,0;
#CREDIT:NewbStepper;
#NOTES:
// measure 0
0000
0000
0000
0000
,  // measure 1
0000
0000
0000
0000
,  // measure 2
0000
0000
0000
0000
,  // measure 3
0000
0000
0000
0000
,  // measure 4
1000
0000
0001
0000
1000
0000
0010
0100
,  // measure 5
0000
0100
0000
0010
0000
1000
0000
1000
,  // measure 6
0001
1000
0001
0001
,  // measure 7
1000
0000
0010
1000
0001
0010
0100
0000
,  // measure 8
1000
1000
1000
0000
0000
0001
0000
0001
,  // measure 9
0100
0000
0000
0101
0000
0000
1010
0000
,  // measure 10
0001
0001
0001
0000
0000
1000
0000
1000
,  // measure 11
0100
0100
1000
0010
0000
0100
0001
0000
,  // measure 12
1000
0000
1010
0000
0100
0001
0100
0000
,  // measure 13
0010
1000
0010
1000
0000
0001
0010
0000
,  // measure 14
0100
1001
0100
1001
,  // measure 15
0010
0000
0000
0010
0000
0000
0100
0000
0000
0100
0000
0000
0001
0000
0001
0000
,  // measure 16
2000
0000
0000
0000
,  // measure 17
0000
3000
0010
0010
,  // measure 18
1001
0000
0100
0010
1000
0000
0100
0010
,  // measure 19
0001
0000
1000
0010
0001
0000
0010
1000
,  // measure 20
0100
0000
0001
0100
1000
0000
0010
1000
,  // measure 21
0100
0000
0010
0001
0200
0000
0310
0000
,  // measure 22
1001
0000
0000
1000
0000
0000
0010
0000
0100
0000
0000
0001
0000
0000
0100
0000
,  // measure 23
1000
0000
0000
0100
0000
0000
0010
0000
0100
0000
0000
0000
0110
0000
0000
0000
,  // measure 24
1000
0100
0010
0100
0001
0100
1000
0100
,  // measure 25
0110
0000
0000
0000
0000
0000
0000
0000
0001
0000
0000
1000
0000
0000
0001
0000
,  // measure 26
1001
0000
1000
0100
0001
0000
0001
0100
,  // measure 27
0000
0010
0001
1000
0000
0100
0000
0010
,  // measure 28
0001
0000
0001
0100
1000
0000
0100
0000
,  // measure 29
0010
1000
0100
0010
0000
0001
0000
0100
,  // measure 30
0010
0000
1000
0010
0100
0000
0001
0010
,  // measure 31
0100
0000
1000
0100
0001
0100
1000
0001
,  // measure 32
0100
0010
0110
1001
,  // measure 33
1000
0010
0001
0010
1000
0000
0110
0000
,  // measure 34
0001
0000
0101
0000
0010
1000
0100
0010
,  // measure 35
0000
0001
0100
0010
0000
1000
0000
0100
,  // measure 36
0010
0000
0110
0000
0001
0100
1000
0000
,  // measure 37
0100
0001
0100
0010
0000
0110
0000
1001
,  // measure 38
0001
0100
0010
1000
0100
0010
0001
1000
,  // measure 39
0001
0100
1000
0100
0001
0100
1000
0100
,  // measure 40
0001
0000
0010
0000
0100
0000
1000
0000
0100
0000
0000
0110
0000
0000
0001
0000
,  // measure 41
0100
0000
0000
0110
0000
0000
0010
0000
1000
0000
0000
0100
0000
0000
0010
0000
,  // measure 42
1002
0000
0000
0000
,  // measure 43
0000
0000
0000
0000
,  // measure 44
2003
0000
0000
0000
,  // measure 45
3200
0000
0010
0310
,  // measure 46
0001
0100
0010
1000
,  // measure 47
0001
0000
0000
0100
0000
0000
0010
0000
0010
1000
0000
1000
,  // measure 48
0001
0000
0000
0010
0000
0000
0100
0000
0000
1000
0000
1000
,  // measure 49
0001
0000
0000
0100
0000
0000
0010
1000
0010
1000
0000
0000
,  // measure 50
0001
0000
0001
1000
0000
1000
0010
0000
0000
1000
0100
1000
,  // measure 51
0001
0000
0000
0010
0000
0000
0100
0000
0000
1000
0010
0100
,  // measure 52
0001
0000
0001
1000
0000
1000
0100
0000
0000
0010
0000
0000
,  // measure 53
0001
1000
1001
0000
,  // measure 54
0010
0000
0000
0001
0000
0100
0000
0000
0100
0001
0000
0100
,  // measure 55
0010
0000
0000
1000
0000
0100
0000
0000
0100
1000
0000
0100
,  // measure 56
0010
0000
0010
0100
0000
0100
0010
0000
0001
0000
0100
0000
,  // measure 57
0220
0000
0000
0330
,  // measure 58
1000
0000
0000
1100
0000
0000
0001
0000
0000
0100
0001
0100
,  // measure 59
0010
0000
0000
1000
0000
0000
1010
0000
0000
0100
0001
1000
,  // measure 60
0001
0000
0000
0101
0000
0000
1000
0000
0000
0100
1000
0100
,  // measure 61
0010
0000
0000
0001
0000
0000
0100
0000
0100
0000
0100
0000
,  // measure 62
0010
0000
0000
1000
0000
0100
0000
0000
0100
0010
0001
1000
,  // measure 63
0001
0000
0000
0010
0000
0100
0000
0000
0100
1000
0100
0010
,  // measure 64
0001
0000
0000
0100
0000
0010
0000
0000
1000
0100
0000
0100
,  // measure 65
0020
0000
0000
0030
0000
0000
0001
0100
0010
0100
0000
0001
,  // measure 66
1000
0000
0000
0000
;

//---------------dance-single - NewbStepper-BSP----------------
#NOTEDATA:;
#CHARTNAME:NewbStepper-BSP;
#STEPSTYPE:dance-single;
#DESCRIPTION:NewbStepper-BSP;
#DIFFICULTY:Easy;
#METER:6;
#RADARVALUES:0.266590,0.360482,0.182061,0.182061,0,205,185,20,20,0,0,0,0,0,0.266590,0.360482,0.182061,0.182061,0,205,185,20,20,0,0,0,0,0;
#CREDIT:NewbStepper;
#NOTES:
// measure 0
0000
0000
0000
0000
,  // measure 1
0000
0000
0000
0000
,  // measure 2
0000
0000
0000
0000
,  // measure 3
0000
0000
0000
0000
,  // measure 4
0010
0000
0010
0000
,  // measure 5
1000
0001
1000
0001
,  // measure 6
0100
0000
0100
0000
,  // measure 7
0001
1000
0001
0000
,  // measure 8
2002
0000
0000
3003
0000
1010
0000
0000
,  // measure 9
0110
0000
0000
0101
0000
0000
0110
0000
,  // measure 10
2002
0000
0000
3003
0000
0100
0000
0000
,  // measure 11
0020
0000
0000
0130
0000
0000
1001
0000
,  // measure 12
0001
0001
0100
0100
,  // measure 13
0010
0010
1000
1000
,  // measure 14
0100
0100
0100
0100
,  // measure 15
0020
0001
1000
0031
,  // measure 16
2002
0000
0000
0000
,  // measure 17
0000
3003
0000
0000
,  // measure 18
1000
0100
0001
0100
,  // measure 19
1000
0100
0010
0001
,  // measure 20
0001
0100
1000
0100
,  // measure 21
0001
0010
0100
1000
,  // measure 22
0010
1010
1000
0100
,  // measure 23
0010
0011
0001
0100
,  // measure 24
0020
2030
3200
0320
,  // measure 25
0031
0000
0000
0000
,  // measure 26
1000
0100
0010
0010
,  // measure 27
0001
0100
1000
0100
,  // measure 28
0001
0100
0010
0010
,  // measure 29
1000
0001
1000
0001
,  // measure 30
0010
0010
0001
1000
,  // measure 31
0010
0010
1000
0001
,  // measure 32
0100
0100
0010
0100
,  // measure 33
0110
0000
1001
1001
,  // measure 34
0001
0100
0010
0010
,  // measure 35
1000
0100
0001
0100
,  // measure 36
1000
0100
0010
0010
,  // measure 37
0001
1000
0001
1000
,  // measure 38
0010
0010
1000
0001
,  // measure 39
0010
0010
0001
1000
,  // measure 40
0100
0000
0011
0000
,  // measure 41
1001
0000
1010
0000
,  // measure 42
0220
0000
0000
0000
,  // measure 43
0000
0000
0000
0000
,  // measure 44
0000
0000
0000
0330
,  // measure 45
0002
0000
0000
0000
,  // measure 46
2003
0000
0000
0000
,  // measure 47
0000
0000
0000
0000
,  // measure 48
3020
0000
0000
0000
,  // measure 49
0230
0000
0000
0000
,  // measure 50
0301
0100
1000
0000
,  // measure 51
0001
0010
1000
0000
,  // measure 52
1000
0100
0001
0000
,  // measure 53
1000
0010
0001
0000
,  // measure 54
1000
1000
0100
0100
,  // measure 55
0010
0010
0001
0001
,  // measure 56
0100
0010
0100
0010
,  // measure 57
0110
0000
0000
0000
,  // measure 58
0001
0001
0100
0010
,  // measure 59
1000
1000
0100
0010
,  // measure 60
0001
0100
1000
0100
,  // measure 61
0001
0010
1000
0010
,  // measure 62
0002
0000
0103
0010
,  // measure 63
2000
0000
3100
0010
,  // measure 64
0001
0000
1000
0001
,  // measure 65
1001
0000
0100
0010
,  // measure 66
0110
0000
0000
0000
;

//---------------dance-single - NewbStepper-bSP----------------
#NOTEDATA:;
#CHARTNAME:NewbStepper-bSP;
#STEPSTYPE:dance-single;
#DESCRIPTION:NewbStepper-bSP;
#DIFFICULTY:Beginner;
#METER:2;
#RADARVALUES:0.115739,0.240321,0.027309,0.018206,0,89,86,3,2,0,0,0,0,0,0.115739,0.240321,0.027309,0.018206,0,89,86,3,2,0,0,0,0,0;
#CREDIT:NewbStepper;
#NOTES:
// measure 0
0000
0000
0000
0000
,  // measure 1
0000
0000
0000
0000
,  // measure 2
0000
0000
0000
0000
,  // measure 3
0000
0000
0000
0000
,  // measure 4
1000
0000
0000
0000
,  // measure 5
1000
0000
0000
0000
,  // measure 6
0001
0000
0000
0000
,  // measure 7
0001
0000
0000
0000
,  // measure 8
1001
0000
0000
0000
,  // measure 9
0000
0000
0000
0000
,  // measure 10
1001
0000
0000
0000
,  // measure 11
0000
0000
0000
0000
,  // measure 12
0001
0000
0000
0000
,  // measure 13
0001
0000
0000
0000
,  // measure 14
1000
0000
0000
0000
,  // measure 15
1000
0000
0000
0000
,  // measure 16
0001
0000
0000
0000
,  // measure 17
0000
0000
0000
0000
,  // measure 18
1000
0000
1000
0000
,  // measure 19
1000
0000
1000
0000
,  // measure 20
0001
0000
0001
0000
,  // measure 21
0001
0000
0000
0000
,  // measure 22
1000
1000
0000
0000
,  // measure 23
0001
0001
0000
0000
,  // measure 24
0100
0100
0100
0100
,  // measure 25
0100
0000
0000
0000
,  // measure 26
0001
0000
0001
0000
,  // measure 27
1000
0000
0000
0000
,  // measure 28
1000
0000
1000
0000
,  // measure 29
0001
0000
0000
0000
,  // measure 30
0010
0000
0010
0000
,  // measure 31
0010
0000
0010
0000
,  // measure 32
0100
0000
0100
0000
,  // measure 33
0100
0000
0000
0000
,  // measure 34
1000
0000
1000
0000
,  // measure 35
0001
0000
0000
0000
,  // measure 36
0001
0000
0001
0000
,  // measure 37
1000
0000
0000
0000
,  // measure 38
0010
0000
0010
0000
,  // measure 39
0010
0000
0010
0000
,  // measure 40
0100
0000
0100
0000
,  // measure 41
0100
0000
0000
0000
,  // measure 42
0002
0000
0000
0000
,  // measure 43
0000
0000
0000
0000
,  // measure 44
0000
0000
0000
0000
,  // measure 45
0000
0000
0003
0000
,  // measure 46
2000
0000
0000
0000
,  // measure 47
0000
0000
0000
0000
,  // measure 48
0000
0000
0000
0000
,  // measure 49
0000
0000
3000
0000
,  // measure 50
0001
0000
0000
0000
,  // measure 51
0100
0000
0000
0000
,  // measure 52
0010
0000
0000
0000
,  // measure 53
1000
0000
0000
0000
,  // measure 54
0001
0000
1000
0000
,  // measure 55
0001
0000
1000
0000
,  // measure 56
0010
0000
0100
0000
,  // measure 57
0010
0000
0000
0000
,  // measure 58
1000
1000
0000
0000
,  // measure 59
0001
0001
0000
0000
,  // measure 60
0100
0100
0000
0000
,  // measure 61
0010
0010
0000
0000
,  // measure 62
1000
1000
1000
0000
,  // measure 63
0001
0001
0001
0000
,  // measure 64
0100
0100
0100
0100
,  // measure 65
0010
0000
0000
0000
,  // measure 66
1001
0000
0000
0000
;

//---------------dance-double - NewbStepper-DDP----------------
#NOTEDATA:;
#CHARTNAME:NewbStepper-DDP;
#STEPSTYPE:dance-double;
#DESCRIPTION:NewbStepper-DDP;
#DIFFICULTY:Medium;
#METER:11;
#RADARVALUES:0.435647,0.540723,0.163855,0.063722,0.241231,335,317,18,7,0,0,0,0,0,0.435647,0.540723,0.163855,0.063722,0.241231,335,317,18,7,0,0,0,0,0;
#CREDIT:NewbStepper;
#NOTES:
00000000
00000000
00000000
00000000
,
00000000
00000000
00000000
00000000
,
00000000
00000000
00000000
00000000
,
00000000
00000000
00000000
00000000
,
10000000
00000000
00010000
00000000
10000000
00000000
00100000
01000000
,
00000000
01000000
00000000
00100000
00000000
00010000
00000000
00010000
,
00001000
00000010
00000001
00000100
,
00000010
00010000
00001000
01000000
,
00001000
00100000
00010000
00000000
00000000
10000000
00000000
10000000
,
01000000
00000000
00000000
01010000
00000000
00000000
00011000
00000000
,
00010000
00000010
00001000
00000000
00000000
00000001
00000000
00000001
,
00000100
00000000
00000100
00001000
00000000
00001000
00010000
00000000
,
00100000
10000000
01000000
00000000
10000000
00000000
00100000
00000000
,
00010000
00001000
00010000
00001000
00000000
00000010
00000100
00000000
,
00000010
00000001
00000100
00000000
00000001
00000000
00000010
00000000
,
00001000
00000000
00000000
00001000
00000000
00000000
00010000
00000000
00000000
00010000
00000000
00000000
00001000
00000000
00010000
00000000
,
00011000
00000000
00000000
00000000
,
00000000
00000000
00000000
00000000
,
10010000
00000000
01000000
00100000
10000000
00000000
01000000
00100000
,
00010000
00000000
10000000
00100000
00010000
00000000
00001000
00000100
,
00000001
00000000
00000010
00000001
00000100
00000000
00000001
00000010
,
00001000
00000000
00010000
01000000
20000000
00000000
30100000
00000000
,
10010000
00000000
00000000
10000000
00000000
00000000
01000000
00000000
00100000
00000000
00000000
01000000
00000000
00000000
00010000
00000000
,
00001000
00000000
00000000
00000010
00000000
00000000
00000100
00000000
00010000
00000000
00000000
00001000
00000000
00000000
00000010
00000000
,
00000001
00000100
00001000
00010000
01000000
10000000
00010000
01000000
,
01100000
00000000
00000000
00000000
00000000
00000000
00000000
00000000
00010000
00000000
00000000
10000000
00000000
00000000
00010000
00000000
,
10010000
00000000
10000000
01000000
00010000
00000000
00010000
00001000
,
00000000
00001000
00000010
00000001
00000000
00000100
00000000
00000010
,
00001000
00000000
00000001
00000100
00001000
00000000
00001000
00000000
,
00010000
00000000
00001000
00100000
00000000
01000000
00000000
10000000
,
00100000
00000000
00010000
00001000
00010000
00000000
00100000
00010000
,
00001000
00000000
00000010
00001000
00010000
00000000
00001000
00000100
,
00000001
00000000
00000100
00001000
00010000
00000000
00001000
00000000
,
00100000
00010000
10000000
01000000
00010000
00000000
00011000
00000000
,
00000100
00000000
00000101
00000000
00000010
00001000
00000010
00000100
,
00000000
00000001
00000100
00001000
00000000
00010000
00000000
01000000
,
00100000
00000000
01100000
00000000
00010000
01000000
10000000
00000000
,
01000000
00010000
01000000
00100000
00000000
01100000
00000000
10010000
,
10000000
00100000
01000000
00010000
00100000
00001000
00010000
00000100
,
00001000
00000010
00000100
00000001
00000010
00001000
00010000
00100000
,
10000000
00000000
01000000
00000000
00100000
00000000
00010000
00000000
00100000
00000000
00000000
01100000
00000000
00000000
00010000
00000000
,
00001000
00000000
00000000
00000110
00000000
00000000
00000010
00000000
00000001
00000000
00000000
00000100
00000000
00000000
00000010
00000000
,
00002000
00000000
00000000
00000000
,
00000000
00000000
00000000
00000000
,
00003002
00000000
00000000
00000000
,
00000203
00000000
00001000
00001300
,
00010000
00001000
00100000
00010000
,
10000000
00000000
00000000
01000000
00000000
00000000
00010000
00000000
00010000
00001000
00000000
00001000
,
00010000
00000010
00001000
00000001
,
00000100
00000000
00000000
00001000
00000000
00000000
00010000
00001000
00010000
00001000
00000000
00000000
,
00100000
00000000
00100000
00010000
00000000
00010000
10000000
00000000
00000000
00010000
01000000
00010000
,
10000000
00000000
00000000
00100000
00000000
00000000
00010000
00000000
00000000
00001000
00000000
00000100
,
00000010
00000000
00000010
00001000
00000000
00001000
00000001
00000000
00000000
00000010
00000000
00000000
,
00001000
00010000
00011000
00000000
,
00100000
00000000
00000000
10000000
00000000
01000000
00000000
00000000
01000000
00010000
00000000
00001000
,
00000010
00000000
00000000
00000001
00000000
00000100
00000000
00000000
00000100
00001000
00000000
00001000
,
00010000
00000000
00010000
00001000
00000000
00001000
00100000
00000000
00010000
00000000
01000000
00000000
,
02200000
00000000
00000000
03300000
,
10000000
00000000
00000000
11000000
00000000
00000000
00010000
00000000
00000000
01000000
00010000
01000000
,
00100000
00000000
00000000
00010000
00000000
00000000
00001000
00000000
00000000
00000010
00000100
00000010
,
00000001
00000000
00000000
00000101
00000000
00000000
00001000
00000000
00000000
00000100
00001000
00000100
,
00000010
00000000
00000000
00000001
00000000
00000000
00000100
00000000
00001000
00000000
00010000
00000000
,
00100000
00000000
00000000
10000000
00000000
01000000
00000000
00000000
01000000
00100000
00010000
10000000
,
00010000
00000000
00000000
00100000
00000000
00001000
00000000
00000000
00001000
00010000
00001000
00010000
,
00000100
00000000
00000000
00000010
00000000
00000001
00000000
00000000
00000001
00000100
00000000
00000100
,
00002000
00000000
00000000
00003000
00000000
00000000
00010000
00000100
00010000
00001000
00000000
00100000
,
00010000
00000000
00000000
00000000
;

//---------------dance-double - NewbStepper-BDP----------------
#NOTEDATA:;
#CHARTNAME:NewbStepper-BDP;
#STEPSTYPE:dance-double;
#DESCRIPTION:NewbStepper-BDP;
#DIFFICULTY:Easy;
#METER:6;
#RADARVALUES:0.265290,0.360482,0.172958,0.191165,0,204,185,19,21,0,0,0,0,0,0.265290,0.360482,0.172958,0.191165,0,204,185,19,21,0,0,0,0,0;
#CREDIT:NewbStepper;
#NOTES:
00000000
00000000
00000000
00000000
,
00000000
00000000
00000000
00000000
,
00000000
00000000
00000000
00000000
,
00000000
00000000
00000000
00000000
,
00100000
00000000
00100000
00000000
,
10000000
00010000
10000000
00010000
,
01000000
00000000
01000000
00000000
,
00001000
00010000
00001000
00000000
,
00022000
00000000
00000000
00033000
00000000
00010010
00000000
00000000
,
00000110
00000000
00000000
00000101
00000000
00000000
00001100
00000000
,
00022000
00000000
00000000
00033000
00000000
01000000
00000000
00000000
,
00200000
00000000
00300000
01000000
00000000
00000000
10010000
00000000
,
10000000
10000000
01000000
01000000
,
00010000
00010000
00001000
00001000
,
00000010
00000010
00000001
00000001
,
00002000
00000100
00000001
00003100
,
00002002
00000000
00000000
00000000
,
00000000
00003003
00000000
00000000
,
00001000
00000100
00000001
00000100
,
00001000
00000100
00010000
00001000
,
00100000
00100000
00010000
01000000
,
00100000
10000000
01000000
00010000
,
00001000
00011000
00010000
00001000
,
00000100
00000001
00000010
00000100
,
00002000
00003200
00020300
00032000
,
00103000
00000000
00000000
00000000
,
00010000
01000000
00100000
00100000
,
10000000
01000000
00010000
00001000
,
00000100
00000001
00000100
00000010
,
00000010
00001000
00000001
00001000
,
00000010
00010000
00001000
01000000
,
00010000
00010000
10000000
01000000
,
01000000
00010000
00001000
00000100
,
00000110
00000000
00001001
00001001
,
00001000
00000100
00000010
00000010
,
00000001
00000100
00001000
00010000
,
01000000
10000000
01000000
00100000
,
00100000
00010000
10000000
00010000
,
00100000
00001000
00010000
00000100
,
00001000
00000001
00000100
00001000
,
00010000
00000000
00011000
00000000
,
01010000
00000000
11000000
00000000
,
02200000
00000000
00000000
00000000
,
00000000
00000000
00000000
00000000
,
00000000
00000000
00000000
03300000
,
20000000
00000000
00000000
00000000
,
30020000
00000000
00000000
00000000
,
00000000
00000000
00000000
00000000
,
00230000
00000000
00000000
00000000
,
00302000
00000000
00000000
00000000
,
00013000
00001000
00000100
00000000
,
00000001
00000010
00001000
00000000
,
00010000
01000000
10000000
00000000
,
00100000
00010000
00001000
00000000
,
00010000
00010000
01000000
01000000
,
10000000
10000000
00100000
00100000
,
00010000
00001000
00010000
00001000
,
00011000
00000000
00000000
00000000
,
00000100
00000100
00000001
00001000
,
00000010
00000010
00000100
00001000
,
00010000
00010000
00001000
01000000
,
00010000
00010000
10000000
01000000
,
00020000
00000000
00031000
00000100
,
00000002
00000000
00000013
00001000
,
00020000
00030000
00100000
01000000
,
01100000
00000000
10000000
00010000
,
10010000
00000000
00000000
00000000
;
