#VERSION:0.83;
#TITLE:Crazy Crazy;
#ARTIST:中田ヤスタカ feat. Charli XCX & Kyary Pamyu Pamyu;
#ARTISTTRANSLIT:Yasutaka Nakata feat. Charli XCX & Kyary Pamyu Pamyu;
#BANNER:Crazy Crazy.png;
#BACKGROUND:Crazy Crazy-bg.png;
#JACKET:Crazy Crazy-jacket.png;
#MUSIC:Crazy Crazy.ogg;
#OFFSET:-0.004;
#SAMPLESTART:46.08;
#SAMPLELENGTH:15;
#BPMS:0=125;

//---------------dance-single - leeium-bSP----------------
#NOTEDATA:;
#CHARTNAME:leeium-bSP;
#STEPSTYPE:dance-single;
#DESCRIPTION:leeium-bSP;
#DIFFICULTY:Beginner;
#METER:3;
#RADARVALUES:0.134249,0.306799,0.082919,0,0,102,93,9,0,0,0,0,0,0,0.134249,0.306799,0.082919,0,0,102,93,9,0,0,0,0,0,0;
#CREDIT:leeium;
#NOTES:
// measure 0
0000
0000
0000
0000
,  // measure 1
0000
0000
0000
0000
,  // measure 2
0000
0000
0000
0000
,  // measure 3
0000
0000
0000
0000
,  // measure 4
1000
0000
0000
0000
,  // measure 5
1000
0000
0000
0001
,  // measure 6
0000
0000
0000
0000
,  // measure 7
1001
0000
0000
0000
,  // measure 8
0010
0000
0000
0000
,  // measure 9
0010
0000
0010
0000
,  // measure 10
0010
0000
0000
0000
,  // measure 11
0010
0010
0010
0000
,  // measure 12
0100
0000
0100
0000
,  // measure 13
0100
0000
0000
0100
,  // measure 14
0100
0000
0010
0000
,  // measure 15
0010
0010
0000
0000
,  // measure 16
1000
0000
1000
0000
,  // measure 17
1000
0000
0000
0000
,  // measure 18
0001
0000
0001
0000
,  // measure 19
0001
0000
0000
0000
,  // measure 20
0001
0001
0001
0001
,  // measure 21
0001
0001
0001
0001
,  // measure 22
0001
0000
1000
0000
,  // measure 23
1001
1001
1001
0000
,  // measure 24
0010
0000
0000
0000
,  // measure 25
0010
0000
0000
0000
,  // measure 26
0100
0000
0000
0000
,  // measure 27
0100
0000
0000
0000
,  // measure 28
0001
0000
0000
0000
,  // measure 29
0001
0000
0000
0000
,  // measure 30
1000
0000
1000
0000
,  // measure 31
1000
1000
1000
1000
,  // measure 32
0000
0000
0001
0001
,  // measure 33
0001
0000
0000
0000
,  // measure 34
0000
0000
0010
0010
,  // measure 35
0010
0000
0000
0000
,  // measure 36
0000
0000
0100
0100
,  // measure 37
0100
0000
0000
0000
,  // measure 38
1000
0000
1000
0000
,  // measure 39
1001
1001
1001
1001
,  // measure 40
1001
0000
0000
0000
,  // measure 41
0001
0000
0000
0000
,  // measure 42
0010
0000
0000
0000
,  // measure 43
0001
0000
0000
0000
,  // measure 44
0100
0000
0000
0000
,  // measure 45
0010
0000
0000
0000
,  // measure 46
1000
0000
1000
0000
,  // measure 47
1000
1000
1000
1000
,  // measure 48
1000
0000
0000
0000
,  // measure 49
0001
0001
0001
0000
,  // measure 50
0001
0000
0000
0000
,  // measure 51
0010
0010
0010
0000
,  // measure 52
0010
0000
0000
0000
,  // measure 53
0100
0100
0100
0000
,  // measure 54
0100
0000
0000
0000
,  // measure 55
1000
1000
0001
0000
;

//---------------dance-single - leeium-BSP----------------
#NOTEDATA:;
#CHARTNAME:leeium-BSP;
#STEPSTYPE:dance-single;
#DESCRIPTION:leeium-BSP;
#DIFFICULTY:Easy;
#METER:5;
#RADARVALUES:0.223749,0.333489,0.175051,0.036853,0.004607,170,151,19,4,0,0,0,0,0,0.223749,0.333489,0.175051,0.036853,0.004607,170,151,19,4,0,0,0,0,0;
#CREDIT:leeium;
#NOTES:
// measure 0
0000
0000
0000
0000
,  // measure 1
0000
0000
0000
0000
,  // measure 2
0000
0000
0000
0000
,  // measure 3
0000
0000
0000
0000
,  // measure 4
0000
0010
0100
0010
,  // measure 5
1000
1000
1000
1001
,  // measure 6
0000
0001
0010
0001
,  // measure 7
1001
0000
0100
0000
,  // measure 8
0110
0000
0010
0010
,  // measure 9
0010
1000
0010
0000
,  // measure 10
1001
0000
1000
1000
,  // measure 11
0001
1000
0001
0000
,  // measure 12
0001
0000
0100
0000
,  // measure 13
0010
1000
0010
0000
,  // measure 14
0100
0000
0001
0000
,  // measure 15
0010
0100
1000
0000
,  // measure 16
0001
0000
0010
0000
,  // measure 17
0001
1000
0100
0000
,  // measure 18
1000
0000
0001
0000
,  // measure 19
0100
0001
1000
0000
,  // measure 20
0010
0000
1000
0000
,  // measure 21
0001
0010
0100
0000
,  // measure 22
0010
0000
0100
0000
,  // measure 23
0110
0110
0110
1001
,  // measure 24
1000
0100
0001
0100
,  // measure 25
1000
0100
0010
0000
,  // measure 26
0001
0010
1000
0010
,  // measure 27
0001
0100
0010
0000
,  // measure 28
0100
0001
0100
1000
,  // measure 29
0100
0001
1000
0000
,  // measure 30
1001
0000
1001
0000
,  // measure 31
0110
0110
0110
1001
,  // measure 32
0000
0000
0010
1000
,  // measure 33
0020
0000
0030
0000
,  // measure 34
0000
0000
0100
0001
,  // measure 35
0200
0000
0300
0000
,  // measure 36
0000
0000
0001
1000
,  // measure 37
0002
0000
0003
0000
,  // measure 38
2000
0000
3000
0000
,  // measure 39
1001
1001
1001
0110
,  // measure 40
0010
1000
0010
0100
,  // measure 41
0001
0010
1000
0000
,  // measure 42
0100
0001
0100
1000
,  // measure 43
0010
0001
1000
0000
,  // measure 44
0100
0001
0010
0100
,  // measure 45
0001
0100
1000
0000
,  // measure 46
0010
1000
0001
0100
,  // measure 47
1000
0100
0001
0000
,  // measure 48
0010
0001
0100
0001
,  // measure 49
1000
0010
0100
0010
,  // measure 50
0000
0010
1000
0001
,  // measure 51
1000
0100
0010
0001
,  // measure 52
0000
0001
0010
0100
,  // measure 53
0001
0100
1000
0001
,  // measure 54
0000
0001
1000
0010
,  // measure 55
0110
0000
0000
0000
0000
0000
0000
0000
0000
0000
0000
0100
0000
0000
0000
0000
;

//---------------dance-single - leeium-DSP----------------
#NOTEDATA:;
#CHARTNAME:leeium-DSP;
#STEPSTYPE:dance-single;
#DESCRIPTION:leeium-DSP;
#DIFFICULTY:Medium;
#METER:8;
#RADARVALUES:0.334307,0.384795,0.175051,0.322462,0.009213,254,235,19,35,0,0,0,0,0,0.334307,0.384795,0.175051,0.322462,0.009213,254,235,19,35,0,0,0,0,0;
#CREDIT:leeium;
#NOTES:
// measure 0
0000
0000
0000
0000
,  // measure 1
0000
0000
0000
0000
,  // measure 2
0000
0000
0000
0000
,  // measure 3
0000
0000
0000
0000
,  // measure 4
0000
0000
0001
0010
0001
0000
0100
0000
,  // measure 5
0010
0000
1000
0000
0001
1000
0001
0000
,  // measure 6
0000
0000
1000
0100
1000
0000
0010
0000
,  // measure 7
0110
0000
0000
0000
0000
0000
0000
0000
0010
0000
0000
0010
0000
0000
0000
0000
,  // measure 8
0100
0000
0000
0100
0001
0000
0002
0000
,  // measure 9
0023
0230
2300
3000
,  // measure 10
1000
0000
1000
0010
2000
0000
3020
0000
,  // measure 11
0230
0302
0023
0030
,  // measure 12
0001
0000
0000
0001
0100
0000
0000
0100
,  // measure 13
0020
2030
3002
0103
,  // measure 14
1000
0000
0000
1000
0100
0000
0000
0100
,  // measure 15
0010
0000
0010
0001
1000
0000
1001
0000
,  // measure 16
0010
0000
0010
1000
0010
0000
1000
0000
,  // measure 17
0200
0302
0203
0300
,  // measure 18
1000
0000
1000
0001
1000
0000
0001
0000
,  // measure 19
0200
2300
3200
0300
,  // measure 20
0001
0000
0000
0001
0010
0000
0000
0010
,  // measure 21
0200
0320
0032
1003
,  // measure 22
0110
0000
0100
0001
1000
0000
0001
0000
,  // measure 23
0110
0110
0110
1001
,  // measure 24
0001
0000
0100
0000
0001
1000
0100
0000
,  // measure 25
1000
0100
1000
0100
0010
0000
0001
0000
,  // measure 26
1000
0000
0001
0000
0100
0001
1000
0000
,  // measure 27
0100
1000
0100
1000
0001
0000
1000
0000
,  // measure 28
0100
0000
0010
0000
0001
1000
0100
0000
,  // measure 29
1000
0001
1000
0001
0010
0000
0001
0000
,  // measure 30
1001
0000
0000
0000
0100
0001
1000
0000
,  // measure 31
1000
0100
0001
0100
1000
0100
0001
0000
,  // measure 32
1001
0000
0200
2300
,  // measure 33
3002
0000
0000
0200
0000
0000
0303
0000
,  // measure 34
1001
0000
0002
0023
,  // measure 35
0230
0000
0000
2000
0000
0000
3300
0000
,  // measure 36
1010
0000
2000
3020
,  // measure 37
0230
0000
0000
0002
0000
0000
0303
0000
,  // measure 38
0022
0000
0000
0033
,  // measure 39
1001
1001
1001
0110
,  // measure 40
0010
0000
1000
0000
0001
1000
0100
0000
,  // measure 41
0100
0001
0100
1000
0100
0000
0010
0000
,  // measure 42
0001
0000
1000
0000
0010
1000
0001
0000
,  // measure 43
0001
0010
1000
0010
0001
0000
1000
0000
,  // measure 44
0010
0000
1000
0000
0001
0100
0010
0000
,  // measure 45
0010
1000
0010
0001
0010
0000
0100
0000
,  // measure 46
0001
0000
1000
0000
0100
0010
0001
0000
,  // measure 47
0001
0010
0100
0010
0001
1000
0010
0000
,  // measure 48
0110
0000
0010
0000
1000
0001
0010
0000
,  // measure 49
0100
1000
0001
1000
0100
1000
0001
0000
,  // measure 50
0000
0000
1001
0000
0001
1000
0010
0000
,  // measure 51
0100
0001
1000
0001
0100
0001
1000
0000
,  // measure 52
0000
0000
0110
0000
0010
1000
0001
0000
,  // measure 53
0010
0100
1000
0100
0010
0100
1000
0000
,  // measure 54
0000
0100
0001
0000
0001
0100
0010
0000
,  // measure 55
0100
0000
1000
0000
0001
0000
1000
0000
0010
0000
0000
0010
0000
0000
0000
0000
;

//---------------dance-single - leeium-ESP----------------
#NOTEDATA:;
#CHARTNAME:leeium-ESP;
#STEPSTYPE:dance-single;
#DESCRIPTION:leeium-ESP;
#DIFFICULTY:Hard;
#METER:10;
#RADARVALUES:0.397483,0.436101,0.294822,0.423807,0.092132,302,270,32,46,0,0,0,0,0,0.397483,0.436101,0.294822,0.423807,0.092132,302,270,32,46,0,0,0,0,0;
#CREDIT:leeium;
#NOTES:
// measure 0
0000
0000
0000
0000
,  // measure 1
0000
0000
0000
0000
,  // measure 2
0000
0000
0000
0000
,  // measure 3
0000
0000
0000
0000
,  // measure 4
0000
0000
1000
0000
0100
0000
0010
0000
0100
0000
0000
0100
0000
0000
0100
0000
,  // measure 5
1000
0000
0100
0000
1000
0000
0010
0000
0100
0000
0000
0100
0000
0000
0000
0000
,  // measure 6
0000
0000
0001
0000
0100
0000
0010
0000
0100
0000
0000
0100
0000
0000
0100
0000
,  // measure 7
0001
0000
0100
0000
0010
0000
1000
0000
0100
0000
0000
0100
0000
0000
0000
0000
,  // measure 8
1100
0000
0000
0100
1000
0000
2000
0000
,  // measure 9
3002
2003
3020
0030
,  // measure 10
0101
0000
0100
0001
2000
0000
3002
0000
,  // measure 11
0023
0032
0203
0310
,  // measure 12
1010
0000
0000
0001
0010
0000
0000
0010
,  // measure 13
0002
2003
3200
0310
,  // measure 14
0110
0000
0000
0100
2000
0000
3000
0001
,  // measure 15
0200
0000
0301
1000
0010
0010
0010
0000
,  // measure 16
0110
0000
0100
0001
2000
0000
3200
0000
,  // measure 17
2300
3002
0023
0031
,  // measure 18
0101
0000
0100
0001
2000
0000
3002
0000
,  // measure 19
0203
0320
2030
3010
,  // measure 20
0210
0000
0300
0001
0020
0000
0030
0001
,  // measure 21
2000
3200
0320
0031
,  // measure 22
1001
0000
0110
0000
,  // measure 23
0110
1001
0110
1001
,  // measure 24
0001
0000
0000
0000
1001
0000
0000
0000
1000
0100
0000
0000
0100
0000
1000
0000
,  // measure 25
0100
0010
0001
1000
0002
0000
0103
0000
,  // measure 26
0010
0000
0000
0000
0011
0000
0000
0000
0001
0010
0000
0000
0010
0000
0001
0000
,  // measure 27
1000
0001
0100
0010
1000
0000
1020
0000
,  // measure 28
1030
0000
0000
0000
1100
0000
0000
0000
0100
1000
0000
0000
0100
0000
0010
0000
,  // measure 29
0001
1000
0001
0100
0010
0000
0210
0000
,  // measure 30
0301
0000
0000
0000
0001
0000
1000
0000
0100
0000
0000
0100
0000
0000
0100
0000
,  // measure 31
1000
0100
0001
0100
1000
0100
0010
0000
,  // measure 32
0110
0000
0200
2300
,  // measure 33
3002
0000
0000
0203
0000
0000
0310
0000
,  // measure 34
1010
0000
0002
2003
,  // measure 35
3200
0000
0000
0320
0000
0000
0031
0000
,  // measure 36
0010
0001
0010
0001
2000
0000
3002
0000
,  // measure 37
0203
0000
0000
0320
0000
0000
1030
0000
,  // measure 38
2002
0000
0000
3003
,  // measure 39
0110
1001
0110
1001
,  // measure 40
0010
0000
0000
0000
1010
0000
0000
0000
1000
0100
0000
0000
0100
0000
0001
0000
,  // measure 41
0100
1000
0100
0010
0001
0000
0011
0000
,  // measure 42
0001
0000
0000
0000
1001
0000
0000
0000
1000
0001
0000
0000
0001
0000
0100
0000
,  // measure 43
1000
0100
0001
0100
0010
1000
1010
0000
,  // measure 44
1000
0000
0000
0000
1100
0000
0000
0000
0100
1000
0000
0000
0100
0000
1000
0000
,  // measure 45
0100
0001
0100
0010
0100
0000
0110
0000
,  // measure 46
0010
0000
0000
0000
0011
0000
0001
0000
0100
0000
0000
0100
0000
0000
0100
0000
,  // measure 47
0010
1000
0010
0001
0010
0100
0001
0000
,  // measure 48
0000
0000
0001
0000
0100
0000
0010
0000
0100
0000
0000
0100
0000
0000
0100
0000
,  // measure 49
0001
0000
0100
0000
0010
0000
1000
0000
0001
0000
0000
0001
0000
0000
1000
0000
,  // measure 50
0010
0000
1000
0000
0001
0000
1000
0000
0100
0000
0000
0100
0000
0000
0100
0000
,  // measure 51
0010
0000
0001
0000
1000
0000
0001
0000
0100
0000
0000
0100
0000
0000
0001
0000
,  // measure 52
0100
0000
0001
0000
0010
0000
0100
0000
0010
0000
0000
0010
0000
0000
0010
0000
,  // measure 53
0001
0000
1000
0000
0001
0000
0100
0000
0010
0000
0000
0010
0000
0000
1000
0000
,  // measure 54
0001
0000
1000
0000
0100
0000
0010
0000
0100
0000
0000
0100
0000
0000
0100
0000
,  // measure 55
1000
0000
0100
0000
0010
0000
0001
0000
1000
0000
1000
0001
0000
0000
0000
0000
;

//---------------dance-single - Talkion-CSP----------------
#NOTEDATA:;
#CHARTNAME:Talkion-CSP;
#STEPSTYPE:dance-single;
#DESCRIPTION:Talkion-CSP;
#DIFFICULTY:Challenge;
#METER:13;
#RADARVALUES:0.597541,0.590019,0.479086,0.193477,0.465266,454,402,52,21,0,0,0,0,0,0.597541,0.590019,0.479086,0.193477,0.465266,454,402,52,21,0,0,0,0,0;
#CREDIT:Talkion;
#NOTES:
0000
0000
0000
0000
,
0000
0000
0000
0000
,
0000
0000
0000
0000
,
0000
0000
0000
0000
,
0001
0000
0100
0000
0010
0000
0100
0001
0000
1000
0000
1000
0100
0000
0000
0100
,
0010
0000
0001
0000
1000
0000
0010
0100
0000
0001
0000
0001
0100
0000
0000
0100
,
0010
0000
1000
0000
0001
0000
1000
0001
1000
0000
0000
0110
0000
0000
1001
0000
,
1001
0000
0000
0000
0000
0000
0000
0000
0110
0000
0100
0010
0000
0000
0000
0000
,
2001
0000
0000
0000
0100
0000
0000
0000
3100
0000
1000
0100
0010
0000
0001
0000
,
1002
0000
0000
0000
0000
0000
0103
0000
0000
0001
1000
0001
1000
0000
0000
0100
0000
0000
0010
0000
0000
0001
0000
0000
,
2001
0000
3010
0001
0010
1000
0100
0010
,
0001
0000
1000
0001
1000
0000
0020
0000
0200
0000
0330
0000
0110
0000
0000
0000
,
0001
0000
0000
0010
0000
0000
0100
0000
0000
1000
0000
0000
0001
0000
0000
0100
0000
0000
0010
0000
0000
0100
0010
0100
,
0010
0101
0010
1001
,
1000
0000
0100
0000
0010
0000
0001
0000
1000
0000
0001
1000
0001
0000
0100
0000
,
0020
1000
1030
0000
0100
0110
0110
0000
,
1001
0000
0000
0001
1000
0000
0100
0000
1000
0000
0010
0100
0010
0000
0100
0000
,
0001
0010
0100
1000
0002
0100
0103
0000
,
1001
0000
0000
1000
0001
0000
0010
0000
0001
0000
0100
0010
0100
0000
0001
0000
,
0010
0100
1000
0001
1001
1000
1001
0000
,
0201
0000
0000
0000
0010
0000
0010
0000
0310
0000
0000
0010
1000
0000
0001
0000
,
0001
0010
0100
2000
0002
3003
1001
0000
,
1020
0000
0000
0000
0130
0000
1000
0000
0100
0000
0001
1000
0001
0000
1000
0000
,
0100
0000
0011
0000
0100
0010
1001
0000
,
0101
0000
0000
0100
0010
0000
1000
0000
0100
0010
0000
0010
0001
0000
0010
0000
,
0100
1000
0000
0100
1000
0100
1000
0000
0001
0000
0100
0000
1001
0000
0000
0000
,
1010
0000
0000
0010
0100
0000
0001
0000
0010
0100
0000
0100
1000
0000
0100
0000
,
0010
0001
0000
0010
0001
0010
0001
0000
1000
0000
0010
0000
1001
0000
0000
0000
,
0110
0000
0000
0001
1000
0000
0100
0000
0010
0001
0000
0001
0100
0000
1000
0000
,
0100
0010
0000
0100
0001
0100
0001
0000
1000
0000
0100
0000
1001
0000
0000
0000
,
1200
0000
0000
0000
0301
0000
0100
0000
0010
0001
0000
2000
0000
0000
3001
0000
,
0100
0010
0110
0100
1001
0001
1001
0000
,
1100
0000
0021
0000
0000
0100
0001
0031
,
0000
0000
0000
0000
1000
0000
0001
1000
0001
0000
0000
0001
0100
0000
0010
0000
,
0210
0000
0000
0000
0000
1000
0001
0301
,
0000
0001
1000
0001
0010
0000
0110
0000
,
2001
0000
0010
0001
3002
0000
0100
1000
,
1003
0000
0000
1000
0010
0000
0100
0000
0010
0000
0000
0000
0110
0000
0000
0000
,
2002
0000
3003
1000
0001
1000
1000
0000
,
0011
0000
1010
0000
0110
0010
1001
0000
,
0011
0000
0000
0010
0100
0000
1000
0000
0001
0100
0000
0100
1000
0000
0100
0000
,
0010
1000
0000
0010
1000
0010
1000
0000
0100
0000
0010
0000
1001
0000
0000
0000
,
1100
0000
0000
0100
0010
0000
0001
0000
1000
0010
0000
0010
0001
0000
0010
0000
,
0100
0001
0000
0100
0001
0100
0001
0000
0010
0000
0100
0000
1001
0000
0000
0000
,
0110
0000
0000
0001
1000
0000
0100
0000
0010
1000
0000
1000
0010
0000
0001
0000
,
1000
0010
0000
0100
0001
0100
0001
0000
0100
0000
0010
0000
1001
0000
0000
0000
,
0021
0000
0000
0000
1030
0000
0010
0000
0100
1000
0000
0002
0000
0000
1003
0000
,
0010
0100
0110
0010
1001
1000
1001
0000
,
0001
0000
0010
0000
0001
0000
0100
0010
0000
1000
0000
1000
0001
0000
0000
0001
,
0010
0000
0001
0000
1000
0000
0001
0100
0000
0010
0000
0010
0000
1000
0001
1000
,
0001
0000
0010
0000
0100
0000
1000
0001
0000
0100
0000
0100
0010
0000
0000
0010
,
0100
0000
0001
0000
1000
0000
0100
0010
0000
0001
0000
0001
0000
1000
0010
1000
,
0010
0000
0100
0000
0010
0000
1000
0001
0000
0010
0000
0010
0100
0000
0000
0100
,
0010
0000
0001
0000
0010
0000
1000
0010
0000
0001
0000
0001
0000
1000
0001
1000
,
0001
0000
0100
0000
0010
0000
0100
0010
0100
0010
0000
1000
0000
0100
0010
0001
,
1000
0000
0001
0000
1000
0000
0010
0000
0100
0001
0100
0010
0000
0000
0000
0000
;

//---------------dance-double - NewbStepper-BDP----------------
#NOTEDATA:;
#CHARTNAME:NewbStepper-BDP;
#STEPSTYPE:dance-double;
#DESCRIPTION:NewbStepper-BDP;
#DIFFICULTY:Easy;
#METER:5;
#RADARVALUES:0.205323,0.256530,0.046066,0.036853,0.004607,156,151,5,4,0,0,0,0,0,0.205323,0.256530,0.046066,0.036853,0.004607,156,151,5,4,0,0,0,0,0;
#CREDIT:NewbStepper;
#NOTES:
00000000
00000000
00000000
00000000
,
00000000
00000000
00000000
00000000
,
00000000
00000000
00000000
00000000
,
00000000
00000000
00000000
00000000
,
00000000
10000000
00100000
01000000
,
00001000
00010000
00000100
00001000
,
00000000
00000001
00000010
00000100
,
00010000
00001000
01000000
00010000
,
10000000
00000000
01000000
00000000
,
00010000
00001000
00000100
00000000
,
00000001
00000000
00000010
00000000
,
00001000
00010000
00100000
00000000
,
10000000
00000000
00010000
00000000
,
01000000
01000000
01000000
00000000
,
00001000
00000000
00010000
00000000
,
00000010
00000010
00000010
00000000
,
00001000
00000001
00000100
00000000
,
00001000
00010000
00001000
00000000
,
00100000
00010000
10000000
00000000
,
00100000
10000000
01000000
00000000
,
00010000
00000000
00001000
00000000
,
00000010
00000001
00001000
00000000
,
00000001
00000000
00001000
00000000
,
00000100
00010000
00001000
00000000
,
00100000
01000000
00100000
00010000
,
10000000
01000000
00010000
00000000
,
00000010
00000100
00000010
00001000
,
00000001
00000100
00001000
00000000
,
00010000
01000000
00010000
00001000
,
00000100
00001000
00010000
00000000
,
01100000
00000000
10010000
00000000
,
10000000
01000000
00010000
00001000
,
00000010
00000000
00000001
00001000
,
00000200
00000000
00000300
00000000
,
00000000
00000000
10000000
00010000
,
02000000
00000000
03000000
00000000
,
00000000
00000000
00000001
00001000
,
00000020
00000000
00000030
00000000
,
00020000
00000000
00000000
00030000
,
00001000
00010000
00001000
00011000
,
00000010
00000100
00000010
00001000
,
00000001
00000100
00001000
00000000
,
00100000
01000000
00100000
00010000
,
10000000
01000000
00010000
00000000
,
00001000
00000100
00001000
00010000
,
01000000
00010000
00001000
00000000
,
00000110
00000000
00001001
00000000
,
00000001
00000100
00000010
00001000
,
00000001
00000010
00000100
00010000
,
00001000
01000000
00010000
00000000
,
10000000
00100000
01000000
00001000
,
00010000
00000100
00001000
00000000
,
00000001
00000100
00000010
00010000
,
00001000
00100000
00010000
00000000
,
10000000
00000000
10000000
00010000
,
00100000
00000000
00000000
00000000
00000000
00000000
00000000
00000000
00000000
00000000
00000000
00010000
00000000
00000000
00000000
00000000
;

//---------------dance-double - NewbStepper-DDP----------------
#NOTEDATA:;
#CHARTNAME:NewbStepper-DDP;
#STEPSTYPE:dance-double;
#DESCRIPTION:NewbStepper-DDP;
#DIFFICULTY:Medium;
#METER:8;
#RADARVALUES:0.304035,0.359142,0.092132,0.340888,0.009213,231,221,10,37,0,0,0,0,0,0.304035,0.359142,0.092132,0.340888,0.009213,231,221,10,37,0,0,0,0,0;
#CREDIT:NewbStepper;
#NOTES:
00000000
00000000
00000000
00000000
,
00000000
00000000
00000000
00000000
,
00000000
00000000
00000000
00000000
,
00000000
00000000
00000000
00000000
,
00000000
00000000
10000000
00100000
10000000
00000000
01000000
00000000
,
00010000
00000000
00001000
00000000
00000100
00000010
00000100
00000000
,
00000000
00000000
00000001
00000010
00000001
00000000
00000100
00000000
,
00000110
00000000
00000000
00000000
00000000
00000000
00000000
00000000
00010000
00000000
00000000
00010000
00000000
00000000
00000000
00000000
,
00000100
00000000
00000000
00000100
00001000
00000000
00001000
00000000
,
00020000
00230000
02300000
23000000
,
30010000
00000000
00010000
00100000
00020000
00000000
00032000
00000000
,
00003020
00000230
00000302
00001003
,
00000001
00000000
00000000
00001000
00000010
00000000
00000000
00010000
,
00002000
00023000
02030000
23000000
,
30010000
00000000
00000000
00100000
00001000
00000000
00000000
00010000
,
00000020
00000000
00002030
00000000
00003001
00000100
00000100
00000000
,
00000010
00000000
00010000
00000100
00001000
00000000
00001000
00000000
,
00020000
00230000
02300000
03000000
,
00100000
00000000
00001000
01000000
00010000
00000000
00010000
00000000
,
00002000
00003020
00000230
00000300
,
00000001
00000000
00000000
00001000
00000010
00000000
00000000
00010000
,
00002000
00023000
02030000
13000000
,
10010000
00000000
01100000
00000000
,
10000000
00010000
00001000
00001001
,
00000001
00000000
00000100
00000000
00000001
00001000
00000100
00000000
,
00010000
00001000
00010000
00001000
00100000
00000000
00010000
00000000
,
10000000
00000000
01000000
00000000
10000000
00010000
01000000
00000000
,
00001000
00010000
00001000
00010000
00000010
00000000
00001000
00000000
,
00000001
00000000
00000100
00000000
00001000
00010000
00001000
00000000
,
01000000
00100000
01000000
00100000
10000000
00000000
00010000
00000000
,
10010000
00000000
01000000
00100000
,
00010000
00001000
00010000
00000010
00010000
00001000
00000010
00000000
,
00000001
00000000
00000200
00002300
,
00023000
00000000
00000000
02000000
00000000
00000000
03030000
00000000
,
10000000
00000000
02000000
03020000
,
00032000
00000000
00000000
00000200
00000000
00000000
00003300
00000000
,
00000001
00000000
00000020
00002030
,
00023000
00000000
00000000
00200000
00000000
00000000
00330000
00000000
,
20000000
00000000
00000000
30000000
,
10010000
10010000
10010000
01100000
,
10000000
00000000
01000000
00000000
10000000
00010000
01000000
00000000
,
00001000
00010000
00001000
00010000
00000010
00000000
00001000
00000000
,
00000001
00000000
00000100
00000000
00000001
00001000
00000100
00000000
,
00010000
00001000
00010000
00001000
00100000
00000000
00010000
00000000
,
10000000
00000000
01000000
00000000
00010000
00001000
00010000
00000000
,
00000100
00000010
00000100
00000010
00000001
00000000
00001000
00000000
,
00001001
00000000
00000100
00000010
,
00001000
00010000
00001000
00100000
00001000
00010000
00100000
00000000
,
00000000
00000000
10000000
00100000
10000000
00000000
01000000
00000000
,
00010000
00000000
00001000
00000000
00000100
00000010
00000100
00000000
,
00000000
00000000
00000001
00000010
00000001
00000000
00000100
00000000
,
00001000
00000000
00010000
00000000
01000000
00100000
01000000
00000000
,
00000000
00000000
10000000
01000000
10000000
00000000
00100000
00000000
,
00010000
00000000
00001000
00000000
00000010
00000100
00000010
00000000
,
00000000
00000000
00000001
00000100
00000001
00000000
00000010
00000000
,
00001000
00000000
00000000
00000000
00010000
00000000
00000000
00000000
00100000
00000000
00000000
00100000
00000000
00000000
00000000
00000000
;

//---------------dance-double - NewbStepper-EDP----------------
#NOTEDATA:;
#CHARTNAME:NewbStepper-EDP;
#STEPSTYPE:dance-double;
#DESCRIPTION:NewbStepper-EDP;
#DIFFICULTY:Hard;
#METER:11;
#RADARVALUES:0.427755,0.436101,0.304035,0.165837,0.082919,325,292,33,18,0,0,0,0,0,0.427755,0.436101,0.304035,0.165837,0.082919,325,292,33,18,0,0,0,0,0;
#CREDIT:NewbStepper;
#NOTES:
00000000
00000000
00000000
00000000
,
00000000
00000000
00000000
00000000
,
00000000
00000000
00000000
00000000
,
00000000
00000000
00000000
00000000
,
00000000
00000000
10000000
00000000
01000000
00000000
00010000
00000000
00001000
00000000
00000000
00000010
00000000
00000000
00001000
00000000
,
00010000
00000000
00001000
00000000
00000100
00000000
00000001
00000000
00000010
00000000
00000001
00001000
00000000
00000000
00000000
00000000
,
00000000
00000000
00000001
00000000
00000100
00000000
00001000
00000000
00010000
00000000
00000000
00100000
00000000
00000000
00010000
00000000
,
00001000
00000000
00010000
00000000
01000000
00000000
10000000
00000000
00100000
00000000
10000000
00010000
00000000
00000000
00000000
00000000
,
10010000
00000000
00000000
00100000
01000000
00000000
01000000
00000000
,
00010000
00000000
00001000
00000000
00000010
00000001
00001000
00000010
,
00000100
00000000
00000001
00000100
00001000
00000000
00010000
00000000
,
00100000
00010000
00001000
00100000
00010000
00000000
10010000
00000000
,
20000000
00000000
30000000
00010000
01000000
00000000
01001000
00000000
,
00010000
00001000
00000100
00000001
00000020
00000000
00000230
00000000
,
00002300
00000000
00003000
00000001
00000100
00000000
00000000
00001000
,
00010000
00000000
01000000
10000000
00010000
01000000
01000000
00000000
,
00100000
00000000
00010000
10000000
01000000
00000000
00010000
00010000
,
00001000
00000100
00000010
00000001
00001000
00001000
00000010
00000000
,
00000001
00000100
00001000
00010000
01000000
10000000
00010000
00000000
,
00100000
01000000
00010000
00001000
00000100
00000100
00001000
00000000
,
00000002
00000000
00000003
00001000
00000100
00000000
00010100
00000000
,
00001000
00010000
01000000
10000000
00200000
00000000
02300000
00000000
,
03020000
00000000
00030000
10000000
01000000
00000000
00010000
00000000
,
00001000
00100000
00010000
00001000
00000100
00000010
00001001
00000000
,
00000011
00000000
00001100
00000000
00000001
00000100
00001000
00000000
,
00010000
00000100
00001000
00100000
01000000
00000000
10010000
00000000
,
10100000
00000000
01010000
00000000
10000000
01000000
00010000
00000000
,
00001000
01000000
00010000
00000010
00000100
00000000
00001001
00000000
,
00000001
00000100
00010000
00000100
00001000
00100000
00010000
00000010
,
00010000
01000000
10000000
01000000
00001000
00000000
00011000
00000000
,
01100000
00000000
00000000
00000000
00000000
00000000
00000000
00000000
10010000
00000000
00000000
10000000
00000000
00000000
01000000
00000000
,
00010000
00000100
00010000
00100000
00010000
00000010
00000110
00000000
,
00001001
00000000
00000002
00002003
,
00023000
00000000
00000000
00000000
00000000
00000000
10000000
00000000
10030000
00000000
00000000
00100000
00000000
00000000
01000000
00000000
,
01010000
00000000
20000000
30020000
,
00032000
00000000
00000000
00000000
00003001
00000000
00000110
00000001
,
00001000
00000000
00000002
00002003
,
00023000
00000000
00000000
00100000
00000000
00000000
00100000
00000000
00030000
00000000
00000000
00000000
10010000
00000000
00000000
00000000
,
00200000
00000000
00000000
00300000
,
01100000
00011000
00000110
00011000
,
10100000
00000000
01010000
00000000
10000000
01000000
00010000
00000000
,
00001000
01000000
00010000
00000010
00000100
00000000
00001001
00000000
,
00000011
00000000
00001100
00000000
00000001
00000100
00001000
00000000
,
00010000
00000100
00001000
00100000
01000000
00000000
10010000
00000000
,
10000000
01000000
00001000
01000000
00010000
00000010
00010000
00100000
,
00001000
00000100
00000001
00000100
00010000
00000000
00011000
00000000
,
00000110
00000000
00000000
00000000
00000000
00000000
00000000
00000000
00001001
00000000
00000000
00000001
00000000
00000000
00000100
00000000
,
00001000
01000000
00001000
00000010
00001000
00100000
01100000
00000000
,
00000000
00000000
10000000
00000000
01000000
00000000
00010000
00000000
00001000
00000000
00000000
00000010
00000000
00000000
00001000
00000000
,
00010000
00000000
00001000
00000000
00000100
00000000
00000001
00000000
00000010
00000000
00000001
00001000
00000000
00000000
00000000
00000000
,
00000000
00000000
00000001
00000000
00000100
00000000
00001000
00000000
00010000
00000000
00000000
00100000
00000000
00000000
00010000
00000000
,
00001000
00000000
00010000
00000000
01000000
00000000
10000000
00000000
00100000
00000000
10000000
00010000
00000000
00000000
00000000
00000000
,
10000000
00000000
01000000
00000000
00010000
00000000
01000000
00000000
00100000
00001000
00000000
00001000
00000000
00000000
00000010
00000000
,
00000100
00000000
00000001
00000000
00000010
00000000
00001000
00000000
00000010
00000000
00000001
00001000
00000000
00000000
00000000
00000000
,
00000001
00000000
00000100
00000000
00001000
00000000
00000100
00000000
00000010
00010000
00000000
00010000
00000000
00000000
00100000
00000000
,
01000000
00000000
10000000
00000000
00100000
00000000
00010000
00000000
00100000
00000000
10000000
00010000
00000000
00000000
00000000
00000000
;

//---------------dance-double - Talkion-CDP----------------
#NOTEDATA:;
#CHARTNAME:Talkion-CDP;
#STEPSTYPE:dance-double;
#DESCRIPTION:Talkion-CDP;
#DIFFICULTY:Challenge;
#METER:13;
#RADARVALUES:0.585696,0.590019,0.460660,0.221117,0.456053,445,395,50,24,0,0,0,0,0,0.585696,0.590019,0.460660,0.221117,0.456053,445,395,50,24,0,0,0,0,0;
#CREDIT:Talkion;
#NOTES:
00000000
00000000
00000000
00000000
,
00000000
00000000
00000000
00000000
,
00000000
00000000
00000000
00000000
,
00000000
00000000
00000000
00000000
,
00000001
00000000
00000100
00000000
00000010
00000000
00010000
00001000
00000000
00100000
00000000
00100000
00010000
00000000
00000000
00010000
,
01000000
00000000
10000000
00000000
01000000
00000000
00010000
00100000
00000000
00001000
00000000
00001000
00010000
00000000
00000000
00010000
,
00000100
00000000
00000010
00000000
00000001
00000000
00001000
00000010
00001000
00000000
00000000
00010100
00000000
00000000
00011000
00000000
,
00011000
00000000
00000000
00000000
00000000
00000000
00000000
00000000
01100000
00000000
01000000
00100000
00000000
00000000
00000000
00000000
,
10020000
00000000
00000000
00000000
00100000
00000000
00000000
00000000
00130000
00000000
00001000
00010000
00001000
00000000
00000100
00000000
,
00000002
00000000
00000000
00000000
00000013
00000000
00000001
00001000
00000001
00000000
00000100
00000000
00000110
00000000
00000000
00000000
,
00001000
00000100
00010000
01000000
10000000
00100000
00010000
00000010
,
00001000
00000000
00000001
00001000
00000001
00000000
00000200
00000000
00000020
00000000
00000330
00000000
00000110
00000000
00000000
00000000
,
00000100
00000000
00001000
00000000
00010000
00000000
00001000
00000000
00000010
00000000
00001000
00000000
00010000
00000000
00001000
00010000
,
00001000
00110000
01000000
10010000
,
10000000
00000000
01000000
00000000
00010000
00000000
00001000
00010000
00001000
00000000
00010000
00000000
00100000
00000000
10000000
00000000
,
02000000
00100000
03100000
00000000
00010000
00101000
00101000
00000000
,
00011000
00000000
00000000
00001000
00000100
00000000
00000010
00000000
00001000
00000000
00000100
00000010
00000100
00000000
00000010
00000000
,
00000001
00000100
00001000
00010000
00002000
00010000
00013000
00000000
,
00011000
00000000
00000000
00010000
01000000
00000000
00100000
00000000
00010000
00000000
01000000
00100000
01000000
00000000
00100000
00000000
,
10000000
01000000
00010000
00001000
00011000
00010000
00011000
00000000
,
00010200
00000000
00000000
00000000
00001000
00000000
00001000
00000000
00001300
00000000
00000010
00001000
00000010
00000000
00000001
00000000
,
00001000
00000100
00000001
00000010
00001000
00000000
00011000
00000000
,
00201000
00000000
00000000
00000000
00010000
00000000
00010000
00000000
00310000
00000000
01000000
00010000
01000000
00000000
10000000
00000000
,
00010000
00100000
10000000
01000000
00010000
00000000
00011000
00000000
,
00010100
00000000
00000000
00000100
00000010
00000000
00001000
00000000
00100000
00010000
00000000
20000000
00000000
00000000
30010000
00000000
,
00001000
00000100
00000000
00000010
00000100
00000010
00000100
00000000
00010000
00000000
00001000
00000000
00011000
00000000
00000000
00000000
,
00101000
00000000
00000000
00100000
01000000
00000000
00010000
00000000
00000100
00001000
00000000
00000002
00000000
00000000
00001003
00000000
,
00010000
00100000
00000000
01000000
00100000
01000000
00100000
00000000
00001000
00000000
00010000
00000000
00011000
00000000
00000000
00000000
,
00010100
00000000
00000000
00000100
00000010
00000000
00000001
00000000
00000100
00001000
00000000
02000000
00000000
00000000
03100000
00000000
,
00010000
00001000
00000000
00010000
00000100
00010000
00000100
00000000
00000010
00000000
00000001
00000000
00001001
00000000
00000000
00000000
,
00002100
00000000
00000000
00000000
01003000
00000000
00010000
00000000
01000000
10000000
00000000
00020000
00000000
00000000
00031000
00000000
,
00010000
01000000
00001000
00010000
01010000
01000000
01100000
00000000
,
10010000
00000000
00210000
00000000
00000000
00010000
00001000
00301000
,
00000000
00000000
00000000
00000000
00000100
00000000
00000001
00001000
00000001
00000000
00000000
00001000
00000000
00000000
00010000
00000000
,
20010000
00000000
00000000
00000000
00000000
01000000
00010000
30010000
,
00000000
00010000
00001000
00000010
00000001
00000000
00000110
00000000
,
00021000
00000000
01030000
01000000
10020000
00000000
00130000
00100000
,
00011000
00000000
00000000
00001000
00000001
00000000
00000010
00000000
00001000
00000000
00000000
00000000
00011000
00000000
00000000
00000000
,
02200000
00000000
03300000
10000000
01000000
00100000
00100000
00000000
,
00011000
00000000
00000110
00000000
00001001
00000010
00000110
00000000
,
00000101
00000000
00000000
00000100
00000010
00000000
00000100
00000000
00010000
01000000
00000000
00200000
00000000
00000000
00310000
00000000
,
00001000
00010000
00000000
01000000
00100000
01000000
00100000
00000000
01000000
00000000
10000000
00000000
10010000
00000000
00000000
00000000
,
10100000
00000000
00000000
00100000
01000000
00000000
00100000
00000000
00001000
00000010
00000000
00000200
00000000
00000000
00001300
00000000
,
00010000
00001000
00000000
00000010
00000100
00000010
00000100
00000000
00000010
00000000
00000001
00000000
00001001
00000000
00000000
00000000
,
00001010
00000000
00000000
00000010
00000100
00000000
00001000
00000000
00010000
01000000
00000000
20000000
00000000
00000000
30010000
00000000
,
00001000
00000100
00000000
00000010
00000001
00000010
00000001
00000000
00001000
00000000
00000010
00000000
00000110
00000000
00000000
00000000
,
00002010
00000000
00000000
00000000
00103000
00000000
00010000
00000000
00100000
10000000
00000000
00020000
00000000
00000000
00031000
00000000
,
00010000
00100000
00001000
00010000
00110000
00100000
01100000
00000000
,
10000000
00000000
00100000
00000000
00010000
00000000
00001000
00010000
00000000
01000000
00000000
01000000
00100000
00000000
00000000
00100000
,
00001000
00000000
00000100
00000000
00000001
00000000
00000010
00001000
00000000
00010000
00000000
00010000
00000000
00001000
00000010
00001000
,
00000010
00000000
00000001
00000000
00000100
00000000
00001000
00010000
00000000
00001000
00000000
00001000
00000010
00000000
00000000
00000010
,
00001000
00000000
01000000
00000000
00100000
00000000
10000000
00010000
00000000
00100000
00000000
00100000
00000000
01000000
00010000
01000000
,
00010000
00000000
00001000
00000000
00010000
00000000
00100000
10000000
00000000
00100000
00000000
00100000
00010000
00000000
00000000
00010000
,
00000100
00000000
00000010
00000000
00000001
00000000
00001000
00000010
00000000
00000100
00000000
00000100
00000000
00001000
00010000
00001000
,
00010000
00000000
01000000
00000000
10000000
00000000
00010000
10000000
00010000
01000000
00000000
00100000
00000000
00010000
00001000
00010000
,
00001000
00000000
00000010
00000000
00000001
00000000
00000100
00000000
00001000
00010000
00001000
00010000
00000000
00000000
00000000
00000000
;
