#VERSION:0.83;
#TITLE:Crash;
#ARTIST:RAM;
#BANNER:Crash.png;
#BACKGROUND:Crash-bg.png;
#JACKET:Crash-jacket.png;
#MUSIC:Crash.ogg;
#OFFSET:-0.066;
#SAMPLESTART:60.989;
#SAMPLELENGTH:15;
#BPMS:0=130;

//---------------dance-single - NewbStepper-ESP----------------
#NOTEDATA:;
#CHARTNAME:NewbStepper-ESP;
#STEPSTYPE:dance-single;
#DESCRIPTION:NewbStepper-ESP;
#DIFFICULTY:Hard;
#METER:12;
#RADARVALUES:0.481391,0.559573,0.172176,0.295159,0.225469,411,390,21,36,0,0,0,0,0,0.481391,0.559573,0.172176,0.295159,0.225469,411,390,21,36,0,0,0,0,0;
#CREDIT:NewbStepper;
#NOTES:
// measure 0
0000
0000
0000
0000
,  // measure 1
0000
0000
0000
0000
,  // measure 2
0000
0000
0000
0000
,  // measure 3
0000
0000
0000
0000
,  // measure 4
0000
0000
0000
0000
,  // measure 5
0001
0000
0000
0010
0000
0000
0100
0000
0000
1000
0000
0001
0000
0000
0100
0000
,  // measure 6
0010
0000
0000
1000
0000
0000
0100
0000
0000
0010
0000
0001
0000
0000
0100
0000
,  // measure 7
0010
0000
0000
1000
0000
0000
0001
0000
0000
0100
0000
0001
0000
0000
0010
0000
,  // measure 8
0220
0000
0000
0330
,  // measure 9
1001
0000
0000
1000
0100
0000
0010
0000
0001
0000
0100
0000
1000
0000
0100
0000
,  // measure 10
0001
0010
0100
1000
0000
0001
0100
0000
,  // measure 11
1001
0000
0000
0010
0001
0000
0100
0000
0010
0000
1000
0000
0100
0000
0001
0000
,  // measure 12
0100
1000
0010
0100
0000
0001
0100
0000
,  // measure 13
0010
0000
0000
1010
0000
0000
1001
0000
0000
0000
1000
0000
0100
0000
0010
0000
,  // measure 14
0000
0001
0100
0010
0000
1000
0100
0000
,  // measure 15
0010
0000
0000
0011
0000
0000
1001
0000
0000
0000
0100
0000
0010
0000
1000
0000
,  // measure 16
0100
0000
0010
0001
0000
0000
0100
0000
0010
1000
0000
0000
0001
0000
0100
0010
,  // measure 17
0100
0001
0000
0010
0000
0100
1000
0100
,  // measure 18
0001
0100
0010
0001
0100
1000
0100
0000
,  // measure 19
0010
1000
0100
0001
0000
0001
0100
1000
,  // measure 20
0000
0001
0000
0100
0000
0010
1000
0000
,  // measure 21
0001
0000
0000
0001
0100
0000
0010
0000
1000
0000
0000
1000
0100
0000
0010
0000
,  // measure 22
0001
0000
0000
0001
1000
0000
0010
0000
0100
0000
0001
0000
1001
0000
0000
0000
,  // measure 23
0010
0001
0100
1000
0000
1000
0100
0001
,  // measure 24
0010
0000
0001
0100
0001
0000
1000
0100
1000
0100
0000
0010
0001
0010
0001
1000
,  // measure 25
0020
0000
0000
1000
0000
0000
0100
0000
0000
0001
0000
0000
0130
0000
0010
0000
,  // measure 26
1000
0000
0200
0000
0000
0000
0010
0000
0000
0000
1300
0001
1000
0000
0000
0000
,  // measure 27
0020
0000
0130
0001
0020
0000
0130
2000
,  // measure 28
0000
0000
3020
0000
0000
0000
0230
0000
0000
0000
0301
1000
0001
0000
0000
0000
,  // measure 29
1000
0000
0000
1000
0000
0000
1000
0000
0010
0000
0000
0010
0000
0000
0010
0000
,  // measure 30
0100
0000
0000
0100
0000
0000
0100
0000
0001
0000
0000
0001
0000
0000
0001
0000
,  // measure 31
1000
0000
0000
0010
0000
0000
0100
0000
0001
0000
0000
0010
0000
0000
0100
0000
,  // measure 32
2002
0000
0000
0000
3003
0100
0100
0100
,  // measure 33
0010
0000
0000
1000
0100
0000
0020
0000
0000
0000
0031
0000
0100
0000
1000
0000
,  // measure 34
0100
0010
0100
0001
0000
0010
0100
0000
,  // measure 35
0010
0000
0000
0001
0100
0000
0020
0000
0000
0000
1030
0000
0100
0000
0001
0000
,  // measure 36
0100
0010
0100
1000
0000
0010
0100
0000
,  // measure 37
0101
0000
0000
0110
0000
0000
1010
0000
0000
0000
1000
0000
0100
0000
0001
0000
,  // measure 38
0000
0100
1000
0010
0100
0001
0010
0100
,  // measure 39
1100
0000
0000
0110
0000
0000
0011
0000
0000
0000
0001
0000
0100
0000
1000
0000
,  // measure 40
0000
0100
0001
0010
0100
1000
0010
0100
,  // measure 41
1001
0000
0000
0001
0100
0000
0010
0000
1000
0000
0100
0000
0001
0000
0100
0000
,  // measure 42
1000
0001
0010
0100
1000
0001
0100
0000
,  // measure 43
1001
0000
0000
0010
1000
0000
0100
0000
0010
0000
0001
0000
0100
0000
1000
0000
,  // measure 44
0100
0001
0010
0100
0000
1000
0100
0000
,  // measure 45
0010
0000
0000
0011
0000
0000
1001
0000
0000
0000
0001
0000
0100
0000
0010
0000
,  // measure 46
0000
1000
0100
0010
0000
0001
0100
0000
,  // measure 47
0010
0000
0000
1010
0000
0000
1001
0000
0000
0000
0100
0000
0010
0000
0001
0000
,  // measure 48
0100
0000
0010
1000
0000
0000
0100
0000
0010
0001
0000
0000
1000
0000
0100
0010
,  // measure 49
0100
1000
0001
0100
0010
1000
0100
0010
,  // measure 50
0001
0200
0000
0320
0000
1030
0100
0010
,  // measure 51
0001
0200
0000
0300
0010
0000
1000
0000
,  // measure 52
0100
0000
0000
0010
0001
0000
0200
0000
0000
0000
0310
0000
1000
0000
0001
0000
,  // measure 53
0100
0001
1000
0100
0010
0001
0100
0010
,  // measure 54
1000
0200
0000
0320
0000
0031
0100
0010
,  // measure 55
1000
0200
0000
0300
0010
0000
0001
0000
,  // measure 56
0100
0000
0000
0010
1000
0000
0100
0000
0010
0000
0000
0001
0100
0001
0100
0001
,  // measure 57
2000
0000
3100
0002
0000
0203
0000
0320
,  // measure 58
0000
0032
0000
0203
0000
0310
0010
1000
,  // measure 59
0002
0000
0103
2000
0000
3100
0010
1000
,  // measure 60
0001
0010
0100
0002
0000
0203
0000
1300
,  // measure 61
0002
0000
0103
2000
0000
3200
0000
0320
,  // measure 62
0000
1030
0100
0020
0000
0031
0100
0002
,  // measure 63
0000
0013
0100
0001
0100
1000
0010
0100
,  // measure 64
0001
0000
1000
0010
1000
0000
0001
0000
0100
0010
0100
0010
1000
0000
0001
0100
,  // measure 65
0010
0000
0000
0000
;

//---------------dance-single - NewbStepper-DSP----------------
#NOTEDATA:;
#CHARTNAME:NewbStepper-DSP;
#STEPSTYPE:dance-single;
#DESCRIPTION:NewbStepper-DSP;
#DIFFICULTY:Medium;
#METER:9;
#RADARVALUES:0.360750,0.426341,0.098386,0.163977,0.053293,308,296,12,20,0,0,0,0,0,0.360750,0.426341,0.098386,0.163977,0.053293,308,296,12,20,0,0,0,0,0;
#CREDIT:NewbStepper;
#NOTES:
0000
0000
0000
0000
,
0000
0000
0000
0000
,
0000
0000
0000
0000
,
0000
0000
0000
0000
,
0000
0000
0000
0000
,
1000
0000
0000
1000
0000
0000
1000
0000
0000
1000
0000
0000
1000
0000
0000
0000
,
0001
0000
0000
0001
0000
0000
0001
0000
0000
0001
0000
0000
0001
0000
0000
0000
,
0010
0000
0000
0010
0000
0000
0010
0000
0000
0010
0000
0000
0010
0000
0000
0000
,
0220
0000
0000
0330
,
1000
0000
0100
0010
0000
0001
0000
0100
,
0000
0010
1000
0010
0100
0000
1001
0000
,
0001
0000
0100
0010
0000
1000
0000
0100
,
0000
0010
0001
0010
0100
0000
1001
0000
,
0010
1000
0000
0100
0000
0010
0001
0010
,
0000
0100
0000
1000
0000
0000
1001
0000
,
0010
0001
0000
0100
0000
0010
1000
0010
,
0000
0100
0001
1000
0100
0010
0001
0000
,
1000
0000
0001
0000
0100
0010
1000
0000
,
0001
0100
1000
0000
0100
0001
0010
0000
,
0001
0000
1000
0000
0100
0010
0001
0000
,
1000
0100
0001
0000
0100
1000
0010
0000
,
0100
0000
0002
0000
0003
1000
0100
1000
,
0001
0100
0000
0010
0000
1000
0100
0000
,
0000
0010
0001
0010
0000
0001
0100
0010
,
0000
1000
0000
0100
0000
0010
0001
0000
,
1000
0000
0000
0001
0000
0000
0200
0000
0000
0000
0000
0000
0300
0000
0000
0000
,
0010
1000
0000
0200
0000
0010
0310
0000
,
0001
0000
0100
0000
1000
0000
0010
0001
,
0000
0100
0000
0010
0000
1000
1000
0000
,
0200
0000
0300
0010
0002
0000
0003
0100
,
2000
0000
3000
0100
0020
0000
0030
0100
,
0002
0000
0003
0010
0200
0000
0300
1000
,
0020
0000
0000
0030
,
1000
0000
0100
0010
0000
0001
0000
0100
,
0000
0010
1000
0010
0100
0000
1001
0000
,
0001
0000
0100
0010
0000
1000
0000
0100
,
0000
0010
0001
0010
0100
0000
1001
0000
,
0010
1000
0000
0100
0000
0010
0001
0010
,
0000
0100
0000
1000
0000
0000
1001
0000
,
0010
0001
0000
0100
0000
0010
1000
0010
,
0000
0100
0001
1000
0100
0010
0001
0000
,
0100
0010
1000
0001
0000
0100
0010
1000
,
0000
0100
0010
0001
0000
0000
1001
0000
,
0100
0010
0001
1000
0000
0100
0010
0001
,
0000
0100
0010
1000
0000
0000
1001
0000
,
0010
0000
0000
0100
0000
0000
0001
0000
0000
0000
1000
0000
0010
0000
0001
0000
,
0000
1000
0100
0001
0000
1000
0100
0000
,
0010
0000
0000
0100
0000
0000
1000
0000
0000
0000
0001
0000
0010
0000
1000
0000
,
0000
0001
0100
1000
0000
0010
0100
0001
,
1000
0000
0000
1000
0000
0000
1000
0000
0002
0000
0000
0000
0013
0000
0000
0000
,
0100
1000
0000
0010
0000
0100
0100
0000
,
0001
0010
0100
1000
,
0010
0000
0000
0100
0000
0000
0220
0000
0000
0000
0000
0000
0330
0000
0000
0000
,
0001
0000
0000
0001
0000
0000
0001
0000
2000
0000
0000
0000
3010
0000
0000
0000
,
0100
0001
0000
0010
0000
0100
0100
0000
,
1000
0010
0100
0001
,
0010
0000
0000
0100
0000
0000
0220
0000
0000
0000
0000
0000
0330
0000
0000
0000
,
0001
0100
0010
1000
,
0100
0010
0001
0000
0100
0010
1000
0000
,
0001
0100
0010
2000
0000
3000
0000
0100
,
0010
0001
0100
2000
0000
0100
3100
0001
,
1000
0100
0010
0001
,
0100
0010
1000
0100
0000
0010
0001
0000
,
1000
0100
1000
0100
0010
0001
0010
0001
,
0001
0100
0010
1000
0000
0001
0100
0000
,
1001
0000
0000
0000
;

//---------------dance-single - NewbStepper-BSP----------------
#NOTEDATA:;
#CHARTNAME:NewbStepper-BSP;
#STEPSTYPE:dance-single;
#DESCRIPTION:NewbStepper-BSP;
#DIFFICULTY:Easy;
#METER:5;
#RADARVALUES:0.219027,0.266463,0.098386,0.065591,0,187,175,12,8,0,0,0,0,0,0.219027,0.266463,0.098386,0.065591,0,187,175,12,8,0,0,0,0,0;
#CREDIT:NewbStepper;
#NOTES:
0000
0000
0000
0000
,
0000
0000
0000
0000
,
0000
0000
0000
0000
,
0000
0000
0000
0000
,
0000
0000
0000
0000
,
2000
0000
0000
0000
,
0000
0000
0000
0000
,
0002
0000
0000
3003
,
1001
0000
0000
0000
,
0010
1000
0010
0000
,
0100
0001
0100
0000
,
0010
1000
0001
0010
,
0100
1000
0001
0000
,
0010
0001
0010
0000
,
0100
1000
0100
0000
,
0010
0001
1000
0010
,
0100
0001
1000
0000
,
0010
0000
0100
0000
,
0001
0100
0101
0000
,
0010
0000
0100
0000
,
1000
0100
1100
0000
,
0001
1000
0001
1000
,
0010
0000
0100
0000
,
0001
0000
0010
0000
,
0100
0010
0110
0000
,
1002
0000
0000
0000
,
0200
0000
0000
0303
,
0010
1000
0100
0001
,
0200
0000
0020
0330
,
1000
0000
0100
0000
,
0010
0000
0001
0000
,
1000
0010
0100
0001
,
1001
0000
0000
0000
,
0010
0001
0010
0000
,
0100
1000
0100
0000
,
0010
0001
1000
0010
,
0100
0001
1000
0000
,
0010
1000
0010
0000
,
0100
0001
0100
0000
,
0010
1000
0001
0010
,
0100
1000
0001
0000
,
1000
0100
0010
0100
,
0001
0100
1000
0000
,
0001
0100
0010
0100
,
1000
0100
0001
0000
,
0100
0100
0010
1000
,
0100
0100
0010
0000
,
0100
0100
0010
0001
,
0100
0100
0010
0000
,
1001
0000
0100
0000
,
0010
0001
0011
0000
,
1001
0000
0100
0000
,
0010
1000
1010
0000
,
1000
0010
1000
0010
,
0100
0001
0100
0001
,
0010
0100
0010
0100
,
0220
0000
0000
0330
,
0001
0001
1000
0100
,
0010
0001
1000
0000
,
1000
1000
0001
0100
,
0010
1000
0001
0000
,
0100
0010
1000
0100
,
0100
0010
0001
0100
,
0100
0010
1000
0100
,
0010
0001
1000
0001
,
1001
0000
0000
0000
;

//---------------dance-single - NewbStepper-bSP----------------
#NOTEDATA:;
#CHARTNAME:NewbStepper-bSP;
#STEPSTYPE:dance-single;
#DESCRIPTION:NewbStepper-bSP;
#DIFFICULTY:Beginner;
#METER:2;
#RADARVALUES:0.115955,0.186524,0.024597,0.016398,0,99,96,3,2,0,0,0,0,0,0.115955,0.186524,0.024597,0.016398,0,99,96,3,2,0,0,0,0,0;
#CREDIT:NewbStepper;
#NOTES:
0000
0000
0000
0000
,
0000
0000
0000
0000
,
0000
0000
0000
0000
,
0000
0000
0000
0000
,
0000
0000
0000
0000
,
0001
0000
0000
0000
,
0000
0000
0000
0000
,
1000
0000
0000
0000
,
1001
0000
0000
0000
,
0010
0000
0000
0000
,
0001
0000
1000
0000
,
0010
0000
0000
0000
,
1000
0000
0001
0000
,
0010
0000
0000
0000
,
0001
0000
1000
0000
,
0100
0000
0000
0000
,
1000
0000
0001
0000
,
0100
0000
0100
0000
,
0010
0010
0010
0000
,
0100
0000
0100
0000
,
0001
0001
0001
0001
,
0001
0000
1000
0000
,
0001
0000
1000
0000
,
0100
0000
0100
0000
,
1000
1000
1000
0000
,
0002
0000
0000
0000
,
0000
0000
0000
0003
,
2000
0000
0000
0000
,
0000
0000
0000
3000
,
0010
0000
0000
0000
,
0100
0000
0000
0000
,
0010
0000
0000
0000
,
1001
0000
0000
0000
,
0010
0000
0000
0000
,
1000
0000
0001
0000
,
0010
0000
0000
0000
,
0001
0000
1000
0000
,
0010
0000
0000
0000
,
1000
0000
0001
0000
,
0100
0000
0000
0000
,
0001
0000
1000
0000
,
0100
0000
0000
0000
,
1000
0000
1000
0000
,
1000
0000
0000
0000
,
0001
0000
0001
0000
,
0001
0000
0000
0000
,
0100
0000
0100
0000
,
0100
0000
0000
0000
,
0010
0000
0000
0000
,
1000
0000
1000
0000
,
0100
0100
0100
0000
,
0001
0000
0001
0000
,
0100
0100
0100
0000
,
1000
0000
1000
0000
,
0010
0010
0010
0000
,
0001
0000
0001
0000
,
0010
0010
0010
0010
,
0010
0000
0000
0000
,
0100
0000
0000
0000
,
0010
0000
0000
0000
,
0100
0000
0000
0000
,
0001
0000
0000
0000
,
1000
0000
0000
0000
,
0001
0000
0001
0000
,
1000
0000
1000
0000
,
1001
0000
0000
0000
;

//---------------dance-double - NewbStepper-EDP----------------
#NOTEDATA:;
#CHARTNAME:NewbStepper-EDP;
#STEPSTYPE:dance-double;
#DESCRIPTION:NewbStepper-EDP;
#DIFFICULTY:Hard;
#METER:11;
#RADARVALUES:0.431026,0.426341,0.016398,0.237767,0.061492,368,366,2,29,0,0,0,0,0,0.431026,0.426341,0.016398,0.237767,0.061492,368,366,2,29,0,0,0,0,0;
#CREDIT:NewbStepper;
#NOTES:
00000000
00000000
00000000
00000000
,
00000000
00000000
00000000
00000000
,
00000000
00000000
00000000
00000000
,
00000000
00000000
00000000
00000000
,
00000000
00000000
00000000
00000000
,
10000000
00000000
00000000
00100000
00000000
00000000
01000000
00000000
00000000
00010000
00000000
10000000
00000000
00000000
01000000
00000000
,
00010000
00000000
00000000
00001000
00000000
00000000
00000100
00000000
00000000
00000001
00000000
00001000
00000000
00000000
00000010
00000000
,
00000100
00000000
00000000
00000001
00000000
00000000
00000010
00000000
00001000
00000000
00000000
00010000
00000000
00000000
00100000
00000000
,
20000000
00000000
00000000
30000000
,
00010000
00000000
10000000
01000000
00010000
00001000
00000100
00000000
,
00000001
00000010
00000100
00000000
00001000
00000010
00000100
00000000
,
00000001
00000000
00000100
00001000
00010000
00100000
10000000
00010000
,
01000000
00010000
00000000
10000000
00000000
01000000
00010000
00000000
,
00001000
00000010
00000001
00000100
00000000
00000010
00001000
00010000
,
00000000
00001000
00100000
00010000
00000000
00001000
00000100
00000000
,
00000001
00000010
00001000
00010000
00100000
10000000
01000000
00010000
,
01000000
10000000
00100000
00010000
00001000
00000010
00000001
00000000
,
00001000
00000001
00000100
00001000
00000000
01000000
00100000
10000000
,
00000000
01000000
00010000
00001000
00000100
00001000
00100000
00000000
,
00010000
10000000
01000000
00010000
00000000
00000100
00000010
00000001
,
00000000
00000100
00001000
00010000
01000000
00010000
00000010
00000000
,
00001000
00000000
00000002
00000000
00000103
00001000
00010000
01000000
,
10000000
00100000
00010000
00100000
10000000
01000000
00010000
00001000
,
00000010
00000001
00000100
00001000
00000000
00010000
01000000
10000000
,
00010000
00100000
00001000
01000000
00010000
00001000
00000010
00000100
,
00000002
00000000
00000000
00001000
00000000
00000000
00000200
00000000
00000003
00000000
00000000
00000000
00001300
00000000
00010000
00000000
,
00100000
00020000
00000000
00030020
00000000
00001030
00000100
00000000
,
00000020
00000000
00002030
00000000
00023000
00000000
00130000
20000000
,
00000000
32000000
00000000
03020000
00000000
00001000
00031000
00000000
,
00010000
00000000
00000000
01000000
00000000
00000000
10000000
00000000
10000000
00000000
00000000
00100000
00000000
00000000
00010000
00000000
,
00001000
00000000
00000000
00000100
00000000
00000000
00000001
00000000
00000001
00000000
00000000
00000010
00000000
00000000
00001000
00000000
,
00010000
00000000
00000000
00000100
00000000
00000000
00001000
00000000
00010000
00000000
00000000
00100000
00000000
00000000
01000000
00000000
,
20020000
00000000
00000000
30030000
00000000
00100000
00100000
00100000
,
00010000
00000000
10000000
01000000
00010000
00001000
00000100
00000000
,
00000001
00000010
00000100
00000000
00001000
00000010
00000100
00000000
,
00000001
00000000
00000100
00001000
00010000
00100000
10000000
00010000
,
01000000
00010000
00000000
10000000
00000000
01000000
00010000
00000000
,
00001000
00000010
00000001
00000100
00000000
00000010
00001000
00010000
,
00000000
00001000
00100000
00010000
00000000
00001000
00000100
00000000
,
00000001
00000010
00001000
00010000
00100000
10000000
01000000
00010000
,
01000000
10000000
00100000
00010000
00001000
00000010
00000001
00000000
,
00001000
00000100
00010000
00001000
00000100
00000010
00001000
00000100
,
00000001
00000100
00001000
00010000
00100000
01000000
10000000
00000000
,
00010000
01000000
00001000
00010000
01000000
00100000
00010000
01000000
,
10000000
01000000
00010000
00001000
00000010
00000100
00000001
00000000
,
00001000
00000010
00000100
00010000
00001000
00100000
01000000
00010000
,
10000000
01000000
00010000
00001000
00010000
00100000
10000000
00000000
,
00010000
00100000
01000000
00001000
00010000
00000010
00000100
00001000
,
00000001
00000100
00001000
00010000
00001000
00000010
00000001
00000000
,
00002000
00000100
00000001
00000010
,
00023000
01000000
10000000
00100000
,
00031000
00000100
00000010
00000000
00000001
00000100
00001000
00000000
,
00010000
01000000
10000000
00100000
01000000
00010000
00100000
00000000
,
00020000
01000000
10000000
00100000
,
00032000
00000100
00000001
00000010
,
00013000
01000000
00100000
00000000
10000000
01000000
00010000
00000000
,
00001000
00000100
00000001
00000010
00000100
00001000
00000010
00000000
,
00000200
00000000
00000301
00000020
00000000
00002030
00000000
00100000
,
00000000
00000010
00000000
00100000
00000000
00023000
00000000
01030000
,
20000000
00000000
30100000
00020000
00000000
00000000
00000000
00031000
,
00000100
00000001
00000100
00001000
00000000
00010000
00100000
10000000
,
02000000
00000000
13000000
00200000
00000000
00320000
00000000
00030010
,
00000010
00001000
00000001
00000020
00000000
00001030
00010000
00002000
,
00000000
00003100
00000001
00001000
00000010
00001000
00010000
01000000
,
00100000
10000000
01000000
00010000
00001000
00000010
00000001
00000000
,
00001001
00000000
00000000
00000000
;

//---------------dance-double - NewbStepper-DDP----------------
#NOTEDATA:;
#CHARTNAME:NewbStepper-DDP;
#STEPSTYPE:dance-double;
#DESCRIPTION:NewbStepper-DDP;
#DIFFICULTY:Medium;
#METER:9;
#RADARVALUES:0.353723,0.426341,0.081989,0.180375,0.049193,302,292,10,22,0,0,0,0,0,0.353723,0.426341,0.081989,0.180375,0.049193,302,292,10,22,0,0,0,0,0;
#CREDIT:NewbStepper;
#NOTES:
00000000
00000000
00000000
00000000
,
00000000
00000000
00000000
00000000
,
00000000
00000000
00000000
00000000
,
00000000
00000000
00000000
00000000
,
00000000
00000000
00000000
00000000
,
00100000
00000000
00000000
00100000
00000000
00000000
00100000
00000000
00000000
00100000
00000000
00000000
00100000
00000000
00000000
00000000
,
00001000
00000000
00000000
00001000
00000000
00000000
00001000
00000000
00000000
00001000
00000000
00000000
00001000
00000000
00000000
00000000
,
00010000
00000000
00000000
00010000
00000000
00000000
00010000
00000000
00000000
00010000
00000000
00000000
00010000
00000000
00000000
00000000
,
00022000
00000000
00000000
00033000
,
00001000
00000000
00000010
00000001
00000000
00000100
00000000
00000010
,
00000000
00001000
00000100
00000010
00001000
00000000
00011000
00000000
,
00010000
00000000
00100000
10000000
00000000
01000000
00000000
00100000
,
00000000
00010000
01000000
00100000
00010000
00000000
00011000
00000000
,
00001000
00000100
00000000
00000001
00000000
00000010
00000001
00000010
,
00000000
00001000
00000000
00010000
00000000
00000000
00011000
00000000
,
00010000
01000000
00000000
10000000
00000000
00100000
10000000
00100000
,
00000000
10000000
01000000
00010000
00001000
00000010
00000001
00000000
,
00001000
00000000
00000001
00000000
00000100
00000010
00001000
00000000
,
00000001
00000100
00001000
00000000
00010000
01000000
10000000
00000000
,
00010000
00000000
10000000
00000000
01000000
00100000
00010000
00000000
,
10000000
01000000
00010000
00000000
00001000
00000100
00000001
00000000
,
00000100
00000000
00000020
00000000
00000030
00001000
00000001
00001000
,
00000100
00010000
00001000
01000000
,
00010000
10000000
01000000
00010000
00000000
01000000
00010000
00001000
,
00000000
00010000
00001000
00000100
00000001
00000000
00000010
00000000
,
00002000
00000000
00000000
00003000
,
00100000
00010000
00000000
20000000
00000000
01000000
31000000
00000000
,
00020000
00000000
00000000
00030000
,
00000010
00001000
00000000
00000002
00000000
00000100
00000103
00000000
,
00002000
00000000
00000000
00013000
02000000
00000000
03000000
10000000
,
00200000
00000000
00300000
00010000
00002000
00000000
00003000
00000100
,
00000002
00000000
00000003
00000010
00002000
00000000
00003000
00010000
,
00200000
00000000
00000000
00300000
,
00010000
00000000
00100000
10000000
00000000
01000000
00000000
00100000
,
00000000
00010000
01000000
00100000
00010000
00000000
00011000
00000000
,
00001000
00000000
00000010
00000001
00000000
00000100
00000000
00000010
,
00000000
00001000
00000100
00000010
00001000
00000000
00011000
00000000
,
00010000
01000000
00000000
10000000
00000000
00100000
10000000
00100000
,
00000000
00010000
00000000
00001000
00000000
00000000
00011000
00000000
,
00001000
00000100
00000000
00000001
00000000
00000010
00000001
00000010
,
00000000
00000001
00000100
00001000
00010000
00100000
10000000
00000000
,
01000000
00100000
01000000
00010000
00000000
00001000
00010000
00001000
,
00000000
00000010
00000000
00000001
00000000
00001000
00000001
00000000
,
00000100
00000010
00000100
00001000
00000000
00010000
00001000
00010000
,
00000000
00100000
00000000
10000000
00000000
00010000
10000000
00000000
,
00100000
00000000
00000000
01000000
00000000
00000000
00010000
00000000
00000000
00000000
10000000
00000000
00100000
00000000
00010000
00000000
,
00000000
00001000
00000100
00000001
00000000
00001000
00000100
00000000
,
00000010
00000000
00000000
00000100
00000000
00000000
00001000
00000000
00000000
00000000
00000001
00000000
00000010
00000000
00001000
00000000
,
00000000
00010000
01000000
10000000
00000000
00100000
01000000
00010000
,
10000000
00000000
00000000
10000000
00000000
00000000
10000000
00000000
00200000
00000000
00000000
00000000
00310000
00000000
00000000
00000000
,
00001000
00000100
00000000
00000010
00000000
00000100
00000100
00000000
,
00000001
00000010
00000100
00001000
,
00000010
00000000
00000000
00000100
00000000
00000000
00000220
00000000
00000000
00000000
00000000
00000000
00000330
00000000
00000000
00000000
,
00000001
00000000
00000000
00000001
00000000
00000000
00000001
00000000
00000020
00000000
00000000
00000000
00001030
00000000
00000000
00000000
,
00010000
01000000
00000000
00100000
00000000
01000000
01000000
00000000
,
10000000
00100000
01000000
00010000
,
00100000
00000000
00000000
01000000
00000000
00000000
02200000
00000000
00000000
00000000
00000000
00000000
03300000
00000000
00000000
00000000
,
10000000
00100000
01000000
00010000
,
01000000
00100000
10000000
00000000
01000000
00100000
00010000
00000000
,
10000000
01000000
00100000
00020000
00000000
00000000
00030000
01000000
,
00100000
10000000
01000000
00020000
00000000
00001000
00031000
00000100
,
00000001
00000100
00000010
00001000
,
00000100
00000010
00000001
00000100
00000000
00001000
00010000
00000000
,
00100000
10000000
00100000
10000000
00010000
00100000
00010000
00100000
,
00100000
00001000
00010000
00000100
00000000
00000010
00000001
00000000
,
00001001
00000000
00000000
00000000
;

//---------------dance-double - NewbStepper-BDP----------------
#NOTEDATA:;
#CHARTNAME:NewbStepper-BDP;
#STEPSTYPE:dance-double;
#DESCRIPTION:NewbStepper-BDP;
#DIFFICULTY:Easy;
#METER:5;
#RADARVALUES:0.214342,0.266463,0.081989,0.049193,0,183,173,10,6,0,0,0,0,0,0.214342,0.266463,0.081989,0.049193,0,183,173,10,6,0,0,0,0,0;
#CREDIT:NewbStepper;
#NOTES:
00000000
00000000
00000000
00000000
,
00000000
00000000
00000000
00000000
,
00000000
00000000
00000000
00000000
,
00000000
00000000
00000000
00000000
,
00000000
00000000
00000000
00000000
,
00020000
00000000
00000000
00000000
,
00000000
00000000
00000000
00000000
,
00002000
00000000
00000000
00033000
,
00011000
00000000
00000000
00000000
,
00100000
10000000
00100000
00000000
,
01000000
00010000
01000000
00000000
,
00001000
00010000
00000010
00001000
,
00000001
00000010
00000100
00000000
,
00000010
00000001
00000010
00000000
,
00000100
00001000
00000100
00000000
,
00010000
00001000
00100000
00010000
,
10000000
00100000
01000000
00000000
,
00001000
00000000
00100000
00000000
,
00001000
00100000
00101000
00000000
,
00010000
00000000
00000010
00000000
,
00010000
00000010
00010010
00000000
,
00001000
00000100
00001000
00000100
,
00000010
00000000
00000001
00000000
,
00000100
00000000
00001000
00000000
,
00010000
00001000
00011000
00000000
,
10020000
00000000
00000000
00000000
,
02000000
00000000
00000000
03030000
,
00100000
10000000
01000000
00010000
,
00002000
00000000
00000020
00003030
,
00000001
00000000
00000100
00000000
,
00000010
00000000
00001000
00000000
,
00000001
00000100
00001000
00010000
,
00011000
00000000
00000000
00000000
,
00100000
10000000
00100000
00000000
,
01000000
00010000
01000000
00000000
,
00001000
00010000
00000010
00001000
,
00000001
00000010
00000100
00000000
,
00000010
00000001
00000010
00000000
,
00000100
00001000
00000100
00000000
,
00010000
00001000
00100000
00010000
,
10000000
00100000
01000000
00000000
,
00001000
00000000
00100000
00000000
,
00001000
00100000
00101000
00000000
,
00010000
00000000
00000010
00000000
,
00010000
00000010
00010010
00000000
,
00001000
00000100
00001000
00000100
,
00000010
00000000
00000001
00000000
,
00000100
00000000
00001000
00000000
,
00010000
00001000
00011000
00000000
,
00010000
01000000
00100000
01000000
,
10000000
01000000
00010000
00000000
,
00001000
00000100
00000010
00000100
,
00000001
00000100
00001000
00000000
,
00010000
00100000
01000000
00100000
,
10000000
00100000
00010000
00000000
,
00001000
00000010
00000100
00000010
,
00000001
00000010
00001000
00000000
,
00010000
00001000
00100000
00010000
,
10000000
01000000
00010000
00000000
,
00001000
00010000
00000010
00001000
,
00000001
00000100
00001000
00000000
,
00010000
00001000
00100000
00010000
,
00010000
01000000
00100000
10000000
,
10000000
01000000
00010000
00001000
,
00000100
00000001
00001000
00000001
,
00001001
00000000
00000000
00000000
;
