#TITLE:Cradle;
#ARTIST:positive MA feat.akino;
#BANNER:Cradle.png;
#BACKGROUND:Cradle-bg.png;
#MUSIC:Cradle.ogg;
#OFFSET:1.823;
#SAMPLESTART:38.630;
#SAMPLELENGTH:15;
#BPMS:0=160,176=188;

//---------------dance-single - forcednature-bSP----------------
#NOTES:
     dance-single:
     forcednature:
     Beginner:
     3:
     :
0000
0000
0000
0000
,
0000
0000
0000
0000
,
0000
0000
0000
0000
,
0000
0000
0000
0000
,
0000
0000
0000
0000
,
0000
0000
0000
0000
,
0000
0000
0000
0000
,
0000
0000
0000
0000
,
0000
0000
0000
0000
,
0000
0000
0000
0000
,
0000
0000
0000
0000
,
1000
0000
0000
0000
,
0001
0000
0000
0000
,
0100
0000
0000
0000
,
0010
0000
0000
0000
,
1000
0000
0000
0000
,
0100
0000
0000
0000
,
0010
0000
0000
0000
,
0001
0000
0001
0000
,
0100
0000
0000
0000
,
0100
0000
0000
0000
,
0010
0000
0000
0000
,
1000
0000
1000
0000
,
1000
0000
0000
0000
,
0100
0000
0000
0000
,
0010
0000
0000
0000
,
0001
0000
0001
0000
,
0100
0000
0000
0000
,
0010
0000
1000
0000
,
0010
0000
0000
0000
,
0100
0000
0001
0000
,
0100
0000
0000
0000
,
0001
0000
0010
0000
,
0001
0000
1000
0000
,
0100
0000
0000
0000
,
1000
0000
0000
0000
,
0010
0000
0100
0000
,
0001
0000
0000
0000
,
0010
0000
0100
0000
,
1000
0000
0000
0000
,
0001
0000
1000
0000
,
0010
0000
0000
0000
,
0100
0000
0001
0000
,
0020
0000
0000
0000
,
0000
0000
0030
0000
,
1001
0000
0000
0000
,
1000
0000
0001
0000
,
0100
0000
0000
0000
,
0010
0000
0000
0000
,
1000
0000
0000
0000
,
0001
0000
0000
0000
,
0010
0000
0010
0000
,
0100
0000
0100
0000
,
1000
0000
0000
0000
,
0001
0000
0000
0000
,
0100
0000
0000
0000
,
0010
0000
0000
0000
,
1000
0000
0000
0000
,
0001
0000
0000
0000
,
1000
0000
1000
0000
,
0001
0000
0001
0000
,
0100
0000
0000
0000
,
0010
0000
1000
0000
,
0010
0000
0000
0000
,
0100
0000
0001
0000
,
0100
0000
0000
0000
,
0001
0000
0010
0000
,
0100
0000
0100
0000
,
0010
0000
0010
0000
,
0001
0000
0000
0000
,
1000
0000
0010
0000
,
1000
0000
1000
0000
,
0001
0000
0001
0000
,
0100
0000
0000
0000
,
0010
0000
0010
0000
,
1000
0000
1000
0000
,
0100
0000
0110
0000
;

//---------------dance-single - forcednature-BSP----------------
#NOTES:
     dance-single:
     forcednature:
     Easy:
     7:
     :
0000
0000
0000
0000
,
0000
0000
0000
0000
,
0000
0000
0000
0000
,
0000
0000
0000
0000
,
0000
0000
0000
0000
,
0000
0000
0000
0000
,
0000
0000
0000
0000
,
0000
0000
0000
0000
,
0000
0000
0000
0000
,
0000
0000
0000
0000
,
0000
0000
0000
0000
,
1001
0000
0000
0000
,
1000
0000
0000
0000
,
0010
0000
0000
0000
,
0100
0000
0001
0001
,
1000
0000
0000
0000
,
0100
0000
0000
0000
,
0010
0000
0000
0000
,
0001
0000
0100
0100
,
0010
0000
1000
0100
,
0010
0000
0001
0100
,
0010
0000
1000
0001
,
0010
0000
0100
0100
,
1000
0000
0001
0100
,
0010
0000
1000
0001
,
0010
0000
0100
1000
,
0001
0000
0100
0100
,
0110
0000
1000
0001
,
1000
0000
0010
0000
,
0100
0000
0001
0000
,
0010
0000
0100
0100
,
1001
0000
1000
0001
,
0100
0000
0010
0000
,
1000
0000
0001
0000
,
0010
0000
0100
0100
,
0110
0000
0100
1000
,
0001
0000
0100
0000
,
0010
0000
1000
0100
,
0010
0000
0001
0001
,
1001
0000
1000
0010
,
0100
0000
0001
1000
,
0100
0000
0010
0001
,
0200
0000
0020
0330
,
1000
0001
1000
0001
,
1000
0001
1000
0001
,
0100
0001
0000
0001
,
0100
0001
1000
0000
,
0100
1000
0000
1000
,
0100
0010
0001
0000
,
1000
0010
0000
0010
,
0100
0001
1000
0000
,
2002
3003
0220
0330
,
2002
3003
0220
0330
,
0001
0100
0000
0100
,
0000
0010
1000
0001
,
0010
0100
0000
0100
,
0000
1000
0001
0100
,
0010
1000
0000
1000
,
0000
0100
0010
0001
,
2002
3003
0220
0330
,
2002
3003
0220
0330
,
0001
0001
0002
0003
,
1000
0100
1000
0010
,
0100
0100
0200
0300
,
0001
1000
0010
0100
,
0010
0010
0020
0030
,
1000
0001
0010
0100
,
0220
0330
2002
3003
,
0220
0330
2002
3003
,
1000
1000
2000
3000
,
0100
0010
0001
0000
,
0220
0330
2002
3003
,
0220
0330
2002
3003
,
0110
0000
0001
1000
,
2020
3030
0202
0303
,
0022
0033
2200
3300
,
2002
0000
3003
0000
0010
0000
0000
2002
,
0000
0000
0000
0000
,
3003
0000
0000
0000
;

//---------------dance-single - forcednature-DSP----------------
#NOTES:
     dance-single:
     forcednature:
     Medium:
     10:
     :
0000
0000
0000
0000
,
0000
0000
0000
0000
,
0000
0000
0000
0000
,
0000
0000
0000
0000
,
0000
0000
0000
0000
,
0000
0000
0000
0000
,
0000
0000
0000
0000
,
0000
0000
0000
0000
,
0000
0000
0000
0000
,
0000
0000
0000
0000
,
0000
0000
0000
0000
,
1010
0000
0000
0000
,
0101
0000
0000
0000
,
0011
0000
0000
0000
,
0101
0000
0010
0010
,
1010
0000
0000
0000
,
1100
0000
0000
0000
,
0011
0000
0000
0000
,
0101
0000
0010
0010
,
1000
0100
1000
0000
0001
0000
0010
0000
,
0001
0100
0001
0000
1000
0000
0010
0000
,
1000
0100
0010
0000
0001
0000
1000
0000
,
0001
0100
0010
0000
1000
0000
1000
0000
,
0100
0010
0100
0000
1000
0000
0001
0000
,
0100
0010
0100
0000
0001
0000
1000
0000
,
0100
0010
0001
0000
0100
0000
0010
0000
,
1000
0100
0010
0000
0001
0000
0001
0000
,
0021
0001
0001
0001
,
0130
0010
0001
1000
,
0010
0100
0001
1000
,
0100
0010
0011
0011
,
1200
1000
1000
1000
,
0310
0100
1000
0001
,
0200
0300
0220
0330
,
2002
3003
0110
0110
,
1002
1000
1000
1000
,
0103
0001
0010
0100
,
1000
0010
0100
0001
,
0010
0100
1100
1100
,
0201
0001
0001
0001
,
0310
0100
0001
1000
,
1200
1000
1000
1000
,
0320
0130
0110
0110
,
1000
0100
1100
0020
,
0001
0001
0130
1001
,
1000
0000
0001
0100
0000
0100
0001
0000
,
1000
0010
1000
0000
0001
0010
0001
0000
,
0100
0000
0010
1000
0000
1000
0100
0000
,
0010
0001
0010
0000
0100
1000
0100
0000
,
0010
0000
0001
1000
0000
1000
0010
0000
,
0100
0001
0100
0000
0010
1000
0010
0000
,
2200
3300
2020
3030
,
0202
0303
0022
0033
,
1000
0000
0100
0010
0000
0001
0010
0000
,
0100
1000
0001
0000
0100
0001
1000
0000
,
0010
0000
0100
0001
0000
1000
0100
0000
,
0010
0100
1000
0000
0010
0100
0001
0000
,
1000
0000
0100
0010
0000
0001
0010
0000
,
0100
1000
0010
0000
0100
0001
0010
0000
,
0202
0303
0022
0033
,
2200
3300
2020
3030
,
1000
0100
1000
0100
0020
0000
0001
0000
,
0130
0000
0010
0000
0001
1000
0010
0000
,
0100
0001
0100
0001
2000
0000
0100
0000
,
3010
0000
1000
0000
0100
0010
0001
0000
,
0100
0001
0100
0001
0020
0000
1000
0000
,
0031
0000
0010
0000
0100
1000
0001
0000
,
2100
3010
0102
0013
,
2001
3100
1002
0103
,
0001
0010
0001
0010
0200
0000
0001
0000
,
1300
0000
0100
0000
0010
0001
1000
0000
,
2010
3100
0012
0103
,
1020
0031
0021
1030
,
0110
0000
1000
0100
0010
0000
0001
0000
,
0100
0001
0010
0000
0100
1000
0010
0000
,
0100
0001
1000
0000
0100
1000
0001
0000
,
0010
0100
1000
0000
0001
0100
0010
2000
,
0000
0000
0000
0000
,
3000
0000
0000
0000
;

//---------------dance-single - forcednature-ESP----------------
#NOTES:
     dance-single:
     forcednature:
     Hard:
     13:
     :
0000
0000
0000
0000
,
0000
0000
0000
0000
,
0000
0000
0000
0000
,
0000
0000
0000
0000
,
0000
0000
0000
0000
,
0000
0000
0000
0000
,
0000
0000
0000
0000
,
0000
0000
0000
0000
,
0000
0000
0000
0000
,
0000
0000
0000
0000
,
0000
0000
0000
0000
,
0001
0100
0000
0010
0000
0000
1000
0001
,
0020
0000
0030
0000
,
0010
0001
0000
1000
0000
0000
0010
0100
,
0002
0000
1003
1000
,
0001
0010
0000
0100
0000
0000
1000
0001
,
0200
0000
0300
0000
,
0100
0000
0001
0000
0000
0000
1000
0000
0000
0000
0000
0000
0100
0000
0010
0001
,
2000
0000
3010
0010
,
1000
0100
0010
0000
0100
0000
0010
0001
,
0100
0010
0100
0000
0001
0000
1000
0010
,
1000
0001
0010
0000
0100
0000
1000
0001
,
0100
0010
1000
0000
1010
0000
1010
0000
,
0010
0100
1000
0000
0100
0000
0001
0100
,
0010
1000
0001
0000
0010
0000
1000
0000
,
0010
0100
1000
0000
0001
0000
0100
0010
,
0001
0010
0100
0000
0101
0000
0101
0000
,
0002
0100
1000
0010
,
1000
0000
0103
0000
0001
0010
0100
0000
,
0210
0000
1000
0000
0301
0100
1000
0000
,
1020
0001
0130
0100
,
2001
0100
0001
0010
,
0001
0000
3100
0000
1000
0001
0010
0000
,
0120
0000
1000
0000
0130
0010
0001
0000
,
0201
1000
0310
0010
,
0100
0001
1000
0010
0100
0000
0001
0010
,
0200
1000
0310
0100
,
0010
0001
1000
0001
0100
0000
0010
1000
,
0002
0010
0103
0100
,
0001
0010
0100
0001
0100
0000
1000
0010
,
0200
1000
0302
0010
,
0103
0000
0001
0000
0100
0000
0010
0000
1000
0000
0000
0000
0001
0000
1000
0100
,
0020
0001
0130
0100
,
1000
0000
0000
0000
1000
0100
0000
0000
0010
0000
0000
0010
0001
0000
1000
0000
,
0020
0000
0001
0000
0100
0100
1030
0000
,
1000
0100
1000
0010
0100
0000
0001
0010
,
0100
1100
0010
0011
,
1000
0010
0100
0001
0100
0000
0001
0010
,
0100
0000
0000
0000
1000
0000
0010
0000
0000
0010
0100
0000
0001
0000
0000
0000
,
1000
0100
0010
0001
0010
0000
0100
1000
,
0001
0001
0001
0100
0010
1000
0010
0000
,
2100
3010
0102
0013
,
1200
0000
0000
0000
0301
0000
0000
0000
0100
1000
0100
1000
0001
0000
0000
0000
,
0010
0100
1000
0010
0100
0000
0010
1000
,
0001
0000
0010
0100
1000
0010
0100
0000
,
0001
0010
0001
0100
0010
0000
1000
0001
,
0010
0000
0000
0000
0100
0000
0010
0000
0000
0010
0001
0000
1000
0000
0000
0000
,
0100
0001
0100
1000
0100
0000
0010
0001
,
1000
1000
1000
0010
0100
0001
1000
0000
,
2010
3100
0012
0103
,
1020
0000
0000
0000
0031
0000
0000
0000
0010
1000
0010
1000
0001
0000
0000
0000
,
1000
0100
0001
0100
0020
0000
0130
1000
,
0001
0000
1000
0000
0010
0000
0100
0000
0001
0000
0100
0000
0010
1000
0000
0000
,
0001
0100
1000
0100
0020
0000
0130
0001
,
1000
0000
0001
0000
0010
0000
0100
0000
1000
0000
0001
0000
1000
0100
0000
0000
,
1000
0010
0001
0010
0200
0000
0301
0100
,
0010
0000
1000
0000
0001
0010
0001
0000
0100
0000
0000
0010
1000
0000
0000
1000
,
0020
0000
0000
0000
0130
0000
0001
0000
1000
0100
1000
0000
0001
0000
0000
0000
,
0012
0000
0000
0000
0103
0000
0001
0000
1000
0100
1000
0100
0010
0000
0000
0000
,
0001
0010
1000
0010
0200
0000
1300
0001
,
0100
0000
0010
0000
1000
0001
0000
0000
1000
0000
0010
0000
0100
0000
0010
0000
,
2000
0001
0000
0000
3100
0000
0000
0000
0012
0000
0000
0000
1003
0000
0001
0100
,
0010
0000
0010
0000
0010
0000
1000
0000
0100
0010
0002
0000
1000
0000
0000
0000
,
0013
0001
0000
0000
1000
0000
0010
0000
0100
0000
0100
0000
0101
0000
0000
0000
,
0001
0100
0001
0000
1000
0000
0010
0000
1000
0100
1000
0000
0001
0000
0000
0010
,
0002
0000
0100
0000
0103
0000
0001
0000
1000
0010
0000
0000
0100
0001
0100
0000
,
0010
0000
0010
0000
0010
1000
0000
0001
0010
0001
0010
0000
0100
0000
2000
0000
,
0000
0000
0000
0000
,
3000
0000
0000
0000
;

//---------------dance-double - forcednature-BDP----------------
#NOTES:
     dance-double:
     forcednature:
     Easy:
     7:
     :
00000000
00000000
00000000
00000000
,
00000000
00000000
00000000
00000000
,
00000000
00000000
00000000
00000000
,
00000000
00000000
00000000
00000000
,
00000000
00000000
00000000
00000000
,
00000000
00000000
00000000
00000000
,
00000000
00000000
00000000
00000000
,
00000000
00000000
00000000
00000000
,
00000000
00000000
00000000
00000000
,
00000000
00000000
00000000
00000000
,
00000000
00000000
00000000
00000000
,
00010000
00000000
00000000
00000000
,
00001000
00000000
00000000
00000000
,
00010000
00000000
00000000
00000000
,
00000100
00000000
00001000
00001000
,
00000001
00000000
00000000
00000000
,
00000100
00000000
00000000
00000000
,
00000010
00000000
00000000
00000000
,
00010000
00000000
00001000
00001000
,
00100000
00000000
00010000
00000000
,
01000000
00000000
00010000
00000000
,
00100000
00000000
00001000
00000000
,
00010000
00000000
00000010
00000010
,
00001000
00000000
00000100
00000000
,
00000010
00000000
00000100
00000000
,
00001000
00000000
00000001
00000000
,
00001001
00000000
00000001
00000001
,
00000200
00000000
00000000
00000000
,
00000310
00000000
00001000
00000000
,
00000100
00000000
00010000
00000000
,
00001000
00000000
00100000
00100000
,
00020000
00000000
00000000
00000000
,
10030000
00000000
00010000
00000000
,
01000000
00000000
00001000
00000000
,
00010000
00000000
00000100
00000100
,
00002000
00000000
00000000
00000000
,
00003001
00000000
00000100
00000000
,
00000010
00000000
00001000
00000000
,
00000100
00000000
00010000
00010000
,
00002000
00000000
00000000
00000000
,
01003000
00000000
00010000
00000000
,
00200000
00000000
00000000
00000000
,
00301000
00000000
00011000
00000000
,
00000010
00000010
00000010
00000010
,
00000010
00000010
00000010
00000010
,
00000100
00000000
00000000
00000100
,
00000001
00001000
00000001
00000000
,
00000010
00000100
00000000
00000100
,
00001000
00000100
00010000
00000000
,
00001000
01000000
00000000
01000000
,
00010000
01000000
00100000
00000000
,
02020000
03030000
02002000
03003000
,
00022000
00033000
00020200
00030300
,
00000100
00001000
00000000
00001000
,
00000000
00000010
00010000
00001000
,
00100000
00010000
00000000
00010000
,
00000000
01000000
00100000
10000000
,
01000000
00100000
00000000
00100000
,
00000000
00001000
00010000
00000010
,
00020020
00030030
00022000
00033000
,
00202000
00303000
00022000
00033000
,
00010000
00010000
00020000
00030000
,
00001000
00010000
00000100
00001000
,
00000010
00000010
00000020
00000030
,
00000100
00000001
00001000
00000001
,
00000010
00000010
00000020
00000030
,
00000100
00010000
00001000
00010000
,
00020020
00030030
00022000
00033000
,
00202000
00303000
00022000
00033000
,
01000000
01000000
02000000
03000000
,
00010000
00100000
00001000
00000000
,
00202000
00303000
00020200
00030300
,
02002000
03003000
00020020
00030030
,
00011000
00000000
00001000
00000000
,
00020200
00030300
00202000
00303000
,
00020020
00030030
02002000
03003000
,
00022000
00000000
00033000
00000000
00001000
00000000
00000000
00022000
,
00000000
00000000
00000000
00000000
,
00033000
00000000
00000000
00000000
;

//---------------dance-double - forcednature-DDP----------------
#NOTES:
     dance-double:
     forcednature:
     Medium:
     10:
     :
00000000
00000000
00000000
00000000
,
00000000
00000000
00000000
00000000
,
00000000
00000000
00000000
00000000
,
00000000
00000000
00000000
00000000
,
00000000
00000000
00000000
00000000
,
00000000
00000000
00000000
00000000
,
00000000
00000000
00000000
00000000
,
00000000
00000000
00000000
00000000
,
00000000
00000000
00000000
00000000
,
00000000
00000000
00000000
00000000
,
00000000
00000000
00000000
00000000
,
01001000
00000000
00000000
00000000
,
00010100
00000000
00000000
00000000
,
00101000
00000000
00000000
00000000
,
00010010
00000000
00000100
00000100
,
00001100
00000000
00000000
00000000
,
01010000
00000000
00000000
00000000
,
00001010
00000000
00000000
00000000
,
00110000
00000000
10000000
10000000
,
01000000
00100000
01000000
00000000
10000000
00000000
00010000
00000000
,
01000000
00001000
01000000
00000000
00010000
00000000
00100000
00000000
,
00001000
00010000
00001000
00000000
00000100
00000000
00000010
00000000
,
00001000
00000100
00001000
00000000
00000001
00000000
00000001
00000000
,
00000100
00000001
00000100
00000000
00000010
00000000
00001000
00000000
,
00000100
00010000
00000100
00000000
00001000
00000000
00000010
00000000
,
00010000
00001000
00010000
00000000
00100000
00000000
01000000
00000000
,
00010000
10000000
00010000
00000000
00100000
00000000
00100000
00000000
,
11000000
10000000
00010000
01000000
,
00001000
00100000
00010000
01000000
,
00001000
00010000
00000100
00001000
,
00000001
00000010
00000110
00000110
,
00000100
00001000
00000010
00010000
,
00001000
00100000
00010000
01000000
,
00200000
00300000
20200000
30300000
,
02020000
03030000
00100000
00100000
,
00011000
00001000
00010000
00000010
,
00001000
00000100
00000010
00000001
,
00001000
00000010
00001000
00000100
,
00010000
00001000
00011000
00011000
,
01000000
00010000
00100000
00010000
,
01000000
00100000
10000000
00010000
,
00202000
00000000
00000000
00303000
,
00020020
00030030
00022000
00033000
,
00010000
00001000
00010000
00001000
,
00010000
00001000
00010000
00011000
,
01000000
00000000
00010000
10000000
00000000
10000000
01000000
00000000
,
00100000
00010000
00100000
00000000
00001000
00000000
00010000
00000000
,
00000010
00000000
00001000
00000100
00000000
00000100
00000010
00000000
,
00000001
00000100
00000001
00000000
00000010
00000000
00000100
00000000
,
00010000
00000000
00001000
01000000
00000000
01000000
00010000
00000000
,
10000000
01000000
10000000
00000000
00100000
00000000
01000000
00000000
,
02002000
03003000
00020020
00030030
,
00202000
00303000
00020200
00030300
,
00011000
00000000
00010000
00000100
00000000
00000100
00001000
00000000
,
00000010
00010000
00000010
00000000
00001000
00000000
00000100
00000000
,
00000010
00000000
00000001
00000100
00000000
00000100
00000010
00000000
,
00001000
00000100
00001000
00000000
00000010
00000000
00010000
00000000
,
00001000
00000000
00100000
01000000
00000000
01000000
10000000
00000000
,
00010000
01000000
00010000
00000000
00100000
00000000
00001000
00000000
,
02002000
03003000
00220000
00330000
,
00002020
00003030
00020200
00030300
,
00000100
00001000
00000100
00001000
00000020
00000000
00000100
00000000
,
00001030
00000010
00010000
00001000
,
00100000
00010000
00100000
00010000
02000000
00000000
00100000
00000000
,
03010000
01000000
00100000
10000000
,
01000000
00100000
01000000
00100000
00020000
00000000
01000000
00000000
,
10030000
00010000
00100000
00001000
,
00010020
00010030
00201000
00301000
,
00010200
00010300
02001000
03001000
,
01000000
00010000
01000000
00010000
20000000
00000000
01000000
00000000
,
30100000
10000000
01000000
00010000
,
00102000
00103000
00020010
00030010
,
01002000
01003000
00020100
00030100
,
00011000
00000000
00001000
00010000
00000100
00000000
00001000
00000000
,
00010020
00010030
02001000
03001000
,
00010200
00010300
00201000
00301000
,
00011000
00000000
00010000
00001000
01000000
00001000
00010000
00000200
,
00000000
00000000
00000000
00000000
,
00000300
00000000
00000000
00000000
;

//---------------dance-double - forcednature-EDP----------------
#NOTES:
     dance-double:
     forcednature:
     Hard:
     13:
     :
00000000
00000000
00000000
00000000
,
00000000
00000000
00000000
00000000
,
00000000
00000000
00000000
00000000
,
00000000
00000000
00000000
00000000
,
00000000
00000000
00000000
00000000
,
00000000
00000000
00000000
00000000
,
00000000
00000000
00000000
00000000
,
00000000
00000000
00000000
00000000
,
00000000
00000000
00000000
00000000
,
00000000
00000000
00000000
00000000
,
00000000
00000000
00000000
00000000
,
00010000
00001000
00000000
00000010
00000000
00000000
00000100
00001000
,
00000002
00000000
00000003
00000000
,
00000100
00001000
00000000
00010000
00000000
00000000
00100000
10000000
,
00020000
00000000
00130000
00100000
,
01000000
00010000
00000000
00001000
00000000
00000000
00000100
00000010
,
00002000
00000000
00003000
00000000
,
00000100
00000000
00000010
00000000
00000000
00000000
00000001
00000000
00000000
00000000
00000000
00000000
00001000
00000000
00000010
00010000
,
00002000
00000000
00103000
00100000
,
01000000
10000000
00100000
00000000
01000000
00000000
00001000
00010000
,
00001000
00000010
00000100
00000000
00001000
00000000
00000001
00000100
,
00000010
00001000
00000010
00000000
00010000
00000000
00100000
01000000
,
00010000
00100000
01000000
00000000
11000000
00000000
11000000
00000000
,
10000000
00010000
01000000
00000000
00001000
00000000
00010000
00000100
,
00001000
00000010
00000100
00000000
00000001
00000000
00000010
00000000
,
00001000
00010000
01000000
00000000
00100000
00000000
00001000
00010000
,
00100000
01000000
00010000
00000000
10010000
00000000
10010000
00000000
,
10000000
01000000
00010000
00001000
00000000
10000000
00100000
00010000
,
00001000
00000010
00000100
00001000
,
00000001
00000100
00001000
00010000
00000000
00000001
00000010
00001000
,
00010000
00100000
01100000
01100000
,
10000000
01000000
00100000
00001000
00000000
10000000
00100000
01000000
,
00001000
00010000
00000100
00001000
,
00000001
00000100
00000010
00010000
00000000
00000001
00000010
00000100
,
00010000
00001000
01001000
01001000
,
01000000
00001000
00010000
00000010
00000000
00100000
00001000
00010000
,
00000100
00001000
00000001
00000100
,
00000010
00010000
00001000
01000000
00000000
00000100
00010000
00001000
,
00100000
00010000
01010000
01010000
,
01000000
00001000
00010000
00000100
00000000
00100000
00001000
00010000
,
00000010
00001000
00000001
00000010
,
00000100
00010000
00001000
01000000
00000000
00000010
00010000
00001000
,
00100000
00010000
10010000
10010000
,
10000000
00000000
00000000
00000000
10000000
01000000
00000000
00000000
00010000
00000000
00000000
00010000
00000000
00000000
00010000
00000000
,
00000000
00001000
00000010
00000100
00001000
00000001
00000100
00000000
,
00000010
00010000
00001000
00000010
00000100
00000000
00001000
00000001
,
00000100
00000000
00000010
00010000
00001000
01000000
00010000
00000000
,
00100000
00010000
01000000
00001000
00010000
00000000
01000000
10000000
,
00100000
00000000
00000000
00000000
01000000
00000000
00010000
00000000
00000000
00010000
00100000
00000000
00001000
00000000
00000000
00000000
,
00010000
00000010
00001000
00000100
00000001
00000000
00000100
00000010
,
00000001
00000001
00000001
00000000
00000100
00001000
00010000
00000000
,
01002000
00103000
00020100
00030010
,
00102000
00000000
00000000
00000000
01003000
00000000
00000000
00000000
00001000
00010000
00001000
00000000
00100000
00000000
00000000
00000000
,
00001000
00010000
00100000
01000000
00100000
00000000
10000000
00010000
,
00100000
00000000
01000000
00010000
00001000
00010000
00000010
00000000
,
00001000
00000100
00000010
00000001
00001000
00000000
00000010
00000100
,
00001000
00000000
00000000
00000000
01000000
00000000
00010000
00000000
00000000
00010000
00100000
00000000
01000000
00000000
00000000
00000000
,
00010000
00001000
01000000
00010000
10000000
00000000
01000000
00010000
,
00001000
00001000
00001000
00000000
00000010
00000100
00001000
00000000
,
00020010
00030100
00102000
01003000
,
00020100
00000000
00000000
00000000
00030010
00000000
00000000
00000000
01000000
00010000
01000000
00000000
00001000
00000000
00000000
00000000
,
10000000
01000000
00010000
00001000
00200000
00000000
00310000
01000000
,
00100000
00000000
00010000
00000000
00001000
00000000
00100000
00000000
00010000
00000000
01000000
00000000
00001000
00010000
00000000
00000000
,
00000100
00010000
00001000
00000010
00000002
00000000
00000103
00001000
,
00000100
00000000
00000001
00000000
00000010
00000000
00000100
00000000
00010000
00000000
00001000
00000000
01000000
00010000
00000000
00000000
,
10000000
00100000
00010000
00001000
00200000
00000000
01300000
00010000
,
00001000
00000000
01000000
00000000
00010000
10000000
00000000
00000000
01000000
00000000
00000000
01000000
00010000
00000000
00000000
00010000
,
00002000
00000000
00000000
00000000
00103000
00000000
00001000
00000000
01000000
00010000
01000000
00000000
00100000
00000000
00000000
00000000
,
00020000
00000000
00000000
00000000
00031000
00000000
00000010
00000000
00000100
00001000
00000100
00000000
00000010
00000000
00000000
00000000
,
00000001
00000100
00001000
00010000
00000020
00000000
00001030
00000100
,
00010000
00000000
00001000
00000000
01000000
00010000
00000000
00000000
00100000
00000000
00010000
00000000
01000000
00000000
00000000
00000000
,
01002000
00000000
00000000
00000000
00103000
00000000
00000000
00000000
00020100
00000000
00000000
00000000
00030010
00000000
00000000
00010000
,
00001000
00001000
00001000
00000000
00000010
00000100
00001000
00000000
,
00000001
00000100
00000000
00000000
00001000
00000000
00000100
00000000
00000010
00000000
00000010
00000000
00000010
00000000
00000000
00000000
,
00010000
00001000
00100000
01000000
10000000
00100000
00010000
00001000
,
00100000
00010000
01000000
00001000
00000100
00001000
00010000
00000010
,
00001000
00000000
00001000
00000000
00001000
00000000
00000000
00000001
00000100
00000001
00000100
00000000
00001000
00000000
00020000
00000000
,
00000000
00000000
00000000
00000000
,
00030000
00000000
00000000
00000000
;
