#TITLE:Come Home;
#ARTIST:Fracus & Darwin;
#BANNER:Come Home.png;
#BACKGROUND:Come Home-bg.png;
#MUSIC:Come Home.ogg;
#OFFSET:1.368;
#SAMPLESTART:76.804;
#SAMPLELENGTH:15;
#BPMS:0=175;
#STOPS:192=1.029,349=1.029;

//---------------dance-single - Marten-ESP----------------
#NOTES:
     dance-single:
     Marten:
     Hard:
     13:
     0.592650,0.690232,0.264649,0.493534,0.193122,580,543,37,69,0,0,0.592650,0.690232,0.264649,0.493534,0.193122,580,543,37,69,0,0:
// measure 0
0000
0000
0000
0000
,  // measure 1
0000
0000
0000
0000
,  // measure 2
0000
0000
0000
0000
,  // measure 3
0000
0000
0000
0000
,  // measure 4
0000
0000
0000
0000
,  // measure 5
0000
0000
1000
1000
0000
0001
0001
0000
,  // measure 6
0000
0100
0000
0100
,  // measure 7
0000
0000
0001
0001
0000
1000
1000
0000
,  // measure 8
0000
0100
0000
0100
,  // measure 9
0010
0000
0001
0000
0010
0000
0100
0000
0000
1000
0000
0000
1000
0000
0000
0000
,  // measure 10
0010
0000
1000
0000
0010
0000
0100
0000
0000
0001
0000
0000
0001
0000
0000
0000
,  // measure 11
1000
0000
0100
0000
0010
0000
0100
0000
0000
1000
0000
0000
0010
0000
0100
0000
,  // measure 12
0001
0000
0010
0000
0000
1100
0000
0000
1001
0000
0000
0101
0000
0000
0110
0000
,  // measure 13
0000
0000
1000
1000
0000
0001
0001
0000
,  // measure 14
0000
0100
0020
0130
,  // measure 15
2000
0000
3001
0001
0000
1000
1000
0000
,  // measure 16
0000
0100
0020
0130
,  // measure 17
2000
0000
0000
0100
0000
0000
0100
0000
0000
0000
0001
0000
0000
0000
3010
0000
,  // measure 18
0020
0000
0000
0100
0000
0000
0100
0000
0000
0000
1000
0000
0000
0000
0130
0000
,  // measure 19
0200
0000
0000
0001
0000
0000
0001
0000
0000
0000
0010
0000
0000
0000
0301
0000
,  // measure 20
0002
0000
0000
0010
0000
0000
0013
0000
0001
0000
0010
0000
0100
0000
1000
0000
,  // measure 21
0002
0000
0000
0100
0000
0000
0100
0000
0000
0000
0010
0000
0000
0000
1003
0000
,  // measure 22
2000
0000
0000
0010
0000
0000
3010
0000
1000
0000
0010
0000
0100
0000
0001
0000
,  // measure 23
0020
0000
0000
0100
0000
0000
0100
0000
0000
0000
0001
0000
0000
0000
0130
0000
,  // measure 24
0200
0000
0000
0001
0000
0000
1300
0000
2000
0000
0000
0001
0000
0000
3010
0000
,  // measure 25
0200
0000
0000
0302
0000
0000
2003
0000
,  // measure 26
0100
0000
0000
0100
0000
0000
0100
0000
0000
0000
0001
0000
0000
0000
3001
0000
,  // measure 27
0002
0000
0000
0010
0000
0000
0010
0000
0000
0000
0100
0000
0000
0000
0013
0000
,  // measure 28
0020
0000
0000
0001
0000
0000
0031
0000
1000
0000
0010
0000
0100
0000
0001
0000
,  // measure 29
0200
0000
0000
1000
0000
0000
1000
0000
0000
0000
0001
0000
0000
0000
0301
0000
,  // measure 30
0002
0000
0000
0010
0000
0000
0013
0000
0001
0000
0010
0000
0100
0000
1000
0000
,  // measure 31
0020
0000
0000
1000
0000
0000
1000
0000
0000
0000
0100
0000
0000
0000
0130
0000
,  // measure 32
0010
0000
1000
0000
0100
0000
0010
0000
0001
0010
0000
0001
0010
0000
0100
0000
,  // measure 33
1000
0101
0002
0013
,  // measure 34
2000
0000
0000
0000
3010
0000
0000
0000
0001
0010
0001
0000
1000
0000
0200
0000
,  // measure 35
0000
1300
0002
0103
,  // measure 36
2000
0000
0000
0000
3100
0000
0000
0000
0001
0100
0001
0000
1000
0000
0002
0000
,  // measure 37
0000
0103
0020
1030
,  // measure 38
0200
0000
0310
0000
2000
0000
3010
0001
,  // measure 39
0020
0100
0000
0130
,  // measure 40
1000
0000
0100
1000
0010
1010
0000
0101
,  // measure 41
0001
1100
2000
3010
,  // measure 42
0002
0000
0000
0000
0013
0000
0000
0000
1000
0010
1000
0000
0001
0000
0200
0000
,  // measure 43
0000
0301
2000
3100
,  // measure 44
0002
0000
0000
0000
0103
0000
0000
0000
1000
0100
1000
0000
0001
0000
2000
0000
,  // measure 45
0000
3100
0020
0031
,  // measure 46
0200
0000
0310
0000
0002
0000
0013
1000
,  // measure 47
0020
0100
0000
0130
,  // measure 48
1001
0000
0001
0100
0001
0010
0001
0100
,  // measure 49
2000
0000
3001
0010
2000
0000
3001
0010
,  // measure 50
2000
0000
3001
0100
1000
0100
0010
0001
,  // measure 51
0100
1000
0100
0001
0010
0100
1100
0000
,  // measure 52
0101
0000
1000
0100
1000
0010
1000
0100
,  // measure 53
0002
0000
1003
0010
0002
0000
1003
0010
,  // measure 54
0002
0000
1003
0100
0001
0100
0010
1000
,  // measure 55
0100
0001
0100
1000
0010
0100
0101
0000
,  // measure 56
1100
0000
1000
0010
1000
0010
0001
0010
,  // measure 57
0001
0010
1000
0100
1000
0100
0001
0100
,  // measure 58
0001
0100
1000
0010
0001
1000
0100
0001
,  // measure 59
2000
0000
3001
0000
0101
0000
0001
0010
,  // measure 60
1000
0010
0002
0000
0103
0000
0010
0100
,  // measure 61
0110
1000
1010
2000
,  // measure 62
3001
0000
0012
0000
0100
0000
0013
0001
,  // measure 63
0100
0001
1002
0000
0000
0000
0000
0100
,  // measure 64
0000
0000
0103
0000
0101
0000
0001
0000
0010
0000
0100
0000
1000
0100
0000
1000
,  // measure 65
0100
0000
1000
0000
0010
0000
0100
0000
0010
0000
1000
0000
0001
0010
0000
0001
,  // measure 66
0010
0000
0100
0000
1000
0000
0001
0000
0100
0000
1000
0000
0100
0001
0000
0100
,  // measure 67
0001
0000
1000
0000
0100
0000
1000
0000
0001
0100
0000
0001
0010
0000
0100
1000
,  // measure 68
0000
0010
1000
0000
0001
0000
0100
0000
1000
0000
0100
0000
0001
0010
0000
0001
,  // measure 69
0010
0000
0100
0000
1000
0000
0100
0000
0001
0000
0100
0000
1000
0010
0000
1000
,  // measure 70
0010
0000
0100
0000
0001
0000
0010
0000
1000
0000
0010
0000
0001
0100
0000
0001
,  // measure 71
0100
0000
0010
0000
1000
0000
0001
0000
1000
0000
0100
0000
0010
0001
0000
0010
,  // measure 72
0100
1000
0020
1000
1030
0002
0010
0013
,  // measure 73
0011
0000
0000
0000
0100
0000
1000
0000
0001
0000
1000
0000
0100
1000
0000
0001
,  // measure 74
1000
0010
2000
0100
3100
0020
0100
0130
,  // measure 75
1100
0000
0102
0000
1003
0100
1000
0010
,  // measure 76
0100
0000
0001
0000
1000
0000
0100
0000
0001
0000
0100
0000
1000
0010
0000
1000
,  // measure 77
0010
0000
0100
0000
0001
0000
0100
0000
1000
0000
0100
0000
0001
0010
0000
0001
,  // measure 78
0010
0000
0100
0000
1000
0000
0010
0000
0001
0000
0010
0000
1000
0100
0000
1000
,  // measure 79
0100
0010
0022
0000
0000
0000
0000
0000
,  // measure 80
0033
0000
1001
0000
1100
0000
1000
0010
,  // measure 81
0100
0010
1000
0000
1010
0000
0100
0001
,  // measure 82
1000
0001
0010
0000
0011
0000
0010
0100
,  // measure 83
1000
1100
0101
0120
,  // measure 84
0130
0000
1010
0000
0101
0000
0001
0010
,  // measure 85
1000
0010
0001
0000
0101
0000
1000
0010
,  // measure 86
0001
0010
1000
0000
1100
0000
1000
0100
,  // measure 87
0010
0001
1000
0000
0001
0100
1000
0100
,  // measure 88
0001
0010
1000
0010
0001
0100
0010
1000
,  // measure 89
0001
0010
0100
1000
0001
0100
1000
0100
,  // measure 90
0001
0010
1000
0010
0001
0010
0100
1000
,  // measure 91
0200
0000
0000
0000
0310
0000
0001
0100
0001
0000
0100
0000
2000
0000
0000
0000
,  // measure 92
3001
0010
2000
0000
3001
0010
2000
0000
,  // measure 93
3001
0000
0100
0000
1000
0000
0001
0100
0001
0000
1000
0000
0100
0000
1000
0000
,  // measure 94
0010
0100
0001
1000
2002
0000
3003
0000
,  // measure 95
2020
3030
0202
0000
,  // measure 96
0000
0000
0303
0000
;

//---------------dance-single - Marten-DSP----------------
#NOTES:
     dance-single:
     Marten:
     Medium:
     10:
     0.457771,0.517674,0.200275,0.557908,0.064374,448,420,28,78,0,0,0.457771,0.517674,0.200275,0.557908,0.064374,448,420,28,78,0,0:
0000
0000
0000
0000
,
0000
0000
0000
0000
,
0000
0000
0000
0000
,
0000
0000
0000
0000
,
0000
0000
0000
0000
,
0000
0000
0001
0001
0000
1000
1000
0000
,
0000
0100
0000
0100
,
0000
0000
1000
1000
0000
0001
0001
0000
,
0000
0100
0000
0100
,
0002
0000
0000
0000
1003
0000
0001
0000
0000
0100
0000
0000
0001
0000
0000
0000
,
2000
0000
0000
0000
3100
0000
1000
0000
0000
0001
0000
0000
1000
0000
0000
0000
,
0200
0000
0000
0000
0310
0000
0100
0000
0000
1000
0000
0000
0001
0000
0000
0000
,
0100
0000
0001
0000
0000
0001
0000
0000
0011
0000
0000
1001
0000
0000
1100
0000
,
0000
0000
1000
1000
0000
0001
0001
0000
,
0000
0100
0020
0000
,
0130
0000
0001
0001
0000
1000
1000
0000
,
0000
0100
0020
0130
,
2100
0000
0000
0001
0000
0000
0001
0000
,
3020
0000
0000
0100
0000
0000
0100
0000
,
0230
0000
0000
0001
0000
0000
0001
0000
,
0302
0000
0000
0013
0000
0001
0010
0000
,
0200
0000
0000
1000
0000
0000
1000
0000
,
2300
0000
0000
3001
0000
1000
0001
0000
,
0200
0000
0000
0001
0000
0000
0001
0000
,
0320
0100
2030
0100
,
3002
0000
0000
0023
0000
0000
0230
0000
,
2300
0000
0000
0001
0000
0000
0001
0000
,
3020
0000
0000
0100
0000
0000
0100
0000
,
0230
0000
0000
0301
0000
0100
0001
0000
,
2000
0000
0000
0100
0000
0000
0100
0000
,
3002
0000
0000
0013
0000
0001
0010
0000
,
0200
0000
0000
0010
0000
0000
0010
0000
,
0320
0000
0000
0001
0000
0031
0010
0100
,
1000
1001
2000
3010
,
0020
0000
1030
0000
1000
0100
1000
0002
,
0000
0103
0002
0013
,
0020
0000
0031
0000
0001
0100
0001
1000
,
0200
1300
2000
3010
,
0020
0031
0002
0103
,
1000
0100
0000
0100
,
0010
0000
0100
0000
1000
0001
0000
1000
,
0001
1001
0002
0013
,
0020
0000
0031
0000
0001
0100
0001
2000
,
0000
3100
2000
3010
,
0020
0000
1030
0000
1000
0100
1000
0001
,
0200
0301
0002
0013
,
0020
1030
2000
3100
,
0001
0000
0100
0000
0001
0010
0100
0010
,
0001
0000
1000
0100
1000
0000
1020
0000
,
0100
0230
1000
2300
,
0100
0000
3100
0001
0100
0001
0010
0000
,
0001
1000
0100
1100
,
0101
0000
0001
0100
0001
0000
0021
0000
,
0100
0230
0001
0302
,
0100
0000
0103
1000
0100
1000
0010
0000
,
1000
0001
0100
0101
,
1100
0000
0100
0000
1000
0010
0200
0000
,
0301
0010
0200
0000
1300
0100
0020
0000
,
0031
0100
0020
0000
1030
0010
0100
0001
,
0020
0000
0130
0000
1000
0100
0010
0100
,
1000
0001
0200
0000
0310
0000
1000
0010
,
1000
0001
0100
0020
,
0130
0000
2001
0000
3100
0000
0010
0001
,
1000
0001
0100
0120
,
0000
0000
0000
0000
1030
0000
0100
0000
1000
0000
0100
0000
0000
1000
0000
0000
,
0010
0000
0000
0000
0100
0000
0001
0000
0100
0000
0001
0000
0000
1000
0000
0000
,
0100
0000
0000
0000
0010
0000
0001
0000
0010
0000
0001
0000
0000
1000
0000
0000
,
0010
0000
0000
0000
1000
0000
0010
0000
0000
1000
0000
0000
0100
0000
0000
0010
,
0000
0000
0001
0000
0100
0000
0001
0000
1000
0000
0100
0000
0000
1000
0000
0000
,
0010
0000
0000
0000
1000
0000
0001
0000
0010
0000
0001
0000
0000
0100
0000
0000
,
0001
0000
0000
0000
0100
0000
0010
0000
1000
0000
0010
0000
0000
1000
0000
0000
,
0001
0000
0000
0000
0010
0000
0001
0000
0000
0100
0000
0000
0010
0000
0000
0100
,
0000
0001
2000
3100
1000
0002
0103
0001
,
2000
0000
3100
0000
1100
0000
1000
0010
,
1000
0000
0002
0000
0013
0001
0100
0000
,
0110
0000
2001
0000
3100
0000
2000
3020
,
0230
0000
0302
0000
1003
0000
0100
0000
1000
0000
0100
0000
0000
0010
0000
0000
,
0100
0000
0000
0000
1000
0000
0010
0000
1000
0000
0010
0000
0000
0100
0000
0000
,
0001
0000
0000
0000
1000
0000
0001
0000
1000
0000
0001
0000
0000
0010
0000
0000
,
0100
2002
0000
0000
,
3003
1100
1001
0001
,
0100
0001
1000
0000
0100
0000
1000
0000
,
0010
0000
0110
0000
0101
0000
0001
1000
,
0001
0100
0001
0000
1000
0000
0200
0000
,
0310
0000
0110
0000
0011
0000
0001
1000
,
0001
1000
1100
1000
,
0010
1000
0001
0000
0101
0000
0001
0010
,
0100
0000
0110
0000
1000
0100
1000
0000
,
0001
0100
0001
0000
1000
0010
1000
0000
,
0001
0010
0001
0000
0100
0010
1000
0000
,
0100
0010
0001
0000
1000
0010
1000
0001
,
0200
0000
0000
0000
0302
0000
1003
0010
,
0200
0000
0301
0010
0200
0000
1300
0100
,
0020
0000
0031
0200
0000
0000
0301
0000
,
1000
0001
1000
0001
0020
0000
0000
0000
,
0130
0010
0220
0000
,
0000
0000
0330
0000
;

//---------------dance-double - NewbStepper-EDP----------------
#NOTES:
     dance-double:
     NewbStepper:
     Hard:
     14:
     0.560973,0.690232,0.143053,0.457771,0.175240,549,529,20,64,0,0,0.560973,0.690232,0.143053,0.457771,0.175240,549,529,20,64,0,0:
00000000
00000000
00000000
00000000
,
00000000
00000000
00000000
00000000
,
00000000
00000000
00000000
00000000
,
00000000
00000000
00000000
00000000
,
00000000
00000000
00000000
00000000
,
00000000
00000000
10000000
10000000
00000000
00010000
00010000
00000000
,
00000000
01000000
00000000
01000000
,
00000000
00000000
00010000
00010000
00000000
10000000
10000000
00000000
,
00000000
01000000
00000000
01000000
,
00010000
00000000
00001000
00000000
00010000
00000000
00000100
00000000
00000000
00001000
00000000
00000000
00001000
00000000
00000000
00000000
,
00000010
00000000
00001000
00000000
00000010
00000000
00000100
00000000
00000000
00000001
00000000
00000000
00000001
00000000
00000000
00000000
,
00001000
00000000
00000100
00000000
00000010
00000000
00001000
00000000
00000000
00010000
00000000
00000000
00000100
00000000
00001000
00000000
,
00010000
00000000
00100000
00000000
00000000
11000000
00000000
00000000
10010000
00000000
00000000
01010000
00000000
00000000
01100000
00000000
,
00000000
00000000
00010000
00010000
00000000
10000000
10000000
00000000
,
00000000
01000000
00100000
00010000
,
00001000
00000000
00000001
00000001
00000000
00001000
00001000
00000000
,
00000000
00000100
00000010
00001000
,
00020000
00000000
00000000
00000100
00000000
00000000
00000100
00000000
00000000
00000000
00001000
00000000
00000000
00000000
00100000
00000000
,
00230000
00000000
00000000
01000000
00000000
00000000
01000000
00000000
00000000
00000000
10000000
00000000
00000000
00000000
01000000
00000000
,
02300000
00000000
00000000
00010000
00000000
00000000
00010000
00000000
00000000
00000000
00100000
00000000
00000000
00000000
00001000
00000000
,
03002000
00000000
00000000
00010000
00000000
00000000
00013000
00000000
00001000
00000000
00000010
00000000
00000100
00000000
00001000
00000000
,
00000002
00000000
00000000
00000100
00000000
00000000
00000100
00000000
00000000
00000000
00000010
00000000
00000000
00000000
00001000
00000000
,
00002003
00000000
00000000
00000010
00000000
00000000
00003010
00000000
00001000
00000000
00000100
00000000
00010000
00000000
00001000
00000000
,
00200000
00000000
00000000
01000000
00000000
00000000
01000000
00000000
00000000
00000000
10000000
00000000
00000000
00000000
00010000
00000000
,
00320000
00000000
00000000
01000000
00000000
00000000
10000000
00000000
20030000
00000000
00000000
01000000
00000000
00000000
00100000
00000000
,
30200000
00000000
00000000
00320000
00000000
00000000
00032000
00000000
,
00000010
00000000
00000000
00000010
00000000
00000000
00000010
00000000
00000000
00000000
00010000
00000000
00000000
00000000
00000100
00000000
,
00003200
00000000
00000000
00000001
00000000
00000000
00000001
00000000
00000000
00000000
00000010
00000000
00000000
00000000
00001000
00000000
,
00002300
00000000
00000000
00010000
00000000
00000000
00013000
00000000
00000100
00000000
00001000
00000000
00000010
00000000
00010000
00000000
,
00002000
00000000
00000000
01000000
00000000
00000000
01000000
00000000
00000000
00000000
00010000
00000000
00000000
00000000
00010000
00000000
,
00023000
00000000
00000000
00100000
00000000
00000000
00130000
00000000
10000000
00000000
00100000
00000000
01000000
00000000
00010000
00000000
,
00200000
00000000
00000000
01000000
00000000
00000000
01000000
00000000
00000000
00000000
00001000
00000000
00000000
00000000
00301000
00000000
,
00010000
00000000
00000100
00000000
00001000
00000000
00000010
00000000
00000000
00000100
00000001
00000000
00000010
00000000
00000100
00000000
,
00001000
00000101
00000002
00000013
,
00002000
00000000
00000000
00000000
00013000
00000000
00000000
00000000
00100000
10000000
00000000
00000000
01000000
00000000
00200000
00000000
,
00000000
00310000
20000000
31000000
,
00020000
00000000
00000000
00000000
00031000
00000000
00000000
00000000
00000100
00000001
00000000
00000000
00000010
00000000
00000200
00000000
,
00000000
00001300
00000020
00010030
,
00002000
00103000
00020000
00031000
,
00000020
00000100
00000000
00000130
,
00001000
00010000
01000000
00000000
00100000
00010000
01000000
00001000
,
00010000
11000000
20000000
30100000
,
00020000
00000000
00000000
00000000
00031000
00000000
00000000
00000000
00000010
00000001
00000000
00000000
00000100
00000000
00000020
00000000
,
00000000
00001030
00000002
00000103
,
00002000
00000000
00000000
00000000
00013000
00000000
00000000
00000000
01000000
10000000
00000000
00000000
00100000
00000000
02000000
00000000
,
00000000
03010000
00200000
00301000
,
00020000
00030010
00002000
00013000
,
00200000
01000000
00000000
01300000
,
10010000
00000000
10000000
01000000
10000000
00100000
10000000
01000000
,
00020000
00000000
00031000
00000010
00000002
00000000
00001003
00000010
,
00000002
00000000
00001003
00000100
00000001
00000010
00001000
00010000
,
01000000
10000000
01000000
00100000
01000000
00010000
00011000
00000000
,
00001010
00000000
00000001
00000100
00000001
00000010
00000001
00000100
,
00002000
00000000
00013000
00100000
20000000
00000000
30010000
00100000
,
20000000
00000000
30010000
01000000
10000000
00100000
00010000
00001000
,
00000100
00000001
00000100
00000010
00000100
00001000
00011000
00000000
,
00110000
00000000
10000000
00100000
10000000
00100000
00010000
00100000
,
00010000
00001000
00000100
00001000
00000100
00000001
00000100
00000001
,
00000010
00001000
00000010
00001000
00010000
01000000
00010000
01000000
,
20000000
00000000
30010000
00000000
01010000
00000000
00100000
10000000
,
00100000
00010000
00002000
00000000
00003100
00000000
00000010
00000100
,
00000110
00001000
00000010
00000100
,
00000001
00002000
00000010
00000001
,
00000100
00023000
00100000
10000000
,
01030000
00000000
00000000
00000000
01010000
00000000
00010000
00000000
00100000
00000000
01000000
00000000
10000000
01000000
00000000
10000000
,
01000000
00000000
10000000
00000000
00100000
00000000
01000000
00000000
00001000
00000000
00010000
00000000
00000100
00001000
00000000
00000100
,
00001000
00000000
00000010
00000000
00000100
00000000
00000001
00000000
00000100
00000000
00001000
00000000
00010000
00001000
00000000
00010000
,
00001000
00000000
01000000
00000000
00010000
00000000
10000000
00000000
01000000
00100000
00000000
00000000
00010000
00000000
00000000
10000000
,
01000000
00000000
00010000
00000000
00001000
00000000
00000100
00000000
00000001
00000000
00000100
00000000
00001000
00010000
00000000
00001000
,
00010000
00000000
01000000
00000000
10000000
00000000
01000000
00000000
00010000
00000000
01000000
00000000
10000000
00100000
00000000
10000000
,
00100000
00000000
01000000
00000000
00001000
00000000
00010000
00000000
01000000
00000000
00010000
00000000
00001000
00000100
00000000
00001000
,
00000100
00000010
00001000
00000001
00001000
00000100
00000010
00000001
,
00000100
00001000
00020000
00001000
00031000
02000000
00100000
03100000
,
01100000
00000000
00000000
00000000
01000000
00000000
00010000
00000000
10000000
00000000
00010000
00000000
01000000
00010000
00000000
10000000
,
01000000
00010000
00002000
00010000
00013000
00000020
00000100
00000130
,
00000110
00000000
00001001
00000000
00001000
00000100
00001000
00000010
,
00000100
00000000
00000001
00000000
00000010
00000000
00000100
00000000
00000010
00000000
00001000
00000000
00010000
00001000
00000000
00010000
,
00001000
00000000
01000000
00000000
00010000
00000000
01000000
00000000
10000000
00000000
01000000
00000000
00010000
00100000
00000000
00010000
,
00100000
00000000
01000000
00000000
10000000
00000000
00100000
00000000
00010000
00000000
00001000
00000000
00000100
00000001
00000000
00000100
,
00000001
00000010
00000220
00000000
00000000
00000000
00000000
00000000
,
00000330
00002000
00000010
00000001
,
00000100
00023000
00100000
10000000
,
01000000
00032000
00000010
00000001
,
00000100
00023000
00100000
10000000
,
01000000
00000000
00031000
00000100
00000010
00000000
00001000
00000010
,
00000001
00000010
00001000
00000000
00011000
00000000
00010000
00100000
,
10000000
00100000
00010000
00000000
00011000
00000000
00001000
00000100
,
00000001
00000100
00001000
00000000
00010000
01000000
10000000
01000000
,
00100000
00010000
01000000
00100000
10000000
01000000
00010000
00001000
,
00000100
00000001
00001000
00000010
00000100
00000001
00000010
00001000
,
00010000
00100000
10000000
00100000
00010000
00001000
01000000
00100000
,
02000000
00000000
00000000
00000000
03010000
00000000
10000000
01000000
10000000
00000000
01000000
00000000
00020000
00000000
00000000
00000000
,
10030000
00100000
00020000
00000000
00031000
00000100
00000002
00000000
,
00001003
00000000
00000010
00000000
00000001
00000000
00001000
00000010
00001000
00000000
00000001
00000000
00000100
00000000
00001000
00000000
,
00010000
01000000
10000000
00010000
00200000
00000000
00000000
00000000
,
00002000
00300000
00020000
00000000
,
00000000
00000000
00033000
00000000
;

//---------------dance-double - NewbStepper-DDP----------------
#NOTES:
     dance-double:
     NewbStepper:
     Medium:
     11:
     0.456749,0.517674,0.200275,0.536450,0.064374,447,419,28,75,0,0,0.456749,0.517674,0.200275,0.536450,0.064374,447,419,28,75,0,0:
00000000
00000000
00000000
00000000
,
00000000
00000000
00000000
00000000
,
00000000
00000000
00000000
00000000
,
00000000
00000000
00000000
00000000
,
00000000
00000000
00000000
00000000
,
00000000
00000000
00000001
00000001
00000000
00001000
00001000
00000000
,
00000000
00000100
00000000
00000100
,
00000000
00000000
00001000
00001000
00000000
00000001
00000001
00000000
,
00000000
00000100
00000000
00000100
,
00000002
00000000
00000000
00000000
00001003
00000000
00000100
00000000
00000000
00010000
00000000
00000000
00001000
00000000
00000000
00000000
,
02000000
00000000
00000000
00000000
03010000
00000000
10000000
00000000
00000000
00100000
00000000
00000000
10000000
00000000
00000000
00000000
,
02000000
00000000
00000000
00000000
03100000
00000000
01000000
00000000
00000000
00010000
00000000
00000000
00001000
00000000
00000000
00000000
,
00000100
00000000
00000001
00000000
00000000
00000010
00000000
00000000
00001010
00000000
00000000
00011000
00000000
00000000
01010000
00000000
,
00000000
00000000
10000000
10000000
00000000
00010000
00010000
00000000
,
00000000
01000000
00200000
00000000
,
01300000
00000000
00010000
00010000
00000000
10000000
10000000
00000000
,
00000000
01000000
00200000
00310000
,
00012000
00000000
00000000
00000001
00000000
00000000
00000001
00000000
,
00003020
00000000
00000000
00000100
00000000
00000000
00000100
00000000
,
00000230
00000000
00000000
00001000
00000000
00000000
00001000
00000000
,
00002300
00000000
00000000
00103000
00000000
00010000
00100000
00000000
,
02000000
00000000
00000000
10000000
00000000
00000000
10000000
00000000
,
23000000
00000000
00000000
31000000
00000000
00010000
00001000
00000000
,
00000200
00000000
00000000
00000001
00000000
00000000
00000001
00000000
,
00000320
00000100
00002030
00000100
,
00003002
00000000
00000000
00000023
00000000
00000000
00002030
00000000
,
00023000
00000000
00000000
00100000
00000000
00000000
00100000
00000000
,
00032000
00000000
00000000
01000000
00000000
00000000
01000000
00000000
,
02003000
00000000
00000000
03010000
00000000
01000000
00010000
00000000
,
20000000
00000000
00000000
01000000
00000000
00000000
01000000
00000000
,
30020000
00000000
00000000
00130000
00000000
00010000
00100000
00000000
,
00002000
00000000
00000000
00010000
00000000
00000000
00010000
00000000
,
00023000
00000000
00000000
00000100
00000000
00030100
00001000
00000010
,
00000100
00001001
00000002
00000013
,
00000020
00000000
00001030
00000000
00001000
00010000
00001000
00000200
,
00000000
00001300
00020000
00130000
,
00200000
00000000
10300000
00000000
10000000
01000000
10000000
00010000
,
02000000
03010000
00020000
00031000
,
00002000
00003010
00000020
00000130
,
00000001
00000100
00000000
00000100
,
00001000
00000000
00010000
00000000
01000000
10000000
00000000
10000000
,
00010000
10010000
20000000
30100000
,
00200000
00000000
00310000
00000000
00010000
00001000
00010000
02000000
,
00000000
03010000
00002000
00003010
,
00000020
00000000
00000031
00000000
00000001
00000100
00000001
00001000
,
00000200
00001300
00002000
00013000
,
00020000
00130000
00200000
01300000
,
10000000
00000000
01000000
00000000
10000000
00100000
00010000
00001000
,
00000100
00000000
00000001
00000100
00000001
00000000
00000021
00000000
,
00000100
00000230
00001000
00002300
,
00010000
00000000
00013000
01000000
00010000
01000000
00100000
00000000
,
10000000
01000000
00010000
00011000
,
00110000
00000000
10000000
01000000
10000000
00000000
10200000
00000000
,
01300000
02000000
03010000
00020000
,
00031000
00000000
00001000
00000100
00001000
00000100
00000010
00000000
,
00000001
00000100
00001000
00011000
,
00001010
00000000
00000010
00000000
00000001
00000100
00000020
00000000
,
00001030
00010000
02000000
00000000
03001000
00010000
00200000
00000000
,
10300000
01000000
00200000
00000000
01300000
00010000
00001000
00000010
,
00000002
00000000
00000103
00000000
00000010
00000100
00001000
00010000
,
00100000
10000000
02000000
00000000
03100000
00000000
00010000
00100000
,
00010000
10000000
01000000
00200000
,
01300000
00000000
00020000
00000000
00031000
00000000
00000100
00000001
,
00001000
00000001
00000100
00000120
,
00000000
00000000
00000000
00000000
00001030
00000000
00000100
00000000
00001000
00000000
00000100
00000000
00000000
00010000
00000000
00000000
,
00001000
00000000
00000000
00000000
01000000
00000000
00010000
00000000
01000000
00000000
00010000
00000000
00000000
10000000
00000000
00000000
,
01000000
00000000
00000000
00000000
00010000
00000000
00001000
00000000
00010000
00000000
00001000
00000000
00000000
00000010
00000000
00000000
,
00000001
00000000
00000000
00000000
00000100
00000000
00001000
00000000
00000000
00010000
00000000
00000000
01000000
00000000
00000000
00100000
,
00000000
00000000
00010000
00000000
01000000
00000000
00010000
00000000
10000000
00000000
01000000
00000000
00000000
00010000
00000000
00000000
,
00001000
00000000
00000000
00000000
00000010
00000000
00000001
00000000
00001000
00000000
00000001
00000000
00000000
00000100
00000000
00000000
,
00001000
00000000
00000000
00000000
00010000
00000000
01000000
00000000
10000000
00000000
01000000
00000000
00000000
00100000
00000000
00000000
,
00010000
00000000
00000000
00000000
01000000
00000000
00010000
00000000
00000000
00100000
00000000
00000000
00001000
00000000
00000000
00010000
,
00000000
00000010
00002000
00003100
00001000
00000002
00000103
00000001
,
00002000
00000000
00013000
00000000
00011000
00000000
00010000
00100000
,
00010000
00000000
20000000
00000000
30100000
00010000
00001000
00000000
,
00011000
00000000
00001100
00000000
00000100
00000000
00000002
00000023
,
00000230
00000000
00002300
00000000
00003010
00000000
00000100
00000000
00001000
00000000
00010000
00000000
00000000
01000000
00000000
00000000
,
00100000
00000000
00000000
00000000
00100000
00000000
01000000
00000000
00010000
00000000
00001000
00000000
00000000
00000010
00000000
00000000
,
00000100
00000000
00000000
00000000
00000100
00000000
00000010
00000000
00001000
00000000
00010000
00000000
00000000
01000000
00000000
00000000
,
00100000
00022000
00000000
00000000
,
00033000
01010000
10010000
10000000
,
01000000
00010000
00001000
00000000
00000100
00000000
00000001
00000000
,
00000010
00000000
00000110
00000000
00001001
00000000
00000001
00001000
,
00000001
00000100
00001000
00000000
00010000
00000000
02000000
00000000
,
03100000
00000000
01100000
00000000
10010000
00000000
10000000
00100000
,
00010000
00001000
00011000
00000100
,
00000010
00001000
00000001
00000000
00000101
00000000
00000100
00001000
,
00010000
00000000
00011000
00000000
00100000
01000000
00100000
00000000
,
10000000
01000000
10000000
00000000
01000000
00010000
01000000
00000000
,
00010000
00001000
00010000
00000000
00001000
00000010
00001000
00000000
,
00000010
00000001
00000010
00000000
00000100
00001000
00000100
00010000
,
00002000
00000000
00000000
00000000
00203000
00000000
00310000
01000000
,
00200000
00000000
10300000
01000000
00200000
00000000
00310000
00001000
,
00000200
00000000
00010300
00001000
00000010
00000000
00000001
00000000
,
00000100
00001000
00011000
00000000
,
00010000
00001000
00022000
00000000
,
00000000
00000000
00033000
00000000
;

//---------------dance-single - NewbStepper-BSP----------------
#NOTES:
     dance-single:
     NewbStepper:
     Easy:
     6:
     0.222754,0.310605,0.064374,0.379091,0,218,209,9,53,0,0,0.222754,0.310605,0.064374,0.379091,0,218,209,9,53,0,0:
0000
0000
0000
0000
,
0000
0000
0000
0000
,
0000
0000
0000
0000
,
0000
0000
0000
0000
,
0000
0000
0000
0000
,
0000
1000
0000
1000
,
0000
0001
0000
0001
,
0000
0100
0000
0200
,
0000
0000
0000
0300
,
0000
0001
0000
0001
,
0000
1000
0000
1000
,
0000
0100
0000
0200
,
0000
0000
0000
0300
,
0000
2002
0000
0000
,
3003
0000
0001
0010
,
0200
0000
1000
0000
,
1000
0000
0320
0000
,
0002
0000
0000
0000
,
0000
0000
0000
0033
,
0000
0000
0000
0000
,
0000
0000
1000
0001
,
0020
0000
0000
0000
,
0000
0000
0031
1000
,
0020
0000
0000
0000
,
0100
0000
1030
0000
,
0010
0000
0000
0100
0000
0000
0002
0000
,
0000
0000
0000
0000
,
0000
0000
0000
0000
,
0003
0000
1000
0100
,
0020
0000
0001
0000
,
1000
0000
0031
0100
,
0020
0000
1000
0000
,
0001
0000
1030
0000
,
1001
0000
0010
0001
,
0100
0010
2000
0000
,
0100
0000
3010
1000
,
0100
0010
0002
0000
,
0203
0000
2300
0000
,
3020
0000
0032
0000
,
0200
0000
0003
0000
,
0000
0000
0000
0000
,
0310
0000
0010
1000
,
0100
0010
0002
0000
,
0100
0000
0013
0001
,
0100
0010
2000
0000
,
3200
0000
0302
0000
,
0023
0000
2030
0000
,
0200
0000
0000
3300
,
1001
0010
0001
0010
,
0001
2000
0000
3020
,
0000
0230
0000
0010
,
0010
0310
1000
0001
,
1000
1001
0000
0010
,
1000
0002
0000
0023
,
0000
0230
0000
0010
,
0010
0310
0001
1000
,
0001
1001
0000
0100
,
0100
1000
1000
0010
,
0010
0100
0100
0001
,
0001
0020
0000
0130
,
0000
0110
0000
0000
,
0001
1000
0001
0200
,
0000
0320
0000
1030
,
0001
1001
0000
0020
,
0030
1000
0100
1000
,
0000
0001
0100
0001
,
0000
1000
0010
1000
,
0000
0001
0010
0001
,
0000
1000
0100
0010
,
0001
1000
0010
0100
,
0001
0100
1000
0100
,
0001
0200
0000
0020
,
0330
0001
0100
0001
,
0000
1000
0100
1000
,
0000
0001
0010
0001
,
0000
1000
0010
1000
,
0000
0001
0100
0010
,
1000
0001
0010
0100
,
1000
0100
0001
0100
,
1000
0200
0000
0300
,
0000
0020
0000
0000
,
0000
0000
0000
0000
,
0000
0032
0000
0000
,
0000
0000
0000
0203
,
0000
0320
0000
0000
,
0000
0000
0000
2030
,
0000
3200
0000
0000
,
0000
0310
0001
0100
,
1000
0100
0001
0100
,
0010
0000
1000
0100
,
0001
0100
1000
0100
,
0010
0000
0001
1000
,
0200
0000
0320
0000
,
0032
0000
0000
0203
0000
0000
0010
0000
,
0010
0310
2002
3003
,
0010
0000
2002
0000
,
0000
0000
3003
0000
;

//---------------dance-single - NewbStepper-bSP----------------
#NOTES:
     dance-single:
     NewbStepper:
     Beginner:
     3:
     0.119552,0.273232,0.021458,0.114443,0,117,114,3,16,0,0,0.119552,0.273232,0.021458,0.114443,0,117,114,3,16,0,0:
0000
0000
0000
0000
,
0000
0000
0000
0000
,
0000
0000
0000
0000
,
0000
0000
0000
0000
,
0000
0000
0000
0000
,
0000
1000
0000
0000
,
0000
0001
0000
0000
,
0000
1000
0000
0000
,
0000
0000
0000
0000
,
0000
0001
0000
0000
,
0000
1000
0000
0000
,
0000
0001
0000
0000
,
0100
0000
0000
0000
,
0000
0000
0000
0000
,
0000
0000
0000
0000
,
0020
0000
0000
0000
,
0030
0000
0000
0000
,
0200
0000
0000
0000
,
0000
0000
0000
0000
,
0000
0000
0000
0300
,
0000
0000
0000
0000
,
0001
0000
0000
0000
,
0000
0000
0000
0000
,
1000
0000
0000
0000
,
0100
0000
0010
0000
,
0002
0000
0000
0000
,
0000
0000
0000
0000
,
0000
0000
0000
0003
,
0000
0000
0000
0000
,
1000
0000
0000
0000
,
0000
0000
0000
0000
,
0001
0000
0000
0000
,
0100
0000
0010
0000
,
1000
0000
0002
0000
,
0000
0000
0000
0003
,
0100
0000
2000
0000
,
0000
0000
0000
3000
,
0100
0000
0100
0000
,
0001
0000
0001
0000
,
0020
0000
0000
0030
,
0000
0000
0000
0000
,
0001
0000
2000
0000
,
0000
0000
0000
3000
,
0100
0000
0002
0000
,
0000
0000
0000
0003
,
0100
0000
0100
0000
,
1000
0000
1000
0000
,
0020
0000
0000
0030
,
0100
0000
0000
0000
,
0000
0001
0000
1000
,
0000
0020
0000
0000
,
0030
0000
0100
0100
,
0100
0000
0000
0010
,
0000
1000
0000
0001
,
0000
0020
0000
0000
,
0030
0000
0100
0100
,
0100
0000
0000
0001
,
0000
0001
0000
0010
,
0000
0010
0000
1000
,
0000
1000
0000
0100
,
0000
0200
0000
0000
,
0000
0300
0000
0020
,
0000
0000
0000
0030
,
0000
1001
0000
0000
,
0000
0010
0000
0000
,
0000
0001
0000
0000
,
0000
0100
0000
0000
,
0000
0010
0000
0000
,
0000
1000
0000
0000
,
0000
0100
0000
0000
,
0000
0002
0000
0003
,
0000
1001
0000
0000
,
0000
0010
0000
0000
,
0000
1000
0000
0000
,
0000
0100
0000
0000
,
0000
0010
0000
0000
,
0000
0001
0001
0000
,
0000
0100
0100
0000
,
0000
1000
1000
0000
,
0000
0020
0000
0030
,
0000
1000
0000
1000
,
0000
1000
0000
1000
,
0000
0001
0000
0001
,
0000
0001
0000
0001
,
0000
0100
0100
0100
,
0000
0010
0010
0010
,
0000
1000
1000
1000
,
1000
1000
0001
0000
,
0001
0000
1000
0000
,
1000
0000
0100
0000
,
0100
0000
0010
0000
,
0010
0000
0001
0000
,
0100
0000
0010
0000
,
1000
0000
0001
0000
,
0000
0000
0200
0000
,
0310
0000
1001
0000
;

//---------------dance-double - NewbStepper-BDP----------------
#NOTES:
     dance-double:
     NewbStepper:
     Easy:
     6:
     0.215602,0.310605,0.057221,0.379091,0,211,203,8,53,0,0,0.215602,0.310605,0.057221,0.379091,0,211,203,8,53,0,0:
00000000
00000000
00000000
00000000
,
00000000
00000000
00000000
00000000
,
00000000
00000000
00000000
00000000
,
00000000
00000000
00000000
00000000
,
00000000
00000000
00000000
00000000
,
00000000
00010000
00000000
00010000
,
00000000
00001000
00000000
00001000
,
00000000
01000000
00000000
02000000
,
00000000
00000000
00000000
03000000
,
00000000
00001000
00000000
00001000
,
00000000
00010000
00000000
00010000
,
00000000
00000200
00000000
00000000
,
00000000
00000000
00000000
00000300
,
00000000
00022000
00000000
00000000
,
00033000
00000000
00010000
00100000
,
02000000
00000000
10000000
00000000
,
10000000
00000000
03020000
00000000
,
00200000
00000000
00000000
00000000
,
00000000
00000000
00000000
00330000
,
00000000
00000000
00000000
00000000
,
00000000
00000000
00001000
00100000
,
02000000
00000000
00000000
00000000
,
00000000
00000000
03010000
00000010
,
00000200
00000000
00000000
00000000
,
00000001
00000000
00000310
00000000
,
00001000
00000000
00000000
00000001
00000000
00000000
00000200
00000000
,
00000000
00000000
00000000
00000000
,
00000000
00000000
00000000
00000000
,
00000300
00000000
00001000
00010000
,
00200000
00000000
10000000
00000000
,
00010000
00000000
10300000
01000000
,
00020000
00000000
00001000
00000000
,
00000010
00000000
00031000
00000000
,
00011000
00000000
00000010
00000001
,
00000100
00000010
00002000
00000000
,
00010000
00000000
00103000
10000000
,
01000000
00100000
00020000
00000000
,
02030000
00000000
03200000
00000000
,
20300000
00000000
32000000
00000000
,
00020000
00000000
03000000
00000000
,
00000000
00000000
00000000
00000000
,
00031000
00000000
00100000
10000000
,
01000000
00100000
00020000
00000000
,
00001000
00000000
00030010
00000001
,
00000100
00000010
00002000
00000000
,
00003200
00000000
00000320
00000000
,
00000032
00000000
00000203
00000000
,
00002000
00000000
00000000
00003300
,
00011000
00100000
10000000
00100000
,
10000000
00020000
00000000
00230000
,
00000000
00302000
00000000
00010000
,
00010000
00013000
00000100
00001000
,
00000100
00001100
00000000
00000010
,
00000001
00002000
00000000
00003020
,
00000000
00020030
00000000
00001000
,
00001000
00031000
01000000
00010000
,
01000000
01010000
00000000
00200000
,
00000000
20300000
00000000
32000000
,
00000000
03010000
00001000
00000100
,
00000002
00000000
00000003
00001000
,
00000001
00000020
00000000
00001000
,
00000000
00001030
00000000
00020000
,
00000000
00002000
00000000
00033000
,
00000000
00011000
00000000
00200000
,
00300000
10000000
01000000
10000000
,
00000000
00010000
01000000
00010000
,
00000000
00100000
00001000
00100000
,
00000000
00000100
00010000
00000100
,
00000000
00001000
00000100
00000010
,
00000001
00001000
00000010
00010000
,
00001000
01000000
00010000
10000000
,
01000000
00020000
00000000
00031000
,
00000100
00000001
00000100
00000001
,
00000000
00001000
00000100
00001000
,
00000000
00000010
00010000
00000010
,
00000000
01000000
00001000
01000000
,
00000000
00010000
01000000
00100000
,
10000000
00010000
00100000
00001000
,
00010000
00000100
00001000
00000001
,
00000100
00001000
00000000
00000000
,
00000000
00020000
00000000
00000000
,
00000000
00000000
00000000
00000000
,
00000000
00230000
00000000
00000000
,
00000000
00000000
00000000
00000000
,
00000000
20300000
00000000
30020000
,
00000000
00000000
00000000
02030000
,
00000000
03002000
00000000
00000000
,
00000000
00013000
00001000
00000100
,
00000001
00000100
00001000
00010000
,
00001000
00000000
00010000
01000000
,
10000000
01000000
00010000
00001000
,
00010000
00000000
00001000
00000100
,
00000002
00000000
00000023
00000000
,
00000230
00000000
00000000
00002300
00000000
00000000
00000010
00000000
,
00000010
00003010
00001001
00000000
,
00000100
00000000
00022000
00000000
,
00000000
00000000
00033000
00000000
;
