#TITLE:Color;
#ARTIST:Pa's Lam System;
#BANNER:Color.png;
#BACKGROUND:Color-bg.png;
#MUSIC:Color.ogg;
#OFFSET:0.806;
#SAMPLESTART:24.936;
#SAMPLELENGTH:15;
#BPMS:0=155;

//---------------dance-single - Talkion-bSP----------------
#NOTES:
     dance-single:
     Talkion:
     Beginner:
     4:
     0.143865,0.217939,0.046125,0.176812,0,131,125,6,23,0,0,0.143865,0.217939,0.046125,0.176812,0,131,125,6,23,0,0:
0000
0000
0000
0000
,
0000
0000
0000
0000
,
0000
0000
0000
0000
,
0000
0000
0000
0000
,
0000
0000
0000
0000
,
0000
0000
0000
0000
,
0000
0000
0000
0000
,
0000
0000
0000
0000
,
0000
0000
0000
0000
,
2000
0000
0000
0000
0000
3000
0000
0002
,
0000
0000
0000
0003
,
2000
0000
0000
0000
0000
3000
0000
0002
,
0000
0000
0000
0003
,
1000
0000
0010
0000
,
0100
0000
0001
0000
,
1000
0000
1000
0000
,
1000
1000
1000
0000
,
1001
0000
0000
0000
0000
0001
0000
0001
,
0000
0000
0000
0000
,
0100
0000
0100
0000
0000
0000
0000
0010
,
0000
0000
0000
0000
,
1001
0000
0000
0000
0000
1000
0000
1000
,
0000
0000
0000
0000
,
0100
0000
0100
0000
0000
0000
0000
0010
,
0000
0000
0000
0000
,
0000
0000
0000
0000
0000
0001
0000
0100
,
0000
0000
0000
0000
,
0010
0000
0010
0000
0000
0000
0000
1000
,
0000
0000
0000
0000
,
1001
0000
0000
0000
0000
1000
0000
0100
,
0000
0000
0000
0000
,
0010
0000
0010
0000
0000
0000
0000
0001
,
0000
0000
0000
0000
,
1001
0000
0000
0000
0000
0010
0000
0100
,
0000
0000
0001
0000
,
1000
0000
0000
0000
0000
0000
0000
0002
,
0000
0003
0010
0000
,
1001
0000
0000
0000
0000
0010
0000
0100
,
0000
0000
1000
0000
,
0001
0000
0000
0000
0000
0000
0000
2000
,
0000
3000
0010
0000
,
0000
0000
0000
0000
0000
0100
0000
0010
,
0000
0000
1000
0000
,
0001
0000
0000
0000
0000
0000
0000
2000
,
0000
3000
0100
0000
,
1001
0000
0000
0000
0000
0100
0000
0010
,
0000
0000
0001
0000
,
1000
0000
0000
0000
0000
0000
0000
0002
,
0000
0003
0010
0000
,
0002
0000
0000
0000
0000
0003
0000
2000
,
0000
0000
0000
3000
,
0020
0000
0000
0000
0000
0030
0000
0200
,
0000
0000
0000
0300
0000
0100
0000
0000
,
0002
0000
0000
0000
0000
0003
0000
2000
,
0000
0000
0000
3000
,
0001
0001
0001
0000
,
1000
1000
1000
0000
,
0001
0001
0001
0000
,
0100
0100
0000
0000
,
1000
1000
1000
0000
,
0100
0100
0000
0000
,
0001
0001
0001
0000
,
0010
0010
0000
0000
,
1000
1000
1000
0000
,
0010
0020
0030
0000
,
0001
0001
0001
0000
,
0100
0100
0100
0000
,
1000
1000
1000
0000
,
0100
0100
0100
0000
,
0001
0001
0001
0000
,
1000
1000
1000
0000
,
0001
0001
0001
0000
,
0200
0000
0300
0000
,
0002
0000
0003
0000
,
2000
0000
3000
0000
,
0020
0000
0030
0000
,
0200
0000
0300
0000
,
0002
0000
0003
0000
,
2000
0000
3000
0000
,
0002
0000
0000
0000
,
0000
0000
0000
0000
,
0003
0000
0000
0000
;

//---------------dance-single - Talkion-BSP----------------
#NOTES:
     dance-single:
     Talkion:
     Easy:
     8:
     0.292123,0.435879,0.322873,0.584247,0.003844,266,224,42,76,0,0,0.292123,0.435879,0.322873,0.584247,0.003844,266,224,42,76,0,0:
0000
0000
0000
0000
,
0000
0000
0000
0000
,
0000
0000
0000
0000
,
0000
0000
0000
0000
,
0000
0000
0000
0000
,
0000
0000
0000
0000
,
0000
0000
0000
0000
,
0000
0000
0000
0000
,
0000
0000
0000
0000
,
0002
0000
2003
0000
,
3020
0000
0230
0000
,
0302
0000
0003
0000
,
0000
0000
0000
0001
,
1002
0000
0023
0000
,
0230
0000
2300
0000
,
3001
1000
0001
1000
,
0010
0010
0010
0000
,
2001
0000
0000
0000
3100
0010
0000
0220
,
0000
0330
0000
0000
0002
1000
0000
0000
,
0200
0300
0203
0300
0100
0010
0000
2010
,
0000
0001
3001
0000
0010
0100
0010
0000
,
1002
0000
0000
0000
0103
0010
0000
0220
,
0000
0330
0000
0000
2000
0001
0000
0000
,
0200
0300
3200
0300
0100
0010
0000
2001
,
0000
0010
3010
0000
0100
0002
0100
0000
,
0000
0000
0000
0000
0013
0100
0000
0220
,
0000
0330
0000
0000
2000
0001
0000
0000
,
0020
0030
3020
0030
0010
0100
0000
0102
,
0000
1000
1003
0000
0100
0010
0100
0000
,
2001
0000
0000
0000
3010
0100
0000
0220
,
0000
0330
0000
0000
0002
1000
0000
0000
,
0020
0030
0023
0030
0010
0100
0000
1002
,
0000
0100
0103
0000
0010
0000
0000
0000
,
1020
0000
0000
0000
0000
0001
0000
0230
,
0000
0310
0010
0000
1000
0000
0002
0000
,
0023
0000
0000
0000
0031
0000
0000
2001
,
0000
0010
3010
0000
0200
0000
0302
0000
,
0023
0000
0000
0000
0000
1000
0000
0230
,
0000
0310
0010
0000
2000
0000
3020
0000
,
0032
0000
0000
0000
1003
0000
0000
1020
,
0000
0100
0130
0000
0001
0100
0002
0000
,
0003
0000
0000
0000
0000
1100
0000
0021
,
0000
0130
0100
0000
1000
0000
0002
0000
,
0203
0000
0000
0000
0301
0000
0000
2001
,
0000
0100
3100
0000
0020
0000
0032
0000
,
0203
0000
0000
0000
0000
1000
0000
0320
,
0000
0130
0100
0000
2000
0000
3100
0000
,
0001
0000
0000
0001
0000
0000
0001
0000
1000
0000
0000
0000
0000
0000
1200
0000
,
0000
0010
0310
0000
0100
0000
0000
0000
,
2000
0000
0000
0000
0000
0000
0000
3002
,
0000
0000
0000
0000
,
0203
0000
0000
0000
0000
0000
0000
0320
,
0000
0000
0000
0000
0000
2030
0000
0000
,
3001
0001
0001
0000
,
1000
1000
1000
0000
,
0001
0001
0001
0000
,
0100
0100
0100
0000
,
1001
1001
1001
0000
,
1010
1010
1010
0000
,
1001
1001
1001
0000
,
0011
0011
0011
0000
,
1001
1001
1001
0000
,
1100
1100
1100
0000
,
1001
1001
1001
0000
,
0101
0202
0303
0001
,
1000
1000
1000
0001
,
0100
0010
0100
0000
0100
0000
0010
0000
,
1000
1000
1000
0001
,
0010
0100
0010
0000
0010
0000
0001
0000
,
1000
1000
1000
0001
,
0100
0010
0100
0000
0100
0000
0001
0000
,
1000
0100
0010
0001
,
1000
0001
2000
0000
3010
0000
0000
0000
,
2000
0000
3100
0000
,
0002
0000
0103
0000
,
2000
0000
3010
0000
,
0002
0000
0013
0000
,
2000
0000
3100
0000
,
0002
0000
0103
0000
,
2000
0000
0000
0000
,
0000
0000
0000
0000
,
3000
0000
0000
0000
;

//---------------dance-single - Talkion-DSP----------------
#NOTES:
     dance-single:
     Talkion:
     Medium:
     11:
     0.441480,0.528465,0.292123,0.515060,0.084562,402,364,38,67,0,0,0.441480,0.528465,0.292123,0.515060,0.084562,402,364,38,67,0,0:
0000
0000
0000
0000
,
0000
0000
0000
0000
,
0000
0000
0000
0000
,
0000
0000
0000
0000
,
0000
0000
0000
0000
,
0000
0000
0000
0000
,
0000
0000
0000
0000
,
0000
0000
0000
0000
,
0000
0000
0000
0000
,
0002
0000
2003
0000
,
3200
0000
0000
0301
0200
0000
0000
0301
,
0200
0000
0000
1300
0100
0010
0000
0001
,
0000
1000
0000
0010
0000
0100
0010
1000
,
2020
3030
0022
0033
,
2020
3030
0022
0033
,
1010
0000
0011
0000
1010
0000
0011
0001
,
0010
0100
1000
0001
0010
0000
0000
0000
,
2001
0000
3000
0001
0100
0010
0000
0002
,
0000
1003
0000
0100
0000
0001
0100
0010
,
2020
3030
1010
1000
0001
0010
0000
0002
,
0000
0100
0103
0020
1030
0001
0100
0001
,
1002
0000
0003
1000
0100
0010
0000
2000
,
0000
3001
0000
0100
0000
1000
0100
0010
,
0022
0033
0011
0001
1000
0010
0000
0200
,
0000
0001
0301
0100
0010
1000
0002
0010
,
0000
0000
0000
1003
0010
0100
0000
2000
,
0000
3001
0000
0010
0000
1000
0010
0100
,
0202
0303
0101
0001
1000
0100
0000
2000
,
0000
0010
3010
0100
0001
1000
0010
1000
,
2001
0000
3000
0001
0010
0100
0000
0002
,
0000
1003
0000
0010
0000
0001
0010
0100
,
2200
3300
1100
1000
0001
0100
0000
0020
,
0000
1000
1030
0001
0010
0100
0010
1000
,
0010
0100
1000
0010
0100
1000
0000
1200
,
0000
0301
0100
0010
1000
0001
2000
0000
,
3100
0000
0000
0100
0000
0000
0100
0000
0010
0000
0100
0000
0010
0000
2000
0000
,
0000
3010
0020
0000
0032
0000
0203
0000
,
0310
0100
0001
0010
0100
0001
0000
0201
,
0000
1300
0100
0001
0100
0010
0002
0000
,
1003
0000
0000
1000
0000
0000
1000
0000
0010
0000
0100
0000
0010
0000
0002
0000
,
0000
0013
0020
0000
1030
0001
1000
0002
,
0000
0000
0000
0000
0013
1000
0000
1020
,
0000
0031
0010
0100
1000
0001
2000
0000
,
3010
0000
0000
0010
0000
0000
0010
0000
0100
0000
0010
0000
0100
0000
2000
0000
,
0000
3100
0200
0000
0302
0000
0023
0000
,
0130
0010
0001
0100
0010
0001
0000
0021
,
0000
1030
0010
0001
0010
0100
0002
0000
,
1003
0000
0000
1000
0000
0000
1000
0000
0100
0000
0010
0000
0100
0000
0002
0000
,
0000
0103
0200
0000
1300
0100
0010
0001
,
2000
0000
0000
0000
0000
0000
0000
3002
,
0000
0000
0000
0000
,
0203
0000
0000
0000
0000
0000
0000
0320
,
0000
0000
0000
0000
0000
1000
0000
0000
,
0130
0000
0000
0000
0100
0000
0000
0000
0001
0000
0000
0001
0000
0000
1000
0000
,
0100
0000
1000
0000
0100
0000
0000
0000
0010
0000
0000
0010
0000
0000
0001
0000
,
1000
0000
0000
0000
1000
0000
0000
0000
0010
0000
0000
0010
0000
0000
0100
0000
,
0001
1010
0101
0000
,
1001
0000
0000
0000
1001
0000
0000
0000
1000
0000
0000
1000
0000
0000
0100
0000
,
0010
0000
0010
0000
0010
0000
0000
0000
0010
0000
0000
0010
0000
0000
0001
0000
,
1001
0000
0000
0000
1001
0000
0000
0000
1000
0000
0000
1000
0000
0000
0010
0000
,
0100
0000
0100
0000
0100
0000
0000
0000
0100
0000
0000
0001
0000
0000
1000
0000
,
1001
0000
0000
0000
1001
0000
0000
0000
0001
0000
0000
0001
0000
0000
0010
0000
,
0100
0000
0100
0000
0100
0000
0000
0000
0100
0000
0000
0100
0000
0000
1000
0000
,
1001
0000
0000
0000
1001
0000
0000
0000
0001
0000
0000
1000
0000
0000
0020
0000
,
0100
0100
0200
0000
0330
0000
0110
0000
,
0101
0000
0000
0000
1100
0000
0000
0000
1000
0000
0000
1000
0000
0000
0001
0000
,
0010
0000
0010
0000
0010
0000
0000
0000
0010
0000
0000
0010
0000
0000
0001
0000
,
0011
0000
0000
0000
1010
0000
0000
0000
1000
0000
0000
1000
0000
0000
0001
0000
,
0100
0000
0100
0000
0100
0000
0000
0000
0100
0000
0000
0010
0000
0000
1000
0000
,
0001
0000
0000
0001
0010
0000
0000
0010
0001
0000
0000
0001
1000
0000
0010
0000
,
0100
0000
0100
0000
0100
0000
0000
0000
0100
0000
0000
0100
0001
0000
1000
0000
,
0100
0010
0001
1000
0100
0010
0001
1000
,
0010
0010
0020
0000
1030
0010
0100
0001
,
2000
0000
3100
0000
,
0002
0000
0103
0000
,
2000
0000
0000
3100
0010
0001
0000
1000
,
0000
0010
0000
0100
0000
0001
0100
0010
,
2000
0000
3010
0000
,
0002
0000
0013
0000
,
1000
0000
0001
1000
0000
0100
0000
0010
,
0000
0100
0000
0001
0100
0010
0001
1000
;

//---------------dance-single - Talkion-ESP----------------
#NOTES:
     dance-single:
     Talkion:
     Hard:
     14:
     0.574363,0.746068,0.453560,0.599622,0.288280,523,464,59,78,0,0,0.574363,0.746068,0.453560,0.599622,0.288280,523,464,59,78,0,0:
0000
0000
0000
0000
,
0000
0000
0000
0000
,
0000
0000
0000
0000
,
0000
0000
0000
0000
,
0000
0000
0000
0000
,
0000
0000
0000
0000
,
0000
0000
0000
0000
,
0000
0000
0000
0000
,
0000
0000
0000
0000
,
2000
0100
3002
0100
,
2003
0000
3010
0010
0002
0000
0013
0010
,
2000
0000
0000
3001
0010
0100
0000
1000
,
0000
0001
0000
0100
0000
0010
0100
0001
,
1001
0000
0000
1000
0000
0000
0100
0000
1100
0000
0000
0001
0000
0000
0100
0000
,
0110
0000
0010
0000
0000
0010
0000
0000
1010
0000
0000
0000
1000
0000
0001
0000
,
0010
0000
0000
0010
0100
0000
0000
0000
1000
0000
0000
1000
0001
0000
1000
0010
,
0100
0000
0100
0000
0100
0000
0100
0001
1000
0000
0000
0000
0000
0000
0000
0000
,
1200
0000
0000
0310
0100
0101
0000
2100
,
0000
0000
3001
0010
0001
0000
1000
0000
0010
0000
0002
0000
0013
0000
0100
0000
,
0202
0000
0303
0000
0101
0000
0001
0000
1000
0000
0100
0010
0001
0000
1002
0000
,
0000
0010
0013
0200
1300
0010
0100
0001
,
0201
0000
0000
0310
0100
1100
0000
0102
,
0000
0000
1003
0010
1000
0000
0001
0000
0010
0000
2000
0000
3010
0000
0100
0000
,
2200
0000
3300
0000
1100
0000
1000
0000
0001
0000
0100
0010
1000
0000
2001
0000
,
0000
0010
3010
0200
0302
1003
0100
0002
,
1000
0000
0000
0103
1000
1001
0000
0012
,
0000
0000
1003
0100
1000
0000
0001
0000
0100
0000
2000
0000
3100
0000
0010
0000
,
2020
0000
3030
0000
1010
0000
1000
0000
0001
0000
0010
0100
1000
0000
2001
0000
,
0000
0100
3100
0020
0031
0100
0010
1000
,
1020
0000
0000
0130
0010
0011
0000
2010
,
0000
0000
3001
0100
0001
0000
1000
0000
0100
0000
0002
0000
0103
0000
0010
0000
,
0022
0000
0033
0000
0011
0000
0001
0000
1000
0000
0010
0100
0001
0000
1002
0000
,
0000
0100
0103
0020
1030
0001
0010
1000
,
0001
0100
1000
0001
0100
1000
0000
1200
,
0000
0000
0301
0100
0010
0000
1000
0000
0010
0100
0001
0000
2000
0000
0000
0000
,
3200
0000
0000
0302
0000
0000
2003
0000
3010
0001
0010
0001
1000
0000
2001
0000
,
0000
0000
3010
1000
0010
0000
0100
0000
0001
0000
1000
0000
0100
0000
0001
0000
,
1000
0010
0001
1000
0010
0001
0000
0021
,
0000
0000
1030
0010
0100
0000
1000
0000
0100
0010
1000
0000
0001
0000
1000
0100
,
0020
0000
0000
2030
0000
0000
3002
0000
0103
1000
0100
1000
0001
0000
1002
0000
,
0000
0000
0103
0001
0100
0000
0010
0000
2000
0000
3002
0000
0103
0000
0010
0000
,
1000
0001
0010
0200
0310
1000
0000
1020
,
0000
0000
0031
0010
0100
0000
1000
0000
0100
0010
0001
0000
2000
0000
0000
0000
,
3020
0000
0000
0032
0000
0000
2003
0000
3100
0001
0100
0001
1000
0000
2001
0000
,
0000
0000
3100
1000
0100
0000
0010
0000
0001
0000
1000
0000
0010
0000
0001
0000
,
1000
0100
0001
1000
0100
0001
0000
0201
,
0000
0000
1300
0100
0010
0000
1000
0000
0010
0100
1000
0000
0001
0000
1000
0010
,
0200
0000
0000
2300
0000
0000
3002
0000
0013
1000
0010
1000
0001
0000
1002
0000
,
0000
0000
0013
0001
0010
0000
0100
0000
1000
0000
0100
0000
0001
0000
0010
0000
,
2000
0000
0000
0000
0000
0000
0000
3002
,
0000
0000
0000
0000
,
0203
0000
0000
0000
0000
0000
0000
0320
,
0000
0000
0000
0000
0000
1000
0000
0000
,
0130
0000
0000
0000
0100
0000
0000
0000
0001
0000
0000
0001
0000
0000
1000
0000
,
0100
0000
1000
0000
0100
0000
0000
0000
0010
0000
0000
0010
0000
0000
0001
0000
,
1000
0000
0000
0000
1000
0000
0000
0000
0010
0000
0000
0010
0000
0000
0100
0000
,
0001
1010
0101
0000
,
1001
0000
0000
0000
1001
0000
0000
0000
1100
0000
0000
1100
0000
0000
0002
0000
,
0100
0000
0100
0000
0103
0000
0000
0000
0110
0000
0000
0110
0000
0000
0010
0000
,
1010
0000
0000
0000
1010
0000
0000
0000
1001
0000
0000
1001
0000
0000
0002
0000
,
0010
0000
0010
0000
0013
0000
0000
0000
0110
0000
0000
1100
0000
0000
1000
0000
,
1001
0000
0000
0000
1001
0000
0000
0000
0101
0000
0000
0101
0000
0000
2000
0000
,
0100
0000
0100
0000
3100
0000
0000
0000
0110
0000
0000
0110
0000
0000
0010
0000
,
0011
0000
0000
0000
0011
0000
0000
0000
1001
0000
0000
1010
0000
0000
0020
0000
,
0100
0000
0100
0000
0200
0000
0000
0000
0330
0000
0000
0000
1000
0100
0010
0001
,
1000
0000
0000
1000
0010
0000
0000
0010
0100
0000
0000
0100
0001
0000
1000
0000
,
0100
0000
0100
0000
0100
0000
1000
0001
0100
0000
0000
0100
0010
0000
1000
0000
,
0001
0000
0000
0001
0010
0000
0000
0010
0100
0000
0000
0100
1000
0000
0001
0000
,
0100
0000
0100
0000
0100
0000
0001
1000
0100
0000
0000
0010
0100
0000
0010
0000
,
1000
0000
0010
0100
1000
0000
0100
1000
0001
0000
0000
0001
0100
0000
0010
0000
,
1000
0000
1000
0000
1000
0000
0001
1000
0100
0000
0000
0100
0010
0000
0001
0000
,
1000
0100
1000
0000
0001
0100
0001
0000
1000
0100
0010
0001
0010
0100
1000
0001
,
0010
0010
0020
0000
0031
0010
1000
0100
,
0002
0000
0013
0000
,
2000
0000
3010
0000
,
0002
0000
0000
0013
0100
1000
0000
0001
,
0000
0100
0000
0010
0000
1000
0010
0100
,
0002
0000
0013
0000
,
2000
0000
0000
0000
0000
0000
0000
0000
3010
0000
0000
0010
0000
0000
0100
0000
,
0001
0000
1000
0200
0000
0302
0000
0203
,
0000
0320
0000
0031
1000
0100
0010
0001
;

//---------------dance-single - Talkion-CSP----------------
#NOTES:
     dance-single:
     Talkion:
     Challenge:
     15:
     0.645747,0.932585,0.661121,0.530435,0.388217,588,502,86,69,0,0,0.645747,0.932585,0.661121,0.530435,0.388217,588,502,86,69,0,0:
0000
0000
0000
0000
,
0000
0000
0000
0000
,
0000
0000
0000
0000
,
0000
0000
0000
0000
,
0000
0000
0000
0000
,
0000
0000
0000
0000
,
0000
0000
0000
0000
,
0000
0000
0000
0000
,
0000
0000
0000
0000
,
2010
0000
0000
0000
0001
0000
0000
0000
0100
0000
0000
0100
0000
0000
3002
0000
,
0000
0000
0100
0000
0000
0100
0000
0000
1003
0000
0001
0000
0010
0000
0000
0000
,
0002
0000
0000
0010
0000
0000
0010
0000
2003
0000
0000
0010
0000
0000
3002
0000
,
0000
0000
0100
0000
0000
0100
0000
0000
1003
0000
0001
0000
0010
0000
0000
0000
,
0011
0000
0000
0010
0000
0000
1000
0000
1010
0000
0000
0010
0000
0000
0001
0000
,
0011
0000
0010
0000
0000
0010
0000
0000
1001
0000
0000
0000
1000
0000
0010
0000
,
0100
0000
0000
0100
0001
0000
1000
0000
0100
0000
0000
0100
0010
0000
0010
0001
,
1000
0000
1000
0000
0010
0100
0010
0100
0001
0000
0000
0000
0000
0000
0000
0000
,
2001
0000
0000
3100
0011
1000
0000
2010
,
0000
0000
0000
0000
3010
0000
0010
0000
0100
0000
0000
0000
0001
0000
0000
0000
1000
0000
0000
0000
0100
1000
0100
0000
1000
0000
0000
0000
0001
0000
0000
0000
,
0022
0000
0033
0000
1010
0000
1000
0000
0010
0000
0100
0100
0001
0000
2001
0000
,
0000
0000
0000
0000
0100
0000
0000
0000
3100
0000
0000
0000
1000
0100
0000
0000
0100
0000
0000
0000
0010
0000
0000
0000
0001
0000
0000
0000
1000
0000
0000
0000
,
1002
0000
0000
0103
1010
0001
0000
0012
,
0000
0000
0000
0000
0013
0000
0010
0000
0100
0000
0000
0000
1000
0000
0000
0000
0001
0000
0000
0000
0100
0001
0100
0000
0001
0000
0000
0000
1000
0000
0000
0000
,
2020
0000
3030
0000
0011
0000
0001
0000
1000
0000
0100
0100
1000
0000
0021
0000
,
0000
0000
0000
0000
0100
0000
0000
0000
0130
0000
0000
0000
0010
0100
0000
0000
0200
0000
0000
0000
2300
0000
0000
0000
3001
0000
0000
0000
1000
0000
0000
0000
,
0020
0000
0030
0010
0100
0110
0000
1002
,
0000
0000
0000
0000
0103
0000
0100
0000
0010
0000
0000
0000
1000
0000
0000
0000
0001
0000
0000
0000
0010
0001
0010
0000
0001
0000
0000
0000
1000
0000
0000
0000
,
2200
0000
3300
0000
0101
0000
0001
0000
0100
0000
0010
0010
1000
0000
1002
0000
,
0000
0000
0000
0000
0010
0000
0000
0000
0013
0000
0000
0000
0001
0010
0000
0000
0010
0000
0000
0000
0100
0000
0000
0000
1000
0000
0000
0000
0001
0000
0000
0000
,
2001
0000
0000
3010
0101
1000
0000
2100
,
0000
0000
0000
0000
3100
0000
0100
0000
0010
0000
0000
0000
0001
0000
0000
0000
1000
0000
0000
0000
0010
1000
0010
0000
1000
0000
0000
0000
0001
0000
0000
0000
,
0202
0000
0303
0000
1100
0000
1000
0000
0001
0000
0010
0010
0001
0000
1200
0000
,
0000
0000
0000
0000
0010
0000
0000
0000
0310
0000
0000
0000
0100
1000
0100
0000
1000
0000
0000
0000
0001
0000
0000
0000
0100
0000
0000
0000
0010
0000
0000
0000
,
1010
0010
0001
1000
0010
0011
0000
1020
,
0000
0000
0130
0100
0010
0000
1000
0000
0001
0010
0001
0000
2000
0000
0000
0000
,
3200
0000
0301
0200
0010
0300
0200
0000
1300
0100
0010
0001
1000
0000
0012
0000
,
0000
0000
1003
0001
1000
0000
0010
0000
0011
0000
0010
0000
1000
0000
0100
0000
,
1100
0100
0001
1000
0100
0101
0000
2100
,
0000
0000
3100
0100
0010
0000
1000
0000
0010
0100
0010
0000
0001
0000
1000
0001
,
0200
0000
1300
0200
0010
0300
0200
0000
0301
0100
0010
1000
0001
0000
2010
0000
,
0000
0000
3001
1000
0001
0000
0010
0000
0200
0000
2300
0000
3001
0000
1000
0000
,
0010
0010
0001
0100
1000
1100
0000
0201
,
0000
0000
0310
0010
0100
0000
0001
0000
1000
0100
1000
0000
0002
0000
0000
0000
,
0023
0000
1030
0020
0100
0030
0020
0000
0031
0010
0100
1000
0001
0000
2100
0000
,
0000
0000
3001
1000
0001
0000
0100
0000
1100
0000
0100
0000
0001
0000
0010
0000
,
0011
0010
1000
0001
0010
1010
0000
0012
,
0000
0000
0013
0010
0100
0000
0001
0000
0100
0010
0100
0000
1000
0000
0001
1000
,
0020
0000
0031
0020
0100
0030
0020
0000
1030
0010
0100
0001
1000
0000
0102
0000
,
0000
0000
1003
0001
1000
0000
0100
0000
0010
0000
0001
0000
1000
0000
0010
0000
,
0200
0000
0000
0000
0000
0000
0000
0302
,
0000
0000
0000
0000
,
2003
0000
0000
0000
0000
0000
0000
3200
,
0000
0000
0000
0000
0000
0320
0000
0000
,
0031
0000
0000
0000
0001
0000
0000
0000
1000
0000
0000
1000
0000
0000
0010
0000
,
0100
0000
0100
0000
0010
0000
0000
0000
1000
0000
0000
1000
0000
0000
0001
0000
,
0010
0000
0000
0000
0010
0000
0000
0000
0100
0000
0000
0100
0000
0000
1000
0000
,
0001
0001
0001
0000
,
1001
0000
0000
0000
1001
0000
0000
0000
1100
0000
0000
0011
0000
0000
1001
0000
,
0110
0000
0110
0000
0110
0000
0000
0000
1010
0000
0000
0101
0000
0000
0110
0000
,
1001
0000
0000
0000
1001
0000
0000
0000
0101
0000
0000
1010
0000
0000
1001
0000
,
0110
0000
0110
0000
0110
0000
0000
0000
0011
0000
0000
1100
0000
0000
1001
0000
,
0110
0000
0000
0000
0110
0000
0000
0000
1010
0000
0000
0011
0000
0000
1001
0000
,
0110
0000
0110
0000
0110
0000
0000
0000
1100
0000
0000
0101
0000
0000
1001
0000
,
0110
0000
0000
0000
0110
0000
0000
0000
0101
0000
0000
1100
0000
0000
1001
0000
,
0110
0000
0110
0000
0220
0000
0000
0000
0330
0000
0000
0000
0001
0010
0100
1000
,
0001
0000
0010
0001
0010
0000
0010
1000
0010
0000
0000
0010
0001
0000
1000
0000
,
0100
0000
0100
0000
0100
0000
1000
0001
0010
0000
0000
0010
0100
0000
1000
0000
,
0001
0000
0100
0001
0100
0000
0100
1000
0100
0000
0000
0100
0001
0000
1000
0000
,
0010
0000
0010
0000
0010
0000
1000
0001
0100
0000
0000
0010
0100
0000
0001
0000
,
1000
0000
0100
0010
0001
0000
0100
0010
1000
0000
0010
0100
0010
0000
1000
0000
,
0001
0000
0001
0000
0001
0000
0010
0100
1000
0000
0001
1000
0001
0000
0100
0000
,
0010
0100
0010
0100
0001
0100
0001
0100
0010
1000
0001
0100
0001
1000
0100
1000
,
0001
0100
0001
0100
0001
1000
0001
1000
0010
0000
1000
0000
0001
0000
0010
0000
,
0200
0000
1300
0000
,
0002
0000
0103
0000
,
0020
0000
0000
1000
0130
0010
0000
1000
,
0200
0000
0010
0000
0000
0000
1000
0000
0310
0000
0000
0010
0000
0000
0001
0000
,
2000
0000
3010
0000
,
0200
0000
0000
0000
0000
0000
0000
0000
0301
0000
0000
0001
0000
0000
1000
0000
,
0200
0000
0310
0002
0000
2003
0000
3020
,
0000
0230
0000
0301
0100
0010
1000
0001
;

//---------------dance-double - Talkion-BDP----------------
#NOTES:
     dance-double:
     Talkion:
     Easy:
     8:
     0.294320,0.435879,0.338248,0.561184,0,268,224,44,73,0,0,0.294320,0.435879,0.338248,0.561184,0,268,224,44,73,0,0:
00000000
00000000
00000000
00000000
,
00000000
00000000
00000000
00000000
,
00000000
00000000
00000000
00000000
,
00000000
00000000
00000000
00000000
,
00000000
00000000
00000000
00000000
,
00000000
00000000
00000000
00000000
,
00000000
00000000
00000000
00000000
,
00000000
00000000
00000000
00000000
,
00000000
00000000
00000000
00000000
,
00020000
00000000
00030020
00000000
,
00002030
00000000
00003002
00000000
,
00000023
00000000
00000030
00000000
,
00000000
00000000
00000000
00000100
,
00010100
00000000
01001000
00000000
,
00010010
00000000
00101000
00000000
,
00100000
00010000
00100000
00010000
,
10000000
10000000
10000000
00000000
,
10200000
00000000
00000000
00000000
01300000
00001000
00000000
00022000
,
00000000
00033000
00000000
00000000
00010000
00000200
00000000
00000000
,
00000020
00000030
00000020
00000030
00001300
00000001
00000000
00000201
,
00000000
00000010
00000310
00000000
00001000
00000010
00001000
00000000
,
00000021
00000000
00000000
00000000
00000130
00010000
00000000
00022000
,
00000000
00033000
00000000
00000000
00001000
02000000
00000000
00000000
,
00200000
00300000
00200000
00300000
03010000
10000000
00000000
10020000
,
00000000
00100000
00130000
00000000
00001000
00020000
00001000
00000000
,
00000000
00000000
00000000
00000000
00030010
00010000
00000000
00022000
,
00000000
00033000
00000000
00000000
00001000
00200000
00000000
00000000
,
02000000
03000000
02000000
03000000
00310000
10000000
00000000
10200000
,
00000000
01000000
01300000
00000000
00010000
01000000
00010000
00000000
,
12000000
00000000
00000000
00000000
03100000
00001000
00000000
00022000
,
00000000
00033000
00000000
00000000
00010000
00000020
00000000
00000000
,
00000200
00000300
00000200
00000300
00001030
00000001
00000000
00002001
,
00000000
00000100
00003100
00000000
00010000
00000000
00000000
00000000
,
00201000
00000000
00000000
00000000
00000000
01000000
00000000
20300000
,
00000000
30100000
00100000
00000000
00001000
00000000
00020000
00000000
,
00030020
00000000
00000000
00000000
00010030
00000000
00000000
00010200
,
00000000
00001000
00002300
00000000
00003002
00000000
00000203
00000000
,
00000320
00000000
00000000
00000000
00000000
00000100
00000000
00000032
,
00000000
00000013
00000010
00000000
00001000
00000100
00001000
00000000
,
00000200
00000000
00000000
00000000
00010300
00000000
00000000
00012000
,
00000000
01000000
01003000
00000000
00001000
00010000
00000200
00000000
,
00000300
00000000
00000000
00000000
00000000
00000210
00000000
00000302
,
00000000
00000103
00000100
00000000
00010000
00000000
00002000
00000000
,
02003000
00000000
00000000
00000000
03001000
00000000
00000000
00201000
,
00000000
00010000
00320000
00000000
20030000
00000000
30200000
00000000
,
02300000
00000000
00000000
00000000
00000000
00100000
00000000
23000000
,
00000000
31000000
01000000
00000000
00010000
00100000
00010000
00000000
,
00200000
00000000
00000000
00000000
00301000
00000000
00000000
00021000
,
00000000
00000010
00030010
00000000
00001000
00000000
00000000
00000000
,
00000002
00000000
00000000
00000000
00000000
00000000
00000000
00000023
,
00000000
00000000
00000000
00000000
,
00000230
00000000
00000000
00000000
00000000
00000000
00000000
00020300
,
00000000
00000000
00000000
00000000
00000000
00032000
00000000
00000000
,
01003000
01000000
01000000
00000000
,
00100000
00100000
00100000
00000000
,
10000000
10000000
10000000
00000000
,
00010000
00010000
00010000
00000000
,
00110000
00110000
00011000
00000000
,
00011000
00011000
00001010
00000000
,
00001010
00001010
00000011
00000000
,
00000011
00000011
00001001
00000000
,
00001100
00001100
00011000
00000000
,
00011000
00011000
01010000
00000000
,
01010000
01010000
10010000
00000000
,
11000000
22000000
33000000
10000000
,
00010000
00010000
00100000
00100000
,
00001000
00010000
00001000
00000000
00010000
00000000
00000010
00000000
,
00000100
00000100
00000001
00000001
,
00001000
00000100
00001000
00000000
00000001
00000000
00000100
00000000
,
00000010
00000010
00010000
00010000
,
00001000
00010000
00001000
00000000
00100000
00000000
00010000
00000000
,
10000000
10000000
00100000
00100000
,
01000000
00010000
02000000
00000000
03001000
00000000
00000000
00000000
,
00020000
00000000
00031000
00000000
,
00000020
00000000
00001030
00000000
,
00020000
00000000
00031000
00000000
,
00000200
00000000
00001300
00000000
,
00020000
00000000
00031000
00000000
,
00000020
00000000
00001030
00000000
,
00020000
00000000
00000000
00000000
,
00000000
00000000
00000000
00000000
,
00030000
00000000
00000000
00000000
;

//---------------dance-double - Talkion-DDP----------------
#NOTES:
     dance-double:
     Talkion:
     Medium:
     11:
     0.439283,0.528465,0.299811,0.591934,0.084562,400,361,39,77,0,0,0.439283,0.528465,0.299811,0.591934,0.084562,400,361,39,77,0,0:
00000000
00000000
00000000
00000000
,
00000000
00000000
00000000
00000000
,
00000000
00000000
00000000
00000000
,
00000000
00000000
00000000
00000000
,
00000000
00000000
00000000
00000000
,
00000000
00000000
00000000
00000000
,
00000000
00000000
00000000
00000000
,
00000000
00000000
00000000
00000000
,
00000000
00000000
00000000
00000000
,
00020000
00000000
00030020
00000000
,
00002030
00000000
00000000
00003100
00000020
00000000
00000000
00000130
,
00000002
00000000
00000000
00000103
00000010
00000001
00000000
00001000
,
00000000
00000100
00000000
00010000
00000000
00001000
01000000
00010000
,
20020000
30030000
22000000
33000000
,
02200000
03300000
00202000
00303000
,
00011000
00000000
00011000
00000000
00010010
00000000
00010010
00000010
,
00001000
00000001
00000100
00000010
00001000
00000000
00000000
00000000
,
00002001
00000000
00003000
00000001
00000010
00000100
00000000
00000002
,
00000000
00000103
00000000
00001000
00000000
00000100
00010000
00001000
,
02002000
03003000
20020000
30030000
00010000
00100000
01000000
00020000
,
00000000
00001000
00031000
00020000
00030010
00010000
00001000
00100000
,
00020000
00000000
00030000
10000000
00100000
01000000
00000000
20000000
,
00000000
31000000
00000000
00010000
00000000
01000000
00001000
00010000
,
00020200
00030300
00002002
00003003
00001000
00000010
00000000
00000210
,
00000000
00001000
00001300
00000100
00000010
00010000
00001000
00200000
,
00010000
00000000
00000000
00000000
01300000
00100000
00000000
20000000
,
00000000
30100000
00000000
00010000
00000000
00100000
00001000
00010000
,
00020020
00030030
00002002
00003003
00001000
00000100
00000010
00002000
,
00000000
00010000
00013000
00002000
01003000
00001000
00010000
00000100
,
00002000
00000000
00003000
00000001
00000100
00000010
00000000
00000002
,
00000000
00000013
00000000
00001000
00000000
00000010
00010000
00001000
,
00202000
00303000
20020000
30030000
00010000
01000000
00000000
01200000
,
00000000
00010000
00310000
00100000
01000000
00001000
00010000
00000100
,
00000010
00000100
00001000
00000010
00000100
00001000
00000000
00012000
,
00000000
01003000
00001000
00010000
00000100
00000100
00002000
00000000
,
00003001
00000000
00000000
00000001
00000000
00000000
00000001
00000000
00000100
00000000
00000010
00000000
00000100
00000000
00002000
00000000
,
00000000
00013000
00020000
00000000
00032000
00000000
02003000
00000000
,
03100000
01000000
00010000
00100000
01000000
00010000
00000000
00021000
,
00000000
00030010
00000100
00001000
00000100
00000100
00000002
00000000
,
00001003
00000000
00000000
00001000
00000000
00000000
00001000
00000000
00000100
00000000
00010000
00000000
00001000
00000000
02000000
00000000
,
00000000
03100000
00200000
00000000
10300000
00100000
10000000
00200000
,
00000000
00000000
00300000
00000000
00000000
00110000
00000000
00021000
,
00000000
00030010
00010000
00001000
00100000
00100000
00020000
00000000
,
10030000
00000000
00000000
10000000
00000000
00000000
10000000
00000000
00100000
00000000
01000000
00000000
00100000
00000000
00020000
00000000
,
00000000
00031000
00002000
00000000
00023000
00000000
00030020
00000000
,
00000130
00000010
00001000
00000100
00000010
00001000
00000000
00012000
,
00000000
01003000
00100000
00010000
00100000
00100000
20000000
00000000
,
30010000
00000000
00000000
00010000
00000000
00000000
00010000
00000000
00100000
00000000
00001000
00000000
00010000
00000000
00000020
00000000
,
00000000
00000130
00000200
00000000
00000301
00000100
00000010
00010000
,
00002000
00000000
00000000
00000000
00000000
00000000
00000000
02003000
,
00000000
00000000
00000000
00000000
,
03200000
00000000
00000000
00000000
00000000
00000000
00000000
20300000
,
00000000
00000000
00000000
00000000
00000000
30020000
00000000
00000000
,
00130000
00000000
00000000
00000000
00100000
00000000
00000000
00000000
00001000
00000000
00000000
00001000
00000000
00000000
00010000
00000000
,
00000010
00000000
00010000
00000000
00000010
00000000
00000000
00000000
00001000
00000000
00000000
00001000
00000000
00000000
00000001
00000000
,
00000010
00000000
00000000
00000000
00000010
00000000
00000000
00000000
00000100
00000000
00000000
00000100
00000000
00000000
00010000
00000000
,
00001000
00010100
01001000
00000000
,
10010000
00000000
00000000
00000000
10010000
00000000
00000000
00000000
10000000
00000000
00000000
10000000
00000000
00000000
01000000
00000000
,
00100000
00000000
00100000
00000000
00100000
00000000
00000000
00000000
00100000
00000000
00000000
00100000
00000000
00000000
00001000
00000000
,
00011000
00000000
00000000
00000000
00011000
00000000
00000000
00000000
00010000
00000000
00000000
00010000
00000000
00000000
00000010
00000000
,
00000100
00000000
00000100
00000000
00000100
00000000
00000000
00000000
00000100
00000000
00000000
00000001
00000000
00000000
00001000
00000000
,
00001100
00000000
00000000
00000000
00001100
00000000
00000000
00000000
00000100
00000000
00000000
00000100
00000000
00000000
00010000
00000000
,
00001000
00000000
00001000
00000000
00001000
00000000
00000000
00000000
01000000
00000000
00000000
01000000
00000000
00000000
00100000
00000000
,
10100000
00000000
00000000
00000000
10100000
00000000
00000000
00000000
10000000
00000000
00000000
00010000
00000000
00000000
00200000
00000000
,
00001000
00001000
00002000
00000000
00303000
00000000
00011000
00000000
,
00001100
00000000
00000000
00000000
00000101
00000000
00000000
00000000
00000001
00000000
00000000
00000001
00000000
00000000
00000010
00000000
,
00000100
00000000
00000100
00000000
00000100
00000000
00000000
00000000
00010000
00000000
00000000
00010000
00000000
00000000
00001000
00000000
,
00101000
00000000
00000000
00000000
10100000
00000000
00000000
00000000
00010000
00000000
00000000
00010000
00000000
00000000
01000000
00000000
,
00001000
00000000
00001000
00000000
00001000
00000000
00000000
00000000
00010000
00000000
00000000
00000100
00000000
00000000
00000010
00000000
,
00000001
00000000
00000000
00000001
00001000
00000000
00000000
00001000
00000100
00000000
00000000
00000100
00010000
00000000
00001000
00000000
,
01000000
00000000
01000000
00000000
01000000
00000000
00000000
00000000
00100000
00000000
00000000
00100000
01000000
00000000
00010000
00000000
,
10000000
01000000
00100000
00010000
00001000
00000100
00000010
00000001
,
00001000
00001000
00002000
00000000
00003001
00000100
00000010
00010000
,
00002000
00000000
00013000
00000000
,
00200000
00000000
00310000
00000000
,
00002000
00000000
00000000
00013000
00000010
00001000
00000000
00000001
,
00000000
00000100
00000000
00000010
00000000
00010000
00001000
00100000
,
00020000
00000000
10030000
00000000
,
00200000
00000000
01300000
00000000
,
00001000
00000000
00010000
00000100
00000000
00000010
00000000
00000100
,
00000000
00000001
00000000
00000100
00000010
00000001
00001000
00000100
;

//---------------dance-double - Talkion-EDP----------------
#NOTES:
     dance-double:
     Talkion:
     Hard:
     14:
     0.569970,0.746068,0.445873,0.622684,0.292123,519,461,58,81,0,0,0.569970,0.746068,0.445873,0.622684,0.292123,519,461,58,81,0,0:
// measure 0
00000000
00000000
00000000
00000000
,  // measure 1
00000000
00000000
00000000
00000000
,  // measure 2
00000000
00000000
00000000
00000000
,  // measure 3
00000000
00000000
00000000
00000000
,  // measure 4
00000000
00000000
00000000
00000000
,  // measure 5
00000000
00000000
00000000
00000000
,  // measure 6
00000000
00000000
00000000
00000000
,  // measure 7
00000000
00000000
00000000
00000000
,  // measure 8
00000000
00000000
00000000
00000000
,  // measure 9
00002000
00010000
00203000
00010000
,  // measure 10
00302000
00000000
00013000
00010000
02000000
00000000
03010000
00010000
,  // measure 11
00002000
00000000
00000000
00013000
00000100
00000010
00000000
00001000
,  // measure 12
00000000
00000010
00000000
00000001
00000000
00001000
00000001
00000100
,  // measure 13
00000110
00000000
00000000
00000010
00000000
00000000
00010000
00000000
00011000
00000000
00000000
00001000
00000000
00000000
00100000
00000000
,  // measure 14
01100000
00000000
01000000
00000000
00000000
01000000
00000000
00000000
10010000
00000000
00000000
00000000
10000000
00000000
00100000
00000000
,  // measure 15
01000000
00000000
00000000
01000000
00001000
00000000
00000000
00001000
00010000
00000000
00000000
00010000
00000100
00000000
00001000
00000100
,  // measure 16
00000010
00000000
00000010
00000000
00000010
00000000
00000010
00000001
00001000
00000000
00000000
00000000
00000000
00000000
00000000
00000000
,  // measure 17
00001002
00000000
00000000
00000103
00001000
00011000
00000000
00201000
,  // measure 18
00000000
00000000
00310000
00100000
01000000
00000000
00010000
00000000
01000000
00000000
20000000
00000000
30010000
00000000
01000000
00000000
,  // measure 19
02002000
00000000
03003000
00000000
00020200
00000000
00030300
00000000
00000100
00000000
00000010
00000100
00001000
00000000
00001002
00000000
,  // measure 20
00000000
00000100
00000103
00000010
00010000
00001000
00100000
00010000
,  // measure 21
20010000
00000000
00000000
31000000
00010000
00011000
00000000
00010020
,  // measure 22
00000000
00000000
00001030
00000010
00000100
00000000
00001000
00000000
00000100
00000000
00000002
00000000
00001003
00000000
00000100
00000000
,  // measure 23
00020200
00000000
00030300
00000000
02002000
00000000
03003000
00000000
01000000
00000000
00010000
01000000
00100000
00000000
00120000
00000000
,  // measure 24
00000000
00001000
00031000
00010000
00000200
00000320
00001030
00020000
,  // measure 25
01000000
00000000
00000000
00031000
00010000
00011000
00000000
00010200
,  // measure 26
00000000
00000000
00001300
00000100
00000010
00000000
00001000
00000000
00000010
00000000
00000002
00000000
00001003
00000000
00000010
00000000
,  // measure 27
00020020
00000000
00030030
00000000
00202000
00000000
00303000
00000000
00100000
00000000
01000000
00100000
00010000
00000000
20010000
00000000
,  // measure 28
00000000
00100000
30100000
01000000
00001000
00010000
00000100
00001000
,  // measure 29
00001002
00000000
00000000
00000013
00001000
00011000
00000000
02001000
,  // measure 30
00000000
00000000
03010000
01000000
00100000
00000000
00010000
00000000
00100000
00000000
20000000
00000000
30010000
00000000
00100000
00000000
,  // measure 31
00202000
00000000
00303000
00000000
00020020
00000000
00030030
00000000
00000010
00000000
00001000
00000010
00000100
00000000
00002100
00000000
,  // measure 32
00000000
00010000
00013000
00100000
10000000
00010000
00100000
00010000
,  // measure 33
10000000
01000000
00010000
10000000
00100000
00010000
00000000
01002000
,  // measure 34
00000000
00000000
00013000
00001000
00010000
00000000
00000100
00000000
00000010
00000100
00000010
00000000
00002000
00000000
00000000
00000000
,  // measure 35
00023000
00000000
00000000
02030000
00000000
00000000
23000000
00000000
30010000
01000000
00010000
01000000
00001000
00000000
00021000
00000000
,  // measure 36
00000000
00000000
00030100
00010000
00000100
00000000
00001000
00000000
00000001
00000000
00000010
00000000
00000100
00000000
00001000
00000000
,  // measure 37
00000001
00000100
00001000
00000001
00000010
00001000
00000000
00020100
,  // measure 38
00000000
00000000
00031000
00010000
00001000
00000000
00000010
00000000
00001000
00010000
00001000
00000000
01000000
00000000
00010000
01000000
,  // measure 39
00200000
00000000
00000000
00320000
00000000
00000000
00032000
00000000
01003000
00010000
01000000
00010000
10000000
00000000
20010000
00000000
,  // measure 40
00000000
00000000
31000000
00100000
01000000
00000000
00010000
00000000
00002000
00000000
00003020
00000000
00000031
00000000
00001000
00000000
,  // measure 41
00000001
00000100
00000010
00000200
00001300
00010000
00000000
00020010
,  // measure 42
00000000
00000000
00031000
00010000
00001000
00000000
00100000
00000000
01000000
00100000
01000000
00000000
00020000
00000000
00000000
00000000
,  // measure 43
00032000
00000000
00000000
00003020
00000000
00000000
00000032
00000000
00001003
00000010
00001000
00000010
00010000
00000000
00012000
00000000
,  // measure 44
00000000
00000000
00103000
00001000
00100000
00000000
00010000
00000000
10000000
00000000
01000000
00000000
00100000
00000000
00010000
00000000
,  // measure 45
10000000
00100000
00010000
10000000
01000000
00010000
00000000
00102000
,  // measure 46
00000000
00000000
00013000
00001000
00010000
00000000
01000000
00000000
00010000
00001000
00010000
00000000
00000010
00000000
00001000
00000010
,  // measure 47
00000200
00000000
00000000
00002300
00000000
00000000
00023000
00000000
00030010
00001000
00000010
00001000
00000001
00000000
00001002
00000000
,  // measure 48
00000000
00000000
00000013
00000100
00000010
00000000
00001000
00000000
00010000
00000000
01000000
00000000
00100000
00000000
01000000
00000000
,  // measure 49
20000000
00000000
00000000
00000000
00000000
00000000
00000000
30020000
,  // measure 50
00000000
00000000
00000000
00000000
,  // measure 51
02030000
00000000
00000000
00000000
00000000
00000000
00000000
03002000
,  // measure 52
00000000
00000000
00000000
00000000
00000000
00023000
00000000
00000000
,  // measure 53
00030100
00000000
00000000
00000000
00000100
00000000
00000000
00000000
00000010
00000000
00000000
00000010
00000000
00000000
00000001
00000000
,  // measure 54
00001000
00000000
00000001
00000000
00001000
00000000
00000000
00000000
00000100
00000000
00000000
00000100
00000000
00000000
00010000
00000000
,  // measure 55
00001000
00000000
00000000
00000000
00001000
00000000
00000000
00000000
01000000
00000000
00000000
01000000
00000000
00000000
00010000
00000000
,  // measure 56
10000000
10100000
01010000
00000000
,  // measure 57
10010000
00000000
00000000
00000000
10010000
00000000
00000000
00000000
11000000
00000000
00000000
11000000
00000000
00000000
10000000
00000000
,  // measure 58
00001000
00000000
10000000
00000000
00001000
00000000
00000000
00000000
00011000
00000000
00000000
00011000
00000000
00000000
00010000
00000000
,  // measure 59
00010010
00000000
00000000
00000000
00010010
00000000
00000000
00000000
00001001
00000000
00000000
00001001
00000000
00000000
00000001
00000000
,  // measure 60
00010000
00000000
00000001
00000000
00010000
00000000
00000000
00000000
00011000
00000000
00000000
01001000
00000000
00000000
00010000
00000000
,  // measure 61
10010000
00000000
00000000
00000000
10010000
00000000
00000000
00000000
10100000
00000000
00000000
10100000
00000000
00000000
10000000
00000000
,  // measure 62
00001000
00000000
10000000
00000000
00001000
00000000
00000000
00000000
00011000
00000000
00000000
00011000
00000000
00000000
00010000
00000000
,  // measure 63
00010100
00000000
00000000
00000000
00010100
00000000
00000000
00000000
00001001
00000000
00000000
00000001
00000000
00000000
00000100
00000000
,  // measure 64
00000010
00000000
00200000
00000000
00000020
00000000
00000000
00000000
00300030
00000000
00000000
00000000
00010000
00001000
00010000
00001000
,  // measure 65
00100000
00000000
00000000
00100000
01000000
00000000
00000000
01000000
10000000
00000000
00000000
10000000
00010000
00000000
01000000
00000000
,  // measure 66
00001000
00000000
00001000
00000000
00001000
00000000
00010000
00000100
00001000
00000000
00000000
00001000
00000001
00000000
00000100
00000000
,  // measure 67
00000010
00000000
00000000
00000010
00000100
00000000
00000000
00000100
00000001
00000000
00000000
00000001
00001000
00000000
00000100
00000000
,  // measure 68
00010000
00000000
00010000
00000000
00010000
00000000
00001000
01000000
00010000
00000000
00000000
01000000
00100000
00000000
10000000
00000000
,  // measure 69
00010000
00000000
00100000
00001000
00010000
00000000
00000010
00010000
00001000
00000000
00000000
00001000
00010000
00000000
00000100
00000000
,  // measure 70
00000010
00000000
00000010
00000000
00000010
00000000
00000001
00000010
00000100
00000000
00000000
00000100
00010000
00000000
00001000
00000000
,  // measure 71
01000000
00010000
01000000
00000000
00001000
00010000
00001000
00000000
01000000
00010000
01000000
00001000
00010000
00001000
01000000
00010000
,  // measure 72
10000000
10000000
20000000
00000000
30010000
00100000
01000000
00100000
,  // measure 73
20000000
00000000
30100000
00000000
,  // measure 74
00020000
00000000
00130000
00000000
,  // measure 75
00002000
00000000
00000000
00013000
00000010
00001000
00000000
00000001
,  // measure 76
00000000
00000100
00000000
00000010
00000000
00010000
00001000
00100000
,  // measure 77
00020000
00000000
01030000
00000000
,  // measure 78
00200000
00000000
00000000
00000000
00000000
00000000
00000000
00000000
10300000
00000000
00000000
00010000
00000000
00000000
00010000
00000000
,  // measure 79
00100000
00000000
00001000
00020000
00000000
00030200
00000000
00000320
,  // measure 80
00000000
00002030
00000000
00003010
00000100
00001000
00000001
00000010
;

//---------------dance-double - Talkion-CDP----------------
#NOTES:
     dance-double:
     Talkion:
     Challenge:
     15:
     0.595229,0.901499,0.384373,0.522747,0.376685,542,492,50,68,0,0,0.595229,0.901499,0.384373,0.522747,0.376685,542,492,50,68,0,0:
00000000
00000000
00000000
00000000
,
00000000
00000000
00000000
00000000
,
00000000
00000000
00000000
00000000
,
00000000
00000000
00000000
00000000
,
00000000
00000000
00000000
00000000
,
00000000
00000000
00000000
00000000
,
00000000
00000000
00000000
00000000
,
00000000
00000000
00000000
00000000
,
00000000
00000000
00000000
00000000
,
00002000
00000000
00000000
00000000
01003000
00000000
00000000
00000000
00020000
00000000
00000000
01000000
00000000
00000000
10000000
00000000
,
00000000
00000000
00130000
00000000
00000000
00100000
00000000
00000000
00001000
00000000
00000000
00000000
00010000
00000000
00000010
00000000
,
00002000
00000000
00000000
00000000
00003001
00000000
00000000
00000000
00000020
00000000
00000000
00000001
00000000
00000000
00000100
00000000
,
00000000
00000000
00001030
00000000
00000000
00001000
00000000
00000000
00010000
00000000
00000000
00000000
00001000
00000000
01000000
00000000
,
01100000
00000000
00000000
00100000
00000000
00000000
10000000
00000000
10010000
00000000
00000000
00010000
00000000
00000000
00100000
00000000
,
00101000
00000000
00001000
00000000
00000000
00010000
00000000
00000000
00010100
00000000
00000000
00000000
00000100
00000000
00001000
00000000
,
00000001
00000000
00000000
00000001
00000010
00000000
00000000
00000010
00000100
00000000
00000000
00000100
00010000
00000000
00001000
00010000
,
00001000
00000000
00010000
00000000
01000000
10000000
01000000
10000000
00010000
00000000
00000000
00000000
00000000
00000000
00000000
00000000
,
10020000
00000000
00000000
01030000
10100000
00010000
00000000
01002000
,
00000000
00000000
00000000
00000000
00013000
00000000
00010000
00000000
00000010
00000000
00000000
00000000
00000100
00000000
00000000
00000000
00000001
00000000
00000000
00000000
00001000
00000100
00001000
00000000
00000100
00000000
00000000
00000000
00000010
00000000
00000000
00000000
,
00002000
00000000
00000000
00000000
00203000
00000000
00000000
00000000
00310000
00000000
10000000
10000000
00100000
00000000
01020000
00000000
,
00000000
00000000
00000000
00000000
10000000
00000000
00000000
00000000
10030000
00000000
00000000
00000000
00100000
01000000
00000000
00000000
01000000
00000000
00000000
00000000
00001000
00000000
00000000
00000000
00010000
00000000
00000000
00000000
00000100
00000000
00000000
00000000
,
00000020
00000000
00000000
00000130
00000011
00001000
00000000
00020100
,
00000000
00000000
00000000
00000000
00031000
00000000
00001000
00000000
00100000
00000000
00000000
00000000
01000000
00000000
00000000
00000000
10000000
00000000
00000000
00000000
00010000
01000000
00010000
00000000
01000000
00000000
00000000
00000000
00100000
00000000
00000000
00000000
,
00020000
00000000
00000000
00000000
00030020
00000000
00000000
00000000
00001030
00000000
00000001
00000001
00000010
00000000
00002010
00000000
,
00000000
00000000
00000000
00000000
00010000
00000000
00000000
00000000
00013000
00000000
00000000
00000000
00001000
01000000
00000000
00000000
02000000
00000000
00000000
00000000
03200000
00000000
00000000
00000000
01300000
00000000
00000000
00000000
00002000
00000000
00000000
00000000
,
00010000
00000000
00000000
00103000
11000000
00010000
00000000
00102000
,
00000000
00000000
00000000
00000000
00013000
00000000
00010000
00000000
00000100
00000000
00000000
00000000
00000010
00000000
00000000
00000000
00000001
00000000
00000000
00000000
00001000
00000010
00001000
00000000
00000010
00000000
00000000
00000000
00000100
00000000
00000000
00000000
,
00002000
00000000
00000000
00000000
02003000
00000000
00000000
00000000
03010000
00000000
10000000
10000000
01000000
00000000
00120000
00000000
,
00000000
00000000
00000000
00000000
10000000
00000000
00000000
00000000
10030000
00000000
00000000
00000000
01000000
00100000
00000000
00000000
00100000
00000000
00000000
00000000
00001000
00000000
00000000
00000000
00010000
00000000
00000000
00000000
00000010
00000000
00000000
00000000
,
00000200
00000000
00000000
00000310
00000101
00001000
00000000
00020010
,
00000000
00000000
00000000
00000000
00031000
00000000
00001000
00000000
01000000
00000000
00000000
00000000
00100000
00000000
00000000
00000000
10000000
00000000
00000000
00000000
00010000
00100000
00010000
00000000
00100000
00000000
00000000
00000000
01000000
00000000
00000000
00000000
,
00020000
00000000
00000000
00000000
00030200
00000000
00000000
00000000
00001300
00000000
00000001
00000001
00000100
00000000
00002100
00000000
,
00000000
00010000
00013000
00002000
00003010
00000001
00000100
00001000
,
00010000
00001000
00000010
00010000
00001000
00000010
00000000
00012000
,
00000000
00000000
01003000
01000000
00100000
00000000
10000000
00000000
00100000
01000000
00010000
00000000
20000000
00000000
00000000
00000000
,
32000000
00000000
03010000
02000000
00100000
03000000
02000000
00000000
13000000
01000000
00100000
00001000
00010000
00000000
00021000
00000000
,
00000000
00000000
00030010
00010000
00000010
00000000
00001000
00000000
00000001
00000000
00001000
00000000
00000100
00000000
00010000
00000000
,
00001000
00010000
00100000
00001000
00010000
00100000
00000000
00021000
,
00000000
00000000
00030100
00000100
00000010
00000000
00001000
00000000
00000010
00000100
00001000
00000000
00000001
00000000
00001000
00000001
,
00000200
00000000
00001300
00000200
00000010
00000300
00000200
00000000
00000301
00000100
00000010
00010000
00001000
00000000
00012000
00000000
,
00000000
00000000
00103000
00001000
00100000
00000000
00010000
00000000
20000000
00000000
32000000
00000000
03010000
00000000
00001000
00000000
,
00000010
00000000
00000001
00000000
00000100
00000000
00001000
00010000
00001000
00000000
00010100
00000000
00000000
00000000
01002000
00000000
,
00000000
00000000
00103000
00100000
00010000
00000000
10000000
00000000
01000000
00100000
00010000
00000000
20000000
00000000
00000000
00000000
,
30200000
00000000
00310000
00200000
01000000
00300000
00200000
00000000
10300000
00100000
01000000
00001000
00010000
00000000
00021000
00000000
,
00000000
00000000
00030100
00010000
00000100
00000000
00001000
00000000
00000001
00000000
00001000
00000000
00000010
00000000
00010000
00000000
,
00001000
00010000
01000000
00001000
00010000
01000000
00000000
00021000
,
00000000
00000000
00030010
00000010
00000100
00000000
00001000
00000000
00000100
00000010
00001000
00000000
00000001
00000000
00001000
00000001
,
00000020
00000000
00001030
00000020
00000100
00000030
00000020
00000000
00000031
00000010
00000100
00010000
00001000
00000000
00012000
00000000
,
00000000
00000000
01003000
00001000
01000000
00000000
00010000
00000000
10000000
00000000
00100000
00000000
00010000
00000000
00001000
00000000
,
00000020
00000000
00000000
00000000
00000000
00000000
00000000
00000032
,
00000000
00000000
00000000
00000000
,
00002003
00000000
00000000
00000000
00000000
00000000
00000000
00003200
,
00000000
00000000
00000000
00000000
00000000
00020300
00000000
00000000
,
00031000
00000000
00000000
00000000
00001000
00000000
00000000
00000000
01000000
00000000
00000000
01000000
00000000
00000000
00100000
00000000
,
10000000
00000000
10000000
00000000
00010000
00000000
00000000
00000000
00100000
00000000
00000000
00100000
00000000
00000000
00001000
00000000
,
00010000
00000000
00000000
00000000
00010000
00000000
00000000
00000000
00000100
00000000
00000000
00000100
00000000
00000000
00000010
00000000
,
00000001
00000110
00001001
00000000
,
00000101
00000000
00000000
00000000
00000101
00000000
00000000
00000000
00001010
00000000
00000000
00001010
00000000
00000000
00000010
00000000
,
00100000
00000000
00000010
00000000
00100000
00000000
00000000
00000000
00101000
00000000
00000000
00101000
00000000
00000000
00010000
00000000
,
10010000
00000000
00000000
00000000
10010000
00000000
00000000
00000000
10100000
00000000
00000000
10100000
00000000
00000000
00001000
00000000
,
10000000
00000000
00001000
00000000
10000000
00000000
00000000
00000000
00011000
00000000
00000000
00010100
00000000
00000000
00000010
00000000
,
00000011
00000000
00000000
00000000
00000011
00000000
00000000
00000000
00001100
00000000
00000000
00001100
00000000
00000000
00000100
00000000
,
01000000
00000000
00000100
00000000
01000000
00000000
00000000
00000000
01001000
00000000
00000000
01001000
00000000
00000000
00010000
00000000
,
10010000
00000000
00000000
00000000
10010000
00000000
00000000
00000000
11000000
00000000
00000000
00110000
00000000
00000000
00001000
00000000
,
10000000
00000000
00002000
00000000
20000000
00000000
00000000
00000000
30003000
00000000
00000000
00000000
00010000
00100000
00010000
00100000
,
00001000
00000000
00010000
00000100
00010000
00000000
00010000
01000000
00010000
00000000
00000000
00010000
00000100
00000000
00001000
00000000
,
00000001
00000000
00000001
00000000
00000001
00000000
00000010
00000100
00000010
00000000
00000000
00000010
00001000
00000000
00010000
00000000
,
00001000
00000000
01000000
00001000
01000000
00000000
01000000
10000000
01000000
00000000
00000000
01000000
00001000
00000000
00010000
00000000
,
00000100
00000000
00000100
00000000
00000100
00000000
00001000
00000001
00001000
00000000
00000000
00001000
00000010
00000000
00000100
00000000
,
00000001
00000000
00001000
00000100
00010000
00000000
00000100
00010000
00001000
00000000
00010000
00001000
01000000
00000000
00100000
00000000
,
10000000
00000000
10000000
00000000
10000000
00000000
00010000
00100000
01000000
00000000
10000000
00010000
10000000
00000000
00100000
00000000
,
01000000
00010000
01000000
00010000
01000000
00001000
01000000
00001000
00010000
00000100
00001000
00000100
00010000
00001000
00010000
00000010
,
00001000
00000001
00001000
00000001
00000200
00000000
00000000
00000000
00000301
00000000
00000100
00000000
00001000
00000000
00010000
00000000
,
02000000
00000000
03100000
00000000
,
20000000
00000000
31000000
00000000
,
00020000
00000000
00000000
00031000
00010000
00000010
00000000
00000100
,
00000000
00000000
00000001
00000000
00000000
00000000
00001000
00000000
00000100
00000000
00000000
00000100
00000000
00000000
00000010
00000000
,
00000002
00000000
00001003
00000000
,
00000020
00000000
00000000
00000000
00000000
00000000
00000000
00000000
00000130
00000000
00000000
00000010
00000000
00000000
00000010
00000000
,
00010000
00000000
00001000
00020000
00000000
02030000
00000000
23000000
,
00000000
30020000
00000000
01030000
00001000
00010000
00000100
00000010
;
