#TITLE:Closer to my Heart (jun remix);
#ARTIST:NM feat.Heather Elmer;
#BANNER:Closer to my Heart (jun remix).png;
#BACKGROUND:Closer to my Heart (jun remix)-bg.png;
#MUSIC:Closer to my Heart (jun remix).ogg;
#OFFSET:-0.004;
#SAMPLESTART:41.339;
#SAMPLELENGTH:15;
#BPMS:0=145;

//---------------dance-single - KONAMI-bSP----------------
#NOTES:
     dance-single:
     KONAMI:
     Beginner:
     2:
     0.123733,0.171258,0.019685,0.127952,0,88,86,2,13,0,0,0.123733,0.171258,0.019685,0.127952,0,88,86,2,13,0,0:
0000
0000
0000
0000
,
0000
0000
0000
0000
,
0000
0000
0000
0000
,
0001
0000
0000
0000
,
1000
0000
0000
0000
,
1000
0000
0001
0000
,
0001
0000
1000
0000
,
1000
0000
0001
0000
,
0100
0000
0100
0000
,
1000
1000
0000
0000
,
0001
0001
0000
0000
,
1000
1000
0000
0000
,
0001
0001
0000
0000
,
1000
0000
1000
0000
,
0010
0000
0010
0000
,
0001
0000
0001
0000
,
0100
0000
0100
0000
,
0000
0100
0000
0010
,
0000
0000
0100
0100
,
0000
0010
0000
0100
,
0000
0000
0010
0010
,
0000
0100
0000
0010
,
0000
0000
0000
0000
,
0100
0000
0100
0000
,
2002
0000
3003
0000
,
1000
1000
0000
0000
,
0100
0000
0100
0000
,
0001
0001
0000
0000
,
0100
0000
0100
0000
,
0020
0030
0000
0000
,
0200
0300
0000
0000
,
0020
0000
0000
0030
,
0000
0000
0000
0000
,
1000
1000
0000
0000
,
0010
0000
0010
0000
,
0001
0001
0000
0000
,
0010
0000
0010
0000
,
0200
0300
0000
0000
,
0020
0030
0000
0000
,
0200
0000
0000
0300
,
0000
1000
0000
0001
,
0000
0000
0000
0000
,
2000
0000
0000
3000
,
0000
0000
0000
0000
,
0002
0000
0000
0003
,
0000
0000
0100
0000
,
0020
0030
0000
0000
,
0200
0300
0000
0000
,
2000
0000
0000
0000
,
0000
0000
3000
0000
,
0010
0000
0001
0000
,
0100
0000
1000
0000
,
0010
0000
1000
0000
,
0100
0000
0001
0000
,
0010
0000
0001
0000
,
0100
0000
1000
0000
,
0010
0000
0001
0000
,
0100
0000
1000
0000
,
1001
0000
0000
0000
;

//---------------dance-single - KONAMI-BSP----------------
#NOTES:
     dance-single:
     KONAMI:
     Easy:
     5:
     0.237624,0.285430,0.019685,0.226376,0,169,167,2,23,0,0,0.237624,0.285430,0.019685,0.226376,0,169,167,2,23,0,0:
0000
0000
0000
0000
,
0000
0000
0000
0000
,
0000
0000
0000
0000
,
0002
0000
0000
0000
,
0000
0000
0000
0003
,
1000
0001
0100
1000
,
0001
1000
0100
0001
,
1000
0001
0100
1000
,
0100
0010
1000
0100
,
1000
1000
0100
0000
,
0001
0001
0010
0000
,
1000
1000
0100
0000
,
0001
0001
0010
0000
,
1000
0001
1000
0001
,
0010
0001
0010
0001
,
1000
0001
1000
0001
,
1000
0100
1000
0100
,
0000
0100
0000
0010
,
0100
0001
0100
0100
,
0000
0010
0000
0100
,
0010
1000
0010
0010
,
0000
0100
0000
0010
,
0100
0001
0000
0000
,
0100
0010
0100
0010
,
2002
0000
3003
0000
,
0010
1000
0001
0001
,
0100
1000
0100
1000
,
0010
0001
1000
1000
,
0100
0001
0100
0001
,
0020
0030
0100
1000
,
0200
0300
0010
0001
,
0020
0000
0000
0030
,
0000
0000
1000
1000
,
0100
1000
0001
0001
,
0010
1000
0010
1000
,
0100
0001
1000
1000
,
0010
0001
0010
0001
,
0200
0300
0010
0001
,
0020
0030
0100
1000
,
0200
0000
0000
0300
,
2000
0000
0000
3000
,
0000
0000
0000
0000
,
2000
3002
0203
0300
,
0002
0000
0003
0000
,
0002
2003
3020
0030
,
2000
3000
0010
0001
,
0020
0030
0100
1000
,
0200
0300
0010
0001
,
0020
2030
0000
3002
,
0000
0000
0003
0000
,
0010
0100
0001
0010
,
0100
0010
1000
0100
,
0010
0100
1000
0010
,
0100
0010
0001
0100
,
0010
0010
0001
0010
,
0100
0100
1000
0100
,
0010
0010
0001
0010
,
0100
0100
1000
0100
,
1001
0000
0000
0000
;

//---------------dance-single - KONAMI-DSP----------------
#NOTES:
     dance-single:
     KONAMI:
     Medium:
     9:
     0.359951,0.485231,0.068897,0.255903,0,256,249,7,26,0,0,0.359951,0.485231,0.068897,0.255903,0,256,249,7,26,0,0:
0000
0000
0000
0000
,
0000
0000
0000
0000
,
0000
0000
0000
0000
,
2000
0000
0000
0000
,
0002
0000
0000
3003
,
0001
0000
1000
0000
0100
0010
0001
0000
,
1000
0000
0001
0000
0100
0010
1000
0000
,
0001
0000
1000
0000
0100
0010
0001
0000
,
0100
0000
0010
0000
0001
0010
0100
1000
,
0001
0010
0001
0000
0100
0000
1000
0000
,
1000
0100
1000
0000
0010
0000
0001
0000
,
0001
0010
0001
0000
0100
0000
1000
0000
,
1000
0100
1000
0000
0010
0000
0001
0000
,
0001
0010
1000
0010
0001
0000
1000
0000
,
0010
0100
1000
0100
0010
0000
0001
0000
,
0001
0010
1000
0010
0001
0000
1000
0000
,
0010
0100
0001
0100
0010
0000
0100
0000
,
1000
0100
0001
0010
,
0100
0001
1000
0000
0100
0000
0100
0000
,
0001
0010
1000
0100
,
0010
1000
0001
0000
0010
0001
0010
0000
,
1000
0100
0001
0010
,
0100
0001
1000
0000
0000
0010
0010
0110
,
0000
1001
0000
0110
0000
1100
0011
0000
,
2002
0000
3003
0000
,
0010
0000
0001
0000
1000
0001
1000
0000
,
0100
0000
0001
0000
0100
0100
0001
0000
,
0010
0000
1000
0000
0001
1000
0001
0000
,
0100
0000
1000
0000
0100
0100
1000
0000
,
0020
0000
0030
0000
0100
0100
0001
0000
,
0200
0000
0300
0000
0010
0010
1000
0000
,
0020
0000
0200
0030
,
2300
0000
0001
3001
,
0100
0000
0001
0000
1000
0001
1000
0000
,
0010
0000
0001
0000
0010
0010
0001
0000
,
0100
0000
1000
0000
0001
1000
0001
0000
,
0010
0000
1000
0000
0010
0010
1000
0000
,
0200
0000
0300
0000
0010
0010
1000
0000
,
0020
0000
0030
0000
0100
0100
0001
0000
,
0200
0000
0020
0300
,
0032
0000
0000
0003
,
0010
0010
0100
1000
1000
0100
0010
0010
,
0002
2003
3200
0300
,
2000
0000
3000
0000
,
2000
3002
0023
0030
,
0001
0000
0000
0010
0000
0010
1000
0000
,
0020
0000
0030
0000
0100
0100
0001
0000
,
0200
0000
0300
0000
0010
0010
1000
0000
,
0020
0000
0002
0030
,
2003
0000
0000
3000
,
0010
0001
0100
0000
1000
0100
0010
0000
,
0100
1000
0010
0000
0001
0010
0100
0000
,
0010
1000
0100
0000
0001
0100
0010
0000
,
0100
0001
0010
0000
1000
0010
0100
0000
,
0010
0001
0010
0001
1000
0001
0010
0000
,
0100
1000
0100
1000
0001
1000
0100
0000
,
0010
0001
0010
0001
1000
0001
0010
0000
,
0100
1000
0100
1000
0001
1000
0100
0100
,
1001
0000
0000
0000
;

//---------------dance-single - KONAMI-ESP----------------
#NOTES:
     dance-single:
     KONAMI:
     Hard:
     13:
     0.558206,0.627947,0.059055,0.265745,0.231297,397,391,6,27,0,0,0.558206,0.627947,0.059055,0.265745,0.231297,397,391,6,27,0,0:
0000
0000
0000
0000
,
0000
0000
0000
0000
,
0000
0000
0000
0000
,
0002
0000
0000
0000
,
2000
3000
0200
0303
,
1000
0000
1000
0100
0010
0000
0010
0001
0100
0000
0001
0000
1000
0000
0000
0000
,
0001
0000
0001
0010
0100
0000
0100
1000
0010
0000
1000
0000
0001
0000
0000
0000
,
1000
0000
1000
0100
0010
0000
0010
0001
0100
0000
0001
0000
1000
0000
0000
0000
,
1000
0100
1000
0000
0100
0010
0100
0000
0010
0001
0010
0000
0001
1000
0001
0000
,
1000
0000
0100
0000
1000
0000
0000
0000
0010
0000
0000
0100
0001
0000
1000
0000
,
0001
0000
0010
0000
0001
0000
0000
0000
0100
0000
0000
0010
1000
0000
0001
0000
,
1000
0000
0100
0000
1000
0000
0000
0000
0010
0000
0000
0100
0001
0000
1000
0000
,
0001
0000
0010
0000
0001
0000
0000
0000
0100
0000
0000
0010
1000
0000
0001
0000
,
0100
1000
0100
0001
0100
1000
0100
0001
,
0100
0010
0100
0001
0100
0010
0100
0001
,
0010
1000
0010
0001
0010
1000
0010
0001
,
0010
0100
0010
1000
0010
0100
0010
1000
,
0001
0001
0020
0000
1030
1000
0200
1000
,
0310
1000
0001
0000
0010
0001
0010
0000
,
1000
1000
0200
0000
0301
0001
0020
0001
,
0130
0001
1000
0000
0100
1000
0100
0000
,
0001
0001
0020
0000
1030
1000
0200
1000
,
0310
1000
0001
0000
0000
0100
0100
1100
,
0000
0101
0000
0110
0000
0011
1100
0000
,
2002
0000
0000
0000
0000
0000
0000
0000
3003
0000
0000
0000
0000
0000
0000
1000
,
0100
0000
0000
0100
1000
0000
0000
0000
0001
0000
1000
0100
0001
0000
0000
0000
,
0010
0000
0001
0000
1000
0000
0100
0000
0010
0001
0010
0000
1000
0000
0000
0001
,
0100
0000
0000
0100
0001
0000
0000
0000
1000
0000
0001
0100
1000
0000
0000
0000
,
0010
0000
1000
0000
0001
0000
0100
0000
0010
1000
0010
0000
0001
0000
1000
0000
,
0200
0000
0301
0001
0010
0010
1000
0001
,
0020
0000
1030
1000
0100
0100
0001
1000
,
0200
0000
0301
0001
0020
0000
1030
1000
,
0001
0000
0000
1000
0001
0000
0010
0000
0100
0000
0100
0000
0100
0000
0000
1000
,
0010
0000
0000
0010
1000
0000
0000
0000
0001
0000
1000
0010
0001
0000
0000
0000
,
0100
0000
0001
0000
1000
0000
0010
0000
0100
0001
0100
0000
1000
0000
0000
0001
,
0010
0000
0000
0010
0001
0000
0000
0000
1000
0000
0001
0010
1000
0000
0000
0000
,
0100
0000
1000
0000
0001
0000
0010
0000
0100
1000
0100
0000
0001
0000
1000
0000
,
0020
0000
1030
1000
0100
0100
0001
1000
,
0200
0000
0301
0001
0010
0010
1000
0001
,
0020
0000
0031
0001
0200
0000
1300
1000
,
0001
0000
0000
1000
0001
0000
0100
0000
0010
0000
0010
0000
0010
0000
0000
0000
,
0100
0000
0100
0010
0000
0010
0001
0000
0001
0010
0000
0010
0100
0000
0100
0000
,
2000
0000
0100
0000
3100
1000
0100
0020
,
0000
0001
0000
0031
0000
0010
0000
0010
,
0002
0000
0100
0000
0103
0001
0100
0010
,
0000
0010
0000
0100
0000
0100
0001
1000
,
0200
0000
0301
0001
0010
0010
1000
0001
,
0020
0000
1030
1000
0100
0100
0001
1000
,
0200
0000
2300
0000
0000
0000
3010
0002
,
1000
0100
0013
0001
,
0100
0000
1000
0000
0010
0100
0010
0000
0001
0000
0010
0000
0100
0000
0000
0000
,
0010
0000
0001
0000
0100
0010
0100
0000
1000
0000
0100
0000
0010
0000
0000
0000
,
0100
0000
0001
0000
0010
0100
0010
0000
1000
0000
0010
0000
0100
0000
0000
0000
,
0010
0000
1000
0000
0100
0010
0100
0000
0001
0000
0100
0000
0010
0000
0000
0000
,
0100
0000
1000
0000
0100
0010
0001
0000
1000
0000
0001
0000
0100
0000
0100
0000
,
0010
0000
0001
0000
0010
0100
1000
0000
0001
0000
1000
0000
0010
0000
0010
0000
,
0100
0000
1000
0000
0100
0010
0001
0000
1000
0000
0001
0000
0100
0000
0100
0000
,
0010
0000
0001
0000
0010
0000
1000
0000
0010
1000
0100
0010
0001
1000
0010
0100
,
0001
0000
0000
0000
;

//---------------dance-single - Kekkle-CSP----------------
#NOTES:
     dance-single:
     Kekkle:
     Challenge:
     15:
     0.793018,0.900090,0.452751,0.275588,0.757867,564,518,46,28,0,0,0.793018,0.900090,0.452751,0.275588,0.757867,564,518,46,28,0,0:
0000
0000
0000
0000
,
0000
0000
0000
0000
,
0000
0000
0000
0000
,
0000
0000
0000
0000
,
0000
0000
0000
0000
,
0001
0000
1000
0100
1000
0000
0001
0000
1000
0010
1000
0000
0001
0010
0001
0000
,
1000
0000
0001
0100
0001
0000
1000
0000
0001
0010
0001
0000
1000
0010
1000
0000
,
0001
0000
0010
0100
0010
0000
0001
0000
1000
0010
1000
0000
0100
0010
0100
0000
,
1000
0001
1000
0010
0100
0001
0100
0000
0010
1000
0001
0010
0100
0010
0001
1000
,
0010
0000
1000
0000
0200
0000
0000
0000
0001
0000
0000
0010
0000
0000
1300
0000
,
0001
0000
0100
0000
0010
0000
0001
0000
0020
0000
0000
1000
0000
0000
0130
0001
,
0100
0000
0010
0000
2000
0000
0000
0000
0100
0000
0000
0001
0000
0000
3010
0000
,
0100
0001
1000
0100
1000
1001
1001
0110
,
0010
0000
1000
0100
0010
0000
0100
0000
1000
0000
0001
0100
0000
0010
0100
0000
,
0001
0000
0010
0001
1000
0000
0100
0000
1000
0000
0010
0100
0000
0001
0100
0000
,
0010
0000
1000
0001
0010
0000
0100
0000
0010
0000
0001
1000
0000
0010
1000
0000
,
0100
0000
0001
0000
1000
0000
0010
0000
0011
0000
0000
1001
0000
0000
0110
0000
,
0020
0000
1000
0000
0130
0000
0001
0000
1000
0000
0100
0010
0000
0000
0011
0000
,
0002
0000
0100
0000
0013
0000
0001
0000
1000
0000
0100
0010
0000
0000
0011
0000
,
0002
0000
1000
0000
0013
0000
0100
0000
0010
0000
0001
1000
0000
0000
1010
0000
,
0010
0000
0100
0000
0010
0001
0010
0000
0110
0000
0000
1010
0000
0000
1001
0000
,
0001
0000
0010
0001
0010
0000
0001
0000
0101
0000
0100
0010
0000
0100
1000
0000
,
0100
0000
0010
1000
0010
0000
1000
0000
1100
0000
0100
0001
0000
0100
0010
0000
,
0002
0103
0110
0000
2000
3100
0110
0000
,
0002
0103
0110
0110
2002
0000
3003
0000
,
0001
0100
0001
0100
0010
0000
1000
0100
1000
0100
0010
0000
0001
1000
0010
0000
,
0100
0010
0100
0010
1000
0000
0001
0010
0001
0010
0100
0000
1000
0001
0100
0000
,
0001
0010
0100
0010
0001
0000
1000
0010
0100
0010
1000
0000
0001
0010
0100
0010
,
0001
1000
0010
1000
0001
1000
0100
0010
0001
1000
0010
1000
0100
0010
0001
0010
,
0100
1000
0100
1000
0001
0000
0100
0001
0100
0001
0010
0000
0100
1000
0100
0000
,
0010
0001
0010
0001
1000
0000
0010
1000
0010
1000
0100
0000
0010
0001
0100
0000
,
0010
1000
0100
1000
0010
0000
0100
0001
0010
0001
0100
0000
0010
1000
0100
0000
,
0010
0001
1000
0001
0010
0001
0100
0010
1000
0100
1000
0010
0100
0001
1000
0100
,
0010
0001
0100
0001
0010
0000
0001
0000
1001
0000
0000
1100
0000
0000
0011
0000
,
0001
1000
0010
1000
0100
0000
0010
0000
0110
0000
0000
1100
0000
0000
0101
0000
,
0001
0100
1000
0100
0001
0000
1000
0000
1100
0000
0000
0011
0000
0000
1001
0000
,
1000
0100
0001
0100
1000
0000
0001
0000
0011
0000
0000
1100
0000
0000
1001
0000
,
0220
0000
0330
0000
0010
0000
1000
0100
1000
0000
0001
0000
1000
0100
0010
0000
,
0220
0000
0330
0000
0010
0000
0001
1000
0001
0000
0010
0000
0001
0100
0010
0000
,
1000
0100
1000
0001
0100
0000
0010
0000
1010
0000
1000
0001
0000
0010
0001
0000
,
2001
0000
3100
0000
0010
0000
0001
0100
0002
0000
0013
0100
1000
0010
1000
0100
,
0010
0001
1000
0000
0010
1000
0000
0010
0100
0000
0010
0001
0000
0010
0100
0001
,
2000
0000
0001
0001
0000
0100
0100
0000
,
3002
0000
0000
0000
1000
0000
1000
0000
0000
0000
0100
0000
0100
0000
0103
0010
,
1000
1000
0001
0001
,
0100
0000
0100
0000
0010
0000
0010
1000
,
2002
0000
3003
0000
0001
0100
0010
1000
,
2002
0000
3003
0000
1000
0100
0010
0001
,
1000
0010
0001
0010
1000
0100
0001
0100
,
2000
0000
0001
0000
3002
0000
0100
0000
0203
0000
0010
0000
0310
1000
0001
1000
,
0100
0000
0010
0001
0100
0000
0010
0000
1010
0000
0000
1100
0000
0000
0011
0000
,
0001
0000
1000
0010
0100
0000
0001
0000
1000
0100
0000
0001
0100
0000
0010
0000
,
0001
0000
1000
0010
0100
0000
0010
0000
1010
0000
0000
0101
0000
0000
1001
0000
,
1000
0000
0001
0010
0100
0010
0001
0000
1001
0000
1000
0010
0100
0001
1000
0100
,
0010
0000
0001
0100
0001
0010
0100
0000
1000
0001
1000
0010
0100
0010
1000
0000
,
1001
0000
0001
0010
0100
1000
0010
0000
0100
0001
1000
0100
0010
0100
1000
0000
,
0001
0100
0001
0010
0001
0000
1000
0100
1000
0010
1000
0000
0001
0100
0010
0000
,
1000
0100
0010
0100
1000
0001
0100
0010
0100
1000
0100
0001
1000
0000
0010
0000
,
0220
0000
0000
0000
,
0330
0000
0000
0000
;

//---------------dance-double - Kekkle-CDP----------------
#NOTES:
     dance-double:
     Kekkle:
     Challenge:
     15:
     0.715685,0.842019,0.354327,0.236218,0.536412,509,473,36,24,0,0,0.715685,0.842019,0.354327,0.236218,0.536412,509,473,36,24,0,0:
00000000
00000000
00000000
00000000
,
00000000
00000000
00000000
00000000
,
00000000
00000000
00000000
00000000
,
00000000
00000000
00000000
00000000
,
00000000
00000000
00000000
00000000
,
10000000
01000000
00010000
00001000
00000100
00000002
00001000
00001003
,
00000001
00000010
00001000
00010000
00100000
20000000
00010000
30010000
,
10000000
01000000
00010000
00001000
00010000
02000000
00100000
03100000
,
00001000
00010000
00000010
00000100
00001000
00010000
00000100
00001000
,
00010000
00000000
01000000
00000000
00100000
00000000
00010000
00000000
00002000
00000000
00000000
01000000
00000000
00000000
00013000
00000000
,
00000010
00000000
00001000
00000000
00000100
00000000
00000000
00000000
00020000
00000000
00000000
00000010
00000000
00000000
00031000
00010000
,
00001000
00000000
01000000
00000000
00100000
00000000
10000000
00000000
00020000
00000000
00000000
00001000
00000000
00000000
00130000
00000000
,
00101000
00000000
00010010
00000000
01002000
00010000
00010000
00013000
,
00000100
00000000
00001000
00000000
00000010
00000000
00000100
00000000
00000001
00000000
00001000
00000100
00000000
00010000
00000100
00000000
,
00010000
00000000
00001000
00000000
01000000
00000000
00100000
00000000
00010000
00000000
00100000
01000000
00000000
00100000
10000000
00000000
,
00010000
00000000
00100000
00000000
00001000
00000000
00010000
00000000
00000010
00000000
00001000
00000100
00000000
00000001
00000100
00000000
,
00000010
00000000
00000001
00000000
00001000
00000000
00000010
00000000
00010010
00000000
00000000
00011000
00000000
00000000
00101000
00000000
,
00100000
00000000
00010000
10000000
00010000
00000000
01000000
00000000
01001000
00000000
00000000
00011000
00000000
00000000
00101000
00000000
,
00100000
00000000
00001000
00010000
00000010
00000000
00001000
00000000
00001001
00000000
00000000
00010100
00000000
00000000
00001010
00000000
,
00000010
00000000
00010000
00000100
00010000
00000000
00001000
00000000
01001000
00000000
00000000
10100000
00000000
00000000
00110000
00000000
,
00010000
00000000
01000000
00000000
00100000
00000000
00010000
00000000
00000010
00000000
00001000
00000100
00000000
00000010
00000001
00000000
,
00001000
00000000
00000010
00001000
00000010
00000000
00001000
00000000
00000100
00010000
00000000
00001000
02000000
00000000
03010000
00000000
,
00010000
00000000
10000000
01000000
10000000
00000000
00100000
00000000
01000000
00001000
00000000
00010000
00000200
00000000
00001300
00000000
,
00001000
00000010
00010010
00000000
00010000
00001000
00101000
00000000
,
00001000
00010000
00010100
00011000
00022000
00000000
00033000
00000000
,
00001000
00000000
01000000
00010000
01000000
00000000
00100000
00000000
10000000
00010000
10000000
00000000
01000000
00010000
00001000
00000000
,
00100000
00000000
00001000
00010000
00001000
00000000
00010000
00000000
00000010
00001000
00000010
00000000
00000100
00001000
00010000
00000000
,
00000100
00000000
00010000
00001000
00010000
00000000
00000010
00000000
00001000
00000100
00001000
00000000
00000001
00000100
00001000
00000000
,
00010000
00100000
00010000
00100000
10000000
00010000
10000000
00000000
01000000
00010000
01000000
00010000
00001000
00010000
00001000
00000000
,
00010000
00000000
00000010
00001000
00000010
00000000
00001000
00000000
00000100
00000010
00000001
00000000
00000010
00001000
00010000
00000000
,
00000100
00000000
00010000
00001000
00010000
00000000
00001000
00000000
00100000
00010000
00100000
00000000
10000000
00100000
00010000
00000000
,
01000000
00000000
00100000
10000000
00100000
00000000
01000000
00000000
00001000
00010000
00001000
00000000
00010000
00000100
00000010
00000000
,
00001000
00000010
00001000
00000000
00000010
00000001
00001000
00000000
00000010
00010000
00001000
00000000
00010000
00001000
01000000
00010000
,
01000000
00000000
00010000
10000000
01000000
00000000
00010000
00000000
00011000
00000000
00010000
00000010
00000000
00000000
00000110
00000000
,
00000010
00000000
00001000
00000001
00001000
00000000
00000100
00000000
00010100
00000000
00010000
00001000
00000000
00000000
00101000
00000000
,
00100000
00000000
00010000
01000000
00100000
00000000
01000000
00000000
01001000
00000000
00001000
00010000
00000000
00000000
00010100
00000000
,
00000100
00000000
00001000
00000010
00001000
00000000
00000001
00000000
00000011
00000000
00000010
00000100
00001000
00000000
00000100
00000000
,
00020200
00000000
00030300
00000000
00010000
00000000
00001000
01000000
00100000
00000000
01000000
00000000
00010000
10000000
01000000
00000000
,
02200000
00000000
03300000
00000000
01000000
00000000
00100000
00001000
00010000
00000000
00000010
00000000
00001000
00000010
00000100
00000000
,
00000001
00000100
00000010
00001000
00010000
00010000
01000000
00100000
,
01100000
00000000
01000000
00000000
00001000
00000000
00010000
00000010
00010000
00000000
00000100
00000000
00001000
00000000
00000100
00000010
,
00000001
00000100
00001000
00000000
00010000
00100000
00000000
10000000
01000000
00000000
00010000
00001000
00000000
00000010
00000001
00001000
,
00000020
00010000
00000100
00001000
,
00020030
00000000
00000000
00000000
00001000
00000000
00000000
00000000
00000100
00000000
00000000
00000000
00031000
00000000
00001000
01000000
,
00010000
00010000
10000000
10000000
,
01000000
00000000
01000000
00000000
00010000
00000000
00010000
00000010
,
00002000
00000000
00003001
00000010
00001000
00010000
00001000
00000100
,
00002000
00000000
00013000
00100000
10000000
01000000
00100000
00010000
,
01000000
00001000
00010000
00000010
00010000
00001000
00100000
00001000
,
00020000
00000000
00000000
00000000
00030020
00000000
00000000
00000000
00000230
00000000
00000000
00000000
00000301
00001000
00000001
00001000
,
00000100
00000000
00001000
00000100
00010000
00000000
00001000
01000000
00010000
00000000
00000000
10010000
00000000
00000000
11000000
00000000
,
01000000
00000000
00010000
00001000
01000000
00000000
00001000
00000000
00010000
00000000
00000010
00001000
00000000
00000100
00001000
00000000
,
00000100
00000000
00000010
00000001
00001000
00000000
00000010
00001000
00000100
00000000
00000000
00010100
00000000
00000000
00011000
00000000
,
00001000
00000000
01000000
00100000
10000000
00000000
00100000
00000000
01000000
00000000
00001000
00010000
00000000
00001000
00100000
00000000
,
00001000
00010000
00001000
00010000
00000010
00000000
00000100
00000001
00001000
00000100
00000010
00000100
00001000
00000000
00000100
00010000
,
00001000
00100000
00010000
00100000
00010000
00000000
01000000
00100000
10000000
00010000
00100000
01000000
00100000
00000000
00010000
10000000
,
00100000
10000000
01000000
00100000
00010000
00000000
01000000
00100000
01000000
00001000
00100000
00001000
00010000
00000000
00000010
00001000
,
00000100
00000000
00000010
00000000
00000011
00000000
00000001
00000000
00001000
00000100
00000000
00010000
00001000
00000000
00001000
00000000
,
00022000
00000000
00000000
00000000
,
00033000
00000000
00000000
00000000
;

//---------------dance-double - Kekkle-EDP----------------
#NOTES:
     dance-double:
     Kekkle:
     Hard:
     12:
     0.548364,0.599404,0.118109,0.187006,0.196848,390,378,12,19,0,0,0.548364,0.599404,0.118109,0.187006,0.196848,390,378,12,19,0,0:
00000000
00000000
00000000
00000000
,
00000000
00000000
00000000
00000000
,
00000000
00000000
00000000
00000000
,
20000000
00000000
00000000
00000000
,
00020000
00030000
02000000
33000000
,
10000000
00000000
00010000
10000000
00010000
00000000
00100000
00010000
00100000
00000000
00001000
00000000
00010000
00000000
00000000
00000000
,
00000010
00000000
00001000
00000100
00001000
00000000
00000100
00010000
00000100
00000000
00010000
00000000
00000010
00000000
00000000
00000000
,
00001000
00000000
00000100
00010000
00000100
00000000
00010000
00001000
00010000
00000000
00001000
00000000
01000000
00000000
00000000
00000000
,
00010000
10000000
00010000
00000000
01000000
00000000
00001000
00000000
00100000
00010000
00100000
00000000
00001000
00000000
00010000
00000000
,
00000010
00000000
00001000
00000000
00000100
00000000
00000000
00000000
00000010
00000000
00000000
00000001
00000100
00000000
00000010
00000000
,
00001000
00000000
00000100
00000000
00010000
00000000
00000000
00000000
00000100
00000000
00000000
00010000
00001000
00000000
01000000
00000000
,
00010000
00000000
00100000
00000000
00010000
00000000
00000000
00000000
10000000
00000000
00000000
00100000
01000000
00000000
00001000
00000000
,
00100000
00000000
00001000
00000000
00010000
00000000
00000000
00000000
00000010
00000000
00000000
00001000
00000010
00000000
00010000
00000000
,
00000100
00001000
00000100
00000001
00000100
00001000
00000100
00000010
,
00000100
00010000
00001000
00010000
00000100
00010000
00001000
00100000
,
00010000
00100000
10000000
00100000
00010000
00100000
01000000
00100000
,
00001000
00010000
00000100
00010000
00001000
00010000
00000100
00001000
,
00000010
00000010
00000200
00000000
00000301
00000001
00000010
00001000
,
00010000
01000000
00100000
00000000
00001000
00010000
00000010
00000000
,
00000100
00000100
00000002
00000000
00001003
00001000
00000100
00010000
,
00001000
00100000
01000000
00000000
00010000
00001000
01000000
00000000
,
00100000
00100000
00020000
00000000
00031000
00001000
00000100
00000010
,
00010000
00001000
00000100
00000000
00001000
00010000
01000000
01100000
,
00000000
00101000
00000000
00011000
00000000
00010010
00000110
00000000
,
00002002
00000000
00003003
00000000
,
00001100
00000000
00000000
00000100
00010000
00000000
00000000
00000000
00001000
00000000
01000000
00010000
01000000
00000000
00000000
00000000
,
00100000
10000000
00100000
00010000
00001000
00000100
00000010
00000000
,
00010010
00000000
00000000
00010000
00001000
00000000
00000000
00000000
00100000
00000000
00010000
10000000
00010000
00000000
00000000
00000000
,
01000000
00000000
00001000
00000000
00010000
00000000
00000010
00000000
00001000
00000010
00001000
00000000
00000001
00000000
00000010
00000000
,
00000200
00000000
00010300
00010000
00001000
00100000
01000000
00100000
,
00020000
00000000
01030000
01000000
00100000
00010000
00001000
00000000
,
00000100
00000010
00001000
00000000
00000001
00000010
00000100
00000000
,
00010100
00000000
00000000
00010000
00001000
00000000
00100000
00000000
00010000
00000000
00010000
00000000
01000000
00000000
00000000
00000000
,
10100000
00000000
00000000
10000000
00010000
00000000
00000000
00000000
00100000
00000000
00001000
00010000
00001000
00000000
00000000
00000000
,
00010000
00000000
00000010
00000000
00001000
00000000
00000010
00000000
00000100
00000001
00000100
00000000
00000010
00000000
00000000
00000000
,
00001010
00000000
00000000
00001000
00000100
00000000
00000000
00000000
00010000
00000000
00001000
01000000
00001000
00000000
00000000
00000000
,
00100000
00000000
00010000
00000000
00100000
00000000
01000000
00000000
10000000
00010000
10000000
00000000
00100000
00000000
01000000
00000000
,
00020000
00000000
00031000
00001000
00000010
00000100
00001000
00000100
,
00000002
00000000
00001003
00001000
00000100
00001000
00010000
00000000
,
00100000
00010000
01000000
00000000
00100000
10000000
01000000
00000000
,
01100000
00000000
00000000
00100000
00001000
00000000
00010000
00000000
00000010
00000000
00000010
00000000
00000100
00000000
00000000
00000000
,
00000001
00000000
00001000
00000001
00000000
00001000
00000001
00000000
00001000
00000001
00000000
00001000
00000001
00000000
00000010
00000000
,
00000200
00000000
00010000
00000000
00010300
00001000
00010000
00001000
,
00000000
01000000
00000000
00010000
00000000
10000000
00000000
01000000
,
00200000
00000000
00001000
00000000
00301000
00010000
00001000
00010000
,
00000000
00000010
00000000
00001000
00000000
00000010
00000000
00000100
,
00000002
00000000
00001003
00001000
00000100
00010000
00000100
00010000
,
00002000
00000000
00103000
00100000
00010000
01000000
00100000
00010000
,
00200000
20300000
00000000
30010000
,
02000000
10000000
00100000
03010000
,
10000000
00000000
00000000
00000000
00010000
00000000
00100000
00000000
00001000
00010000
00001000
00000000
00010000
00000000
00000010
00000000
,
00001000
00000000
00000000
00000000
00000010
00000000
00000100
00000000
00000001
00000100
00000001
00000000
00001000
00000000
00000100
00000000
,
00010000
00000000
00000000
00000000
00000100
00000000
00010000
00000000
00000100
00010000
00000100
00000000
00010000
00000000
00001000
00000000
,
00100000
00000000
00000000
00000000
00010000
00000000
00100000
00000000
01000000
00100000
01000000
00000000
00100000
00000000
00010000
00000000
,
10000000
00000000
00000000
00000000
00100000
00000000
01000000
00000000
00010000
01000000
00001000
00000000
00010000
00000000
00000100
00000000
,
00010000
00000000
00000000
00000000
00000100
00000000
00001000
00000000
00000001
00000100
00000010
00000000
00001000
00000000
00000010
00000000
,
00010000
00000000
00000000
00000000
00001000
00000000
00100000
00000000
00010000
00100000
01000000
00000000
00100000
00000000
00010000
00000000
,
10000000
00000000
00010000
00000000
01000000
00000000
00001000
00000000
00010000
00001000
00010000
00001000
00010000
00001000
00010000
00001000
,
00010000
00000000
00000000
00000000
;

//---------------dance-double - Kekkle-DDP----------------
#NOTES:
     dance-double:
     Kekkle:
     Medium:
     9:
     0.352921,0.456688,0.078739,0.285430,0,251,243,8,29,0,0,0.352921,0.456688,0.078739,0.285430,0,251,243,8,29,0,0:
// measure 0
00000000
00000000
00000000
00000000
,  // measure 1
00000000
00000000
00000000
00000000
,  // measure 2
00000000
00000000
00000000
00000000
,  // measure 3
00020000
00000000
00000000
00000000
,  // measure 4
00002000
00000000
00000000
00033000
,  // measure 5
00001000
00000000
01000000
00000000
00010000
01000000
00100000
00000000
,  // measure 6
10000000
00000000
00010000
00000000
00100000
00001000
00010000
00000000
,  // measure 7
00000010
00000000
00001000
00000000
00000010
00000100
00000001
00000000
,  // measure 8
00001000
00000000
00000100
00000000
00010000
00001000
00100000
00010000
,  // measure 9
10000000
00100000
10000000
00000000
00010000
00000000
00100000
00000000
,  // measure 10
00001000
00010000
00001000
00000000
00010000
00000000
00000010
00000000
,  // measure 11
00000100
00000001
00000100
00000000
00000001
00000000
00001000
00000000
,  // measure 12
00000100
00010000
00000100
00000000
00010000
00000000
00001000
00000000
,  // measure 13
00100000
00010000
00100000
01000000
10000000
00000000
00010000
00000000
,  // measure 14
01000000
00001000
00010000
00000000
00001000
00000000
00001000
00000000
,  // measure 15
00010000
00000010
00001000
00000010
00000100
00000000
00000001
00000000
,  // measure 16
00001000
00000100
00010000
00000000
00000100
00000000
00000100
00000000
,  // measure 17
00001000
00010000
00100000
01000000
,  // measure 18
00100000
00010000
10000000
00000000
00100000
00000000
00100000
00000000
,  // measure 19
01000000
00001000
00010000
00001000
,  // measure 20
00000100
00000010
00001000
00000000
00000001
00000010
00000001
00000000
,  // measure 21
00001000
00000100
00010000
00000100
,  // measure 22
00001000
00010000
00100000
00000000
00001000
00000000
01000000
00000000
,  // measure 23
00020000
01030000
20000000
31000000
,  // measure 24
20020000
00000000
30030000
00000000
,  // measure 25
00010000
00000000
01000000
00000000
00001000
00010000
00000010
00000000
,  // measure 26
00001000
00000000
00000010
00000000
00000200
00000001
00000301
00000000
,  // measure 27
00001000
00000000
00000100
00000000
00010000
00001000
00100000
00000000
,  // measure 28
00020000
00000000
00030000
00000000
20000000
01000000
31000000
00000000
,  // measure 29
01100000
00000000
00000000
00000000
00200000
00001000
00301000
00000000
,  // measure 30
00011000
00000000
00000000
00000000
00020000
00000100
00030100
00000000
,  // measure 31
00000020
00000000
00000200
00000030
,  // measure 32
00002300
00000000
00000100
00003100
,  // measure 33
00010000
00000000
00001000
00000000
00100000
00010000
10000000
00000000
,  // measure 34
00100000
00000000
01000000
00000000
00002000
00010000
00013000
00000000
,  // measure 35
00000100
00000000
00000010
00000000
00000001
00001000
00000010
00000000
,  // measure 36
00001000
00000000
00000100
00000000
00020000
00001000
00031000
00000000
,  // measure 37
01001000
00000000
00000000
00000000
02000000
00100000
03100000
00000000
,  // measure 38
10100000
00000000
00000000
00000000
20000000
00010000
30010000
00000000
,  // measure 39
00200000
00000000
00002000
00300000
,  // measure 40
00023000
00000000
00000000
00030000
,  // measure 41
00000010
00001000
00000010
00000100
00000010
00000001
00000010
00000100
,  // measure 42
00000010
00000010
00010000
00000000
,  // measure 43
00002000
00000000
00003000
00000000
,  // measure 44
00100000
00100000
00010000
00000000
,  // measure 45
02000000
00000000
00000000
03200000
00000000
10000000
10300000
00000000
,  // measure 46
10010000
00000000
00000000
00000000
00020000
00100000
00130000
00000000
,  // measure 47
00101000
00000000
00000000
00000000
00002000
00010000
00013000
00000000
,  // measure 48
00000020
00000000
00002000
00000030
,  // measure 49
00003200
00000000
00000000
00000300
,  // measure 50
00010000
00000100
00001000
00000000
00000100
00010000
00001000
00000000
,  // measure 51
01000000
00001000
00100000
00000000
00010000
00100000
01000000
00000000
,  // measure 52
10000000
00010000
01000000
00000000
00100000
00010000
00001000
00000000
,  // measure 53
00100000
00001000
00010000
00000000
00000100
00001000
00000010
00000000
,  // measure 54
00000100
00000001
00000100
00000010
00010000
00000010
00010000
00000000
,  // measure 55
00000100
00010000
00001000
00000000
00100000
00001000
00010000
00000000
,  // measure 56
00001000
01000000
00001000
01000000
00010000
00100000
00010000
00000000
,  // measure 57
10000000
00100000
01000000
00000000
00001000
00100000
00001000
00010000
,  // measure 58
00011000
00000000
00000000
00000000
;

//---------------dance-double - Kekkle-BDP----------------
#NOTES:
     dance-double:
     Kekkle:
     Easy:
     6:
     0.237624,0.285430,0.019685,0.226376,0,169,167,2,23,0,0,0.237624,0.285430,0.019685,0.226376,0,169,167,2,23,0,0:
00000000
00000000
00000000
00000000
,
00000000
00000000
00000000
00000000
,
00000000
00000000
00000000
00000000
,
00002000
00000000
00000000
00000000
,
00000000
00000000
00000000
00003000
,
01000000
00010000
01000000
10000000
,
00010000
10000000
01000000
00010000
,
00100000
00001000
00010000
00000100
,
00000010
00001000
00000010
00000001
,
00001000
00001000
00000010
00000000
,
00001000
00001000
00010000
00000000
,
01000000
01000000
00010000
00000000
,
10000000
10000000
01000000
00000000
,
00100000
00001000
00100000
00001000
,
00010000
00001000
00010000
00001000
,
00010000
00000010
00010000
00000010
,
00001000
00000100
00001000
00000100
,
00000000
00010000
00000000
00001000
,
01000000
00010000
00100000
00100000
,
00000000
01000000
00000000
10000000
,
00010000
01000000
00001000
00001000
,
00000000
00010000
00000000
00000100
,
00000010
00000001
00000000
00000000
,
00001000
00000010
00010000
00000100
,
00022000
00000000
00033000
00000000
,
00001000
01000000
00100000
00100000
,
00010000
00001000
00100000
01000000
,
00100000
00001000
00010000
00010000
,
00000010
00000100
00001000
00000100
,
00000002
00000003
00001000
00000100
,
00020000
00030000
00001000
00100000
,
02000000
00000000
00000000
03000000
,
00000000
00000000
10000000
10000000
,
00010000
01000000
00100000
00100000
,
00010000
00001000
00010000
00100000
,
00001000
00001000
00010000
00001000
,
00000010
00001000
00000100
00000010
,
00000200
00000300
00010000
00001000
,
02000000
03000000
00010000
00100000
,
02000000
00000000
00000000
03000000
,
00200000
00000000
00000000
00300000
,
00000000
00000000
00000000
00000000
,
00002000
00023000
00030020
00000030
,
00002000
00000000
00003000
00000000
,
00000002
00000023
00000230
00000300
,
00020000
00030000
00001000
01000000
,
00200000
00300000
10000000
00010000
,
00200000
00300000
00001000
00010000
,
00000020
00000230
00000000
00000302
,
00000000
00000000
00000003
00000000
,
00001000
00000100
00010000
00001000
,
00000100
00001000
00010000
00100000
,
01000000
00010000
00100000
00010000
,
00001000
00010000
00100000
00001000
,
01000000
01000000
00100000
00010000
,
00001000
00001000
00000100
00000001
,
00000100
00000100
00000010
00000100
,
00010000
00010000
00001000
00010000
,
10010000
00000000
00000000
00000000
;
