#TITLE:Chronoxia;
#ARTIST:DJ Totoriott;
#BANNER:Chronoxia.png;
#BACKGROUND:Chronoxia-bg.png;
#MUSIC:Chronoxia.ogg;
#OFFSET:0.917333;
#SAMPLESTART:79.830338;
#SAMPLELENGTH:15;
#BPMS:0=180,196=90,212=180;
#STOPS:226=0.333;

//---------------dance-single - NewbStepper-ESP----------------
#NOTES:
     dance-single:
     NewbStepper:
     Hard:
     16:
     0.736034,0.852626,0.109982,0.135363,0.727574,609,596,13,16,0,0,0.736034,0.852626,0.109982,0.135363,0.727574,609,596,13,16,0,0:
// measure 0
0000
0000
0000
0000
,  // measure 1
0000
0000
0000
0000
,  // measure 2
0000
0000
0000
0000
,  // measure 3
0000
0000
0000
0000
,  // measure 4
0000
0000
0000
0000
,  // measure 5
0000
0000
0000
0000
,  // measure 6
0000
0000
0000
0000
,  // measure 7
0000
0000
0000
0000
,  // measure 8
0000
0000
0000
0000
,  // measure 9
1001
0000
0000
0001
0010
0100
1000
0000
0000
0001
0100
0010
,  // measure 10
1000
0000
0000
0010
0000
0000
0100
0001
1000
0100
0010
0001
,  // measure 11
1000
0000
0000
1000
0010
0100
0001
0000
0000
1000
0100
0010
,  // measure 12
0001
0000
0000
0010
0000
0000
0100
1000
0001
0100
0010
1000
,  // measure 13
0001
0000
0000
0001
0010
0001
0010
0000
0000
0100
1000
0100
,  // measure 14
1000
0000
0000
0010
1000
0100
0010
0001
0100
0010
1000
0100
,  // measure 15
0010
0000
0000
0001
0100
1000
0100
0001
1000
0100
0001
0100
,  // measure 16
1000
0000
0100
0100
1010
0100
0100
0000
,  // measure 17
2000
0000
0100
0000
,  // measure 18
3002
0000
0010
0000
,  // measure 19
1003
1000
0000
0000
0010
0000
0000
0000
,  // measure 20
0001
0001
0000
0000
0100
0000
0010
0000
,  // measure 21
1001
0100
0100
0100
,  // measure 22
1001
0010
0010
0010
,  // measure 23
0001
1000
0100
0001
1000
0010
0001
1000
,  // measure 24
0100
0010
0100
0010
0001
0100
0001
0100
0010
1000
0010
1000
0100
0000
0000
0000
,  // measure 25
1000
0100
0001
0100
1000
0010
1000
1000
,  // measure 26
0100
0001
0100
1000
0010
0100
0100
0000
,  // measure 27
0001
0100
1000
0100
0001
0010
0001
0001
,  // measure 28
0100
1000
0100
0001
0010
0100
0100
0000
,  // measure 29
1000
0000
0100
0010
0100
0000
1000
0100
0010
0000
0001
0000
1000
0010
0100
0000
,  // measure 30
0001
0000
1000
0100
1000
0000
0001
0000
0100
0000
0010
0000
1000
0000
0000
0000
,  // measure 31
0001
0000
0010
0100
1000
0000
0010
0100
0001
0000
0010
0100
1000
0000
0010
0100
,  // measure 32
0001
0000
0100
0000
1000
0000
0100
0000
0001
0000
0010
0000
0100
1000
0100
1000
,  // measure 33
0001
0000
0010
0001
1000
0000
0010
1000
0001
0000
0100
0000
0010
1000
0010
0100
,  // measure 34
0001
0000
1000
0100
1000
0000
0001
0000
0100
0000
0010
0000
0010
0000
0000
0000
,  // measure 35
1000
0000
0010
1000
0001
0000
0010
0001
1000
0000
0100
0000
0001
0000
0100
0000
,  // measure 36
1000
0000
0010
0100
0001
0100
0010
0100
0010
0000
1000
0100
1000
0100
0010
0000
,  // measure 37
0002
0000
0000
0000
0000
0000
0103
0010
2000
0000
0000
0000
0000
0000
3100
0000
,  // measure 38
0020
0000
0000
0031
0200
0000
0310
0000
,  // measure 39
1000
0000
0000
1000
0010
0000
0000
0010
0100
0000
0000
0100
0001
0000
0000
0001
,  // measure 40
0010
0011
0000
0000
1100
1100
0000
0000
,  // measure 41
0001
0010
0001
0010
0000
0000
0100
1000
0100
1000
0000
0000
,  // measure 42
0001
0100
0001
1000
0100
0001
0100
1000
0010
1000
0000
0000
,  // measure 43
1000
0010
1000
0010
0000
0000
0100
0001
0100
0001
0000
0000
,  // measure 44
1000
0100
1000
0001
0100
1000
0100
0001
0010
0001
0000
0001
,  // measure 45
1000
0010
1000
0001
0010
0001
0100
0010
0100
1000
0100
0001
,  // measure 46
1000
0100
0001
0100
1000
0010
0100
0001
1000
0100
0000
0000
,  // measure 47
0010
0001
0100
0010
1000
0100
0001
0100
1000
0001
0100
1000
,  // measure 48
0100
0001
1000
0100
0010
0001
1000
0010
0001
1000
0100
0001
,  // measure 49
2000
0000
3002
0000
,  // measure 50
0203
0000
0310
1000
0001
0010
0100
1000
,  // measure 51
0002
0000
2003
3020
,  // measure 52
0230
0000
0302
0000
,  // measure 53
1003
0000
0000
0010
0100
0000
0000
0001
0010
0000
0000
0001
1000
0000
0000
0001
,  // measure 54
0100
0000
0000
0010
1000
0000
0000
0010
0100
0000
0000
0001
1000
0000
0000
0001
,  // measure 55
0010
0000
0001
0100
0001
0000
1000
0100
1000
0000
0001
0100
0001
0000
1000
0100
,  // measure 56
1000
0000
0001
0100
0010
1000
0100
0010
0001
0000
0000
0000
1000
0000
0100
0000
,  // measure 57
0010
0000
0001
0100
0001
0000
1000
0000
0010
0000
0100
0000
0001
0100
0001
0100
,  // measure 58
0010
0100
0010
0100
0001
0000
1000
0000
0100
0000
0010
0000
0001
0000
0100
0001
,  // measure 59
1000
0000
0100
1000
0001
0000
1000
0000
0100
0000
0001
0000
0100
0000
1000
0000
,  // measure 60
0010
0000
0200
0000
0000
0000
0301
0010
0001
0000
1000
0000
0001
0000
0100
0000
,  // measure 61
0010
0000
1000
0100
1000
0000
0001
0000
0010
0000
0100
0000
1000
0100
1000
0100
,  // measure 62
0010
0100
0010
0100
1000
0000
0001
0000
0100
0000
0010
0000
1000
0000
0100
0000
,  // measure 63
0001
0000
0100
0000
1000
0000
0010
0000
0001
0000
0010
0000
1000
0000
0000
1000
,  // measure 64
0001
0000
0000
0001
0010
0000
0100
0000
1001
0000
0000
0000
1000
0000
0010
0000
,  // measure 65
0001
0000
0010
0100
0010
0000
1000
0000
0001
0000
0100
0000
0010
0100
0001
0100
,  // measure 66
0010
0100
0001
0100
0010
0000
1000
0000
0001
0000
0100
0000
1000
0000
0100
0000
,  // measure 67
0001
0000
0010
0100
1000
0000
0010
0100
0001
0000
1000
0000
0001
0000
0010
0000
,  // measure 68
0100
0000
2000
0000
0000
0000
3010
0100
0010
0000
1000
0000
0001
0000
0010
0000
,  // measure 69
1000
0000
0010
0100
0010
0000
0001
0000
1000
0000
0100
0000
0010
0100
1000
0100
,  // measure 70
0010
0100
1000
0100
0010
0000
0001
0000
1000
0000
0100
0000
0001
0000
0100
0000
,  // measure 71
1000
0000
0010
0100
0001
0000
0010
0100
1000
0000
0010
0000
0001
0000
0010
0000
,  // measure 72
1000
0100
0010
0001
1001
0000
0001
1000
,  // measure 73
0100
0001
0100
1000
0001
0000
1000
0001
,  // measure 74
0100
1000
0100
0001
1000
0000
0010
0100
,  // measure 75
0010
1000
0100
0010
0001
0000
0010
1000
,  // measure 76
0010
0000
0001
0000
0101
0000
0000
0000
1010
0000
0000
0000
0001
0000
0100
0010
,  // measure 77
0100
0000
1000
0100
0001
0000
0010
0000
0100
1000
0010
0000
1000
0000
0100
0010
,  // measure 78
0100
0000
0001
0100
1000
0000
0010
0000
0100
0001
0010
0000
0001
0000
0100
0000
,  // measure 79
0001
0000
0100
0000
0010
0000
1000
0000
0010
0000
1000
0000
0100
0010
0100
0010
,  // measure 80
0001
0100
0001
0100
0010
1000
0010
0000
0110
0000
1001
0000
0000
0000
0000
0000
;

//---------------dance-single - NewbStepper-DSP----------------
#NOTES:
     dance-single:
     NewbStepper:
     Medium:
     12:
     0.507610,0.647996,0.152283,0.160743,0.164973,420,402,18,19,0,0,0.507610,0.647996,0.152283,0.160743,0.164973,420,402,18,19,0,0:
0000
0000
0000
0000
,
0000
0000
0000
0000
,
0000
0000
0000
0000
,
0000
0000
0000
0000
,
0000
0000
0000
0000
,
0000
0000
0000
0000
,
0000
0000
0000
0000
,
0000
0000
0000
0000
,
0000
0000
0000
0000
,
1000
0000
0000
0100
1000
0100
1000
0000
0000
0001
0100
0001
,
0100
0010
1001
0100
,
0001
0000
0000
0010
0001
0010
0001
0000
0000
1000
0010
1000
,
0010
0100
1001
0010
,
1000
0000
0000
0010
1000
0010
1000
0000
0000
0001
0010
0001
,
0010
0100
1001
0010
,
0001
0000
0000
0100
0001
0100
0001
0000
0000
0100
0000
0000
,
0220
0000
0000
0330
,
1000
0000
0100
0000
,
0010
0000
0001
0000
,
1000
0000
0010
0000
,
0100
0000
0001
0000
,
1001
0100
0100
0100
,
1001
0010
0010
0010
,
1000
0100
1000
0100
0010
0001
0010
0001
,
1000
0010
0100
0001
1000
0100
0010
0000
,
0001
0000
0101
0000
0010
1000
0001
0000
,
0010
0001
1000
0010
0100
0000
0010
0000
,
1000
0000
1100
0000
0010
0001
1000
0000
,
0010
1000
0001
0010
0100
1000
0010
0000
,
0100
0000
0101
0000
1000
0001
0100
0000
,
0010
1000
0100
0001
0100
1000
0010
0000
,
1000
0100
1000
0001
0100
0001
1000
0100
,
0010
0001
0100
1000
0100
0001
0010
0000
,
0001
0100
0010
0100
1000
0100
0001
0000
,
1000
0100
0010
0100
0001
0100
1000
0000
,
0010
1000
0100
0010
0001
0100
0010
0000
,
0100
0001
0010
0100
1000
0010
0100
0000
,
0002
0103
2000
3100
,
0002
0013
2000
3010
,
0001
0100
0010
1000
,
0100
0100
0000
0000
0010
0010
0000
0000
,
0002
0100
2003
0010
,
3001
0000
0001
0100
0000
0100
0010
1000
0010
1000
0000
0000
,
2000
0100
3002
0010
,
1003
0000
1000
0100
0000
0100
0010
0001
0010
0001
0000
0000
,
1000
0010
1000
0010
0000
0000
0100
0001
0100
0001
0000
0000
,
0010
0000
0010
0001
0000
0001
0100
0000
0100
0010
0000
0000
,
1000
0001
1000
0001
0000
0000
0100
0010
0100
0010
0000
0000
,
1000
0001
1000
0100
1000
0001
1000
0001
0100
0001
0000
0000
,
2000
0000
3002
0000
,
0203
0000
0000
0000
0310
1000
0100
0010
,
0002
0000
2003
0000
,
3020
0000
0230
0000
,
0301
0001
0001
0001
,
1000
1000
1000
1000
,
0100
0100
0100
0100
,
2002
0000
3003
0010
,
0001
0100
0010
0000
1000
0100
0010
0001
,
0100
0010
1000
0000
0001
0100
1000
0000
,
1000
0100
0001
0000
0010
0001
1000
0010
,
0100
0001
0000
1000
0001
1000
0010
0000
,
1000
0100
0010
0000
0001
0100
0010
1000
,
0100
0010
0001
0000
1000
0100
0001
0000
,
0001
0100
1000
0000
0010
1000
0001
0010
,
0100
1000
0100
0000
1001
0000
0010
0001
,
1000
0010
0100
0000
1000
0100
0001
0010
,
0001
0100
0010
0000
0001
0010
1000
0000
,
0100
0000
0010
0001
0100
1000
0100
0001
,
0010
0100
0000
1000
0010
0001
0010
1000
,
0001
0010
0100
0000
0001
0100
1000
0010
,
1000
0100
0010
0000
1000
0010
0001
0000
,
0100
0000
0010
1000
0100
0001
0100
0000
,
0110
0000
1000
0001
1001
0000
0010
0000
,
1100
0010
0101
0010
,
1000
0100
0010
0001
1000
0000
0010
0000
,
0101
0010
1100
0010
,
0001
0100
0010
1000
0001
0000
1000
0001
,
0100
0001
1000
0100
0010
0000
0001
1000
,
0100
1000
0001
0100
0010
0000
1000
0100
,
0001
0100
1000
0001
0100
1000
0100
0001
,
0010
0100
1000
0010
0100
1001
0000
0000
;

//---------------dance-single - NewbStepper-BSP----------------
#NOTES:
     dance-single:
     NewbStepper:
     Easy:
     7:
     0.296106,0.341050,0.169203,0.541451,0,245,225,20,64,0,0,0.296106,0.341050,0.169203,0.541451,0,245,225,20,64,0,0:
0000
0000
0000
0000
,
0000
0000
0000
0000
,
0000
0000
0000
0000
,
0000
0000
0000
0000
,
0000
0000
0000
0000
,
0000
0000
0000
0000
,
0000
0000
0000
0000
,
0000
0000
0000
0000
,
0000
0000
0000
0000
,
0011
0000
1010
0000
,
1100
0000
0101
0000
,
0110
0000
1001
0000
,
1100
0000
0011
0000
,
1000
1000
0100
0100
,
0010
0010
0001
0001
,
1000
1000
0010
0010
,
0220
0000
0000
0330
,
1000
0000
0001
0000
,
1000
0000
0001
0000
,
2000
0000
3100
0000
,
0002
0000
0103
0010
,
1000
1000
0001
0001
,
0100
0100
0010
0010
,
1000
0100
0010
0001
,
2002
3003
0220
0330
,
0001
0100
1000
0100
,
0001
0010
0100
1000
,
1000
0100
0001
0100
,
1000
0010
0100
0001
,
0001
0010
1000
0100
,
0001
0010
1000
0100
,
0001
0010
0100
1000
,
0010
0100
2002
3003
,
1000
0100
0001
0100
,
2000
0000
3001
0010
,
0001
0100
1000
0100
,
0002
0000
1003
0010
,
2000
0000
3002
0000
,
0203
0000
0320
0000
,
1030
0100
0010
0001
,
1000
1000
0000
0000
0001
0001
0000
0000
,
0011
0000
1100
0000
,
0010
0001
0100
0010
,
1010
0000
0101
0000
,
0010
1000
0100
0010
,
0001
0100
1000
0100
,
0001
0010
0100
0100
,
1000
0100
0001
0100
,
1000
0010
0100
0001
,
2000
3000
0200
0300
,
0020
0030
0002
0003
,
2000
0000
3200
0000
,
0320
0000
0032
0000
,
1003
1000
1000
1000
,
0001
0001
0001
0001
,
1000
1000
1000
1000
,
0002
0000
0003
2000
,
0000
3002
0000
0103
,
0010
0220
0330
0002
,
0000
2003
0000
3100
,
0010
0100
0010
0002
,
0000
2003
0000
3100
,
0010
0220
0330
2000
,
0001
0001
3001
0100
,
0010
1000
0100
0020
,
0030
0001
0200
0000
0300
0010
2000
0000
,
3100
0220
0330
0002
,
0003
0100
2000
0000
3000
0100
0002
0000
,
0023
0230
2300
3020
,
0030
1000
0200
0000
0300
0010
0002
0000
,
0103
0220
0330
1000
,
0001
0100
0001
1000
,
0100
1000
0001
0020
,
0000
0032
0000
0203
,
0000
2300
0000
3020
,
0000
0032
0000
0203
,
0000
2300
0000
3020
,
0000
2030
0000
3200
,
0000
0302
0000
0013
,
0001
0100
0010
1000
,
0100
0000
0001
0000
0100
0100
0000
0000
;

//---------------dance-single - NewbStepper-bSP----------------
#NOTES:
     dance-single:
     NewbStepper:
     Beginner:
     3:
     0.122068,0.236144,0,0.050761,0,101,101,0,6,0,0,0.122068,0.236144,0,0.050761,0,101,101,0,6,0,0:
0000
0000
0000
0000
,
0000
0000
0000
0000
,
0000
0000
0000
0000
,
0000
0000
0000
0000
,
0000
0000
0000
0000
,
0000
0000
0000
0000
,
0000
0000
0000
0000
,
0000
0000
0000
0000
,
0000
0000
0000
0000
,
1000
0000
0000
0000
,
1000
0000
0000
0000
,
0001
0000
0000
0000
,
0001
0000
0000
0000
,
1000
1000
1000
0000
,
0001
0001
0001
0000
,
0200
0000
0000
0300
,
0010
0000
0000
0000
,
1000
0000
0000
0000
,
0100
0000
0000
0000
,
0010
0000
0000
0000
,
0001
0000
0000
0000
,
1000
0000
1000
0000
,
1000
0000
1000
0000
,
0001
0000
0001
0000
,
0002
0000
0003
0000
,
0100
0000
0000
0000
,
0100
0000
0000
0000
,
0010
0000
0000
0000
,
0010
0000
0000
0000
,
1000
0000
1000
0000
,
0001
0000
0001
0000
,
0200
0000
0000
0000
,
0000
0000
0000
0300
,
0010
0000
0010
0000
,
0000
1000
1000
0000
,
0100
0000
0100
0000
,
0000
0001
0001
0000
,
0010
0000
0010
0000
,
0100
0000
0100
0000
,
0002
0000
0000
0003
,
1000
0000
0001
0000
,
1000
0000
0000
0000
,
1000
0000
0000
0000
,
1000
0000
0000
0000
,
1000
0000
0000
0000
,
0001
0000
0000
0000
,
0001
0000
0000
0000
,
0001
0000
0000
0000
,
0001
0000
0000
0000
,
1000
0000
0000
0000
,
0000
0000
0000
0000
,
0000
0000
0000
0000
,
0000
0000
0000
0000
,
0001
0000
0000
0000
,
0001
0000
0000
0000
,
1000
0000
0001
0000
,
1000
1000
1000
0001
,
0000
0001
0000
0100
,
0000
0100
0000
1000
,
0000
1000
0000
0010
,
0000
0010
0000
0001
,
0000
0001
0000
1000
,
0000
1000
0000
0200
,
0000
0000
0300
0010
,
0000
0010
0000
0001
,
0000
0001
0000
0100
,
0000
0100
0000
1000
,
0000
1000
0000
0010
,
0000
0010
0000
0001
,
0000
0001
0000
1000
,
0000
1000
0000
0200
,
0000
0000
0300
0010
,
0000
0010
0000
0001
,
0000
0000
0000
1000
,
0000
0000
0000
0001
,
0000
0000
0000
1000
,
0000
0000
0000
0100
,
0000
0000
0000
0010
,
0000
0000
0000
0100
,
0000
0000
0000
0010
;

//---------------dance-double - NewbStepper-EDP----------------
#NOTES:
     dance-double:
     NewbStepper:
     Hard:
     16:
     0.719114,0.852626,0.093062,0.152283,0.689503,595,584,11,18,0,0,0.719114,0.852626,0.093062,0.152283,0.689503,595,584,11,18,0,0:
00000000
00000000
00000000
00000000
,
00000000
00000000
00000000
00000000
,
00000000
00000000
00000000
00000000
,
00000000
00000000
00000000
00000000
,
00000000
00000000
00000000
00000000
,
00000000
00000000
00000000
00000000
,
00000000
00000000
00000000
00000000
,
00000000
00000000
00000000
00000000
,
00000000
00000000
00000000
00000000
,
00011000
00000000
00000000
00100000
00001000
00010000
00001000
00000000
00000000
00100000
00010000
10000000
,
00100000
00000000
00000000
01000000
00000000
00000000
00010000
00100000
00001000
00010000
00000010
00001000
,
00000100
00000000
00000000
00000010
00000001
00000100
00000010
00000000
00000000
00001000
00000100
00010000
,
00001000
00000000
00000000
00100000
00000000
00000000
00010000
01000000
00100000
10000000
01000000
00010000
,
00001000
00000000
00000000
00000010
00000001
00000010
00000001
00000000
00000000
00001000
00000010
00001000
,
00000010
00000000
00000000
00010000
00001000
00100000
00010000
01000000
00100000
10000000
01000000
00100000
,
00010000
00000000
00000000
10000000
01000000
00010000
00001000
00000100
00000001
00001000
00000100
00000010
,
00000001
00000000
00000100
00001000
00000000
00010000
00100000
00000000
,
20000000
00000000
01000000
00000000
,
30020000
00000000
00100000
00000000
,
00032000
00000000
00000100
00000000
,
00003002
00000000
00000013
00000100
,
00001001
00000001
00000100
00001000
,
00011000
00010000
01000000
10000000
,
00010000
10000000
01000000
00010000
00001000
00000010
00000001
00001000
,
00000100
00000000
00000010
00000100
00000010
00000000
00000001
00000000
00001000
00000100
00001000
00000100
00010000
00000000
00000000
00000000
,
00001000
00100000
00001000
00000000
00010000
00000000
01000000
00000000
10000000
00000000
00100000
00000000
10000000
00000000
01000000
00000000
,
00010000
00001000
00000100
00000001
00000010
00001000
00001000
00000000
,
00010000
00000010
00010000
00000000
00001000
00000000
00000100
00000000
00000001
00000000
00000010
00000000
00000001
00000000
00000100
00000000
,
00001000
00010000
01000000
10000000
00100000
00010000
00010000
00000000
,
00001000
00000000
00100000
00010000
00100000
00000000
00001000
00100000
00010000
00000000
10000000
00000000
01000000
00000000
00010000
00000000
,
00001000
00000000
00000010
00000100
00000010
00000000
00000001
00000000
00000100
00000000
00001000
00000000
00001000
00000000
00000000
00000000
,
00010000
00000000
00001000
00100000
00001000
00000000
01000000
00010000
01000000
00000000
00100000
10000000
00100000
00000000
10000000
01000000
,
10000000
00000000
01000000
00000000
00010000
00000000
00001000
00000000
00000100
00000000
00000001
00000000
00000010
00000100
00000010
00000100
,
00001000
00000000
00000001
00000100
00000001
00000000
00001000
00000100
00001000
00000000
00000001
00000000
00000100
00000000
00001000
00000000
,
00010000
00000000
01000000
00100000
01000000
00000000
10000000
00000000
00100000
00000000
01000000
00000000
01000000
00000000
00000000
00000000
,
00010000
00000000
10000000
01000000
10000000
00000000
00010000
01000000
00010000
00000000
10000000
00000000
01000000
00000000
00010000
00000000
,
00001000
00000000
00000100
00000010
00000100
00000000
00000001
00000000
00000010
00000000
00000100
00001000
00000100
00001000
00000010
00000000
,
00020000
00000000
00000000
00000000
00030000
00000000
00001000
00100000
00020000
00000000
00000000
00000000
00000000
00000000
01030000
00000000
,
00200000
00000000
00000000
10300000
02000000
00000000
03010000
00000000
,
00001000
00000000
00000000
00001000
00000010
00000000
00000000
00000010
00000001
00000000
00000000
00000001
00000100
00000000
00000000
00000100
,
00000010
00001010
00000000
00000000
00010100
00010100
00000000
00000000
,
00001000
00100000
00001000
00010000
00000000
00000000
00100000
01000000
00010000
10000000
00000000
00000000
,
00100000
01000000
00001000
00010000
00000100
00001000
00000001
00000100
00001000
00010000
00000000
00000000
,
00010000
00000010
00010000
00001000
00000000
00000000
00000010
00000100
00001000
00000001
00000000
00000000
,
00000010
00000100
00010000
00001000
01000000
00010000
10000000
01000000
00010000
00001000
00000000
00001000
,
00100000
00010000
00100000
00001000
00010000
00001000
00000010
00000100
00000010
00000001
00001000
00000100
,
00010000
00001000
01000000
00010000
10000000
01000000
00010000
00001000
00000010
00000001
00000000
00000000
,
00000100
00000001
00001000
00000100
00010000
00001000
01000000
00010000
10000000
01000000
00010000
00001000
,
00000100
00000001
00001000
00000001
00000010
00001000
00010000
00100000
10000000
00010000
01000000
00100000
,
20000000
00000000
30020000
00000000
,
02030000
00000000
03100000
10000000
01000000
00010000
00001000
00000010
,
00000002
00000000
00002003
00003020
,
00000230
00000000
00002300
00000000
,
00013000
00000000
00000000
00010000
00001000
00000000
00000000
00001000
00100000
00000000
00000000
00100000
00010000
00000000
00000000
00010000
,
10000000
00000000
00000000
10000000
01000000
00000000
00000000
01000000
00010000
00000000
00000000
00010000
00001000
00000000
00000000
00001000
,
00000010
00000000
00000001
00000100
00000001
00000000
00001000
00000100
00001000
00000000
00000010
00010000
00000010
00000000
00010000
00001000
,
00010000
00000000
00001000
00100000
00010000
01000000
00100000
10000000
00010000
00000000
00000000
00000000
10000000
00000000
01000000
00000000
,
00100000
00000000
00010000
01000000
00010000
00000000
10000000
00000000
01000000
00000000
00010000
00000000
00001000
00010000
00001000
00010000
,
00000100
00010000
00000100
00010000
00001000
00000000
00000010
00000000
00000001
00000000
00000100
00000000
00000010
00000000
00001000
00000000
,
00000001
00000000
00000100
00000010
00001000
00000000
00000100
00000000
00010000
00000000
00001000
00000000
00100000
00000000
00010000
10000000
,
01000000
00000000
00020000
00000000
00030000
00000000
00001000
00010000
00001000
00000000
00000010
00000000
00000001
00000000
00000100
00000000
,
00000010
00000000
00001000
00000100
00001000
00000000
00000001
00000000
00000100
00000000
00001000
00000000
00010000
00001000
00010000
00001000
,
01000000
00001000
01000000
00001000
00010000
00000000
00100000
00000000
10000000
00000000
00010000
00000000
10000000
00000000
01000000
00000000
,
00010000
00000000
00001000
00000000
00000100
00000000
00000001
00000000
00000100
00000000
00000010
00000000
00001000
00000000
00000000
00001000
,
00000001
00000000
00000000
00000001
00000010
00000000
00001000
00000000
00011000
00000000
00000000
00000000
00100000
00000000
10000000
00000000
,
00010000
00000000
10000000
01000000
10000000
00000000
01000000
00000000
00010000
00000000
00001000
00000000
00000100
00000001
00000100
00000001
,
00001000
00000010
00001000
00000010
00000100
00000000
00000001
00000000
00000100
00000000
00001000
00000000
00010000
00000000
00100000
00000000
,
10000000
00000000
01000000
00100000
01000000
00000000
00010000
00000000
00001000
00000000
00100000
00000000
00010000
00000000
10000000
00100000
,
01000000
00000000
00002000
00000000
00003000
00000000
00010000
00001000
00010000
00000000
00001000
00000000
00000010
00000000
00000001
00000000
,
00001000
00000000
00000001
00000100
00000001
00000000
00000100
00000000
00001000
00000000
00010000
00000000
01000000
10000000
01000000
10000000
,
00010000
00100000
00010000
00100000
01000000
00000000
10000000
00000000
01000000
00000000
00010000
00000000
00001000
00000000
00000010
00000000
,
00000001
00000100
00000010
00001000
00000100
00000010
00000001
00000100
,
00001000
00010000
01000000
10000000
10010000
00000000
00100000
10000000
,
01000000
00010000
00001000
00000100
00000001
00000000
00000010
00000001
,
00000100
00001000
00010000
01000000
10000000
00000000
00100000
01000000
,
00100000
10000000
01000000
00010000
00001000
00000000
00000010
00000100
,
00000010
00000000
00000001
00000000
00000101
00000000
00000000
00000000
00001010
00000000
00000000
00000000
00000001
00000000
00000100
00000010
,
00000100
00000000
00000001
00000100
00001000
00000000
00010000
00000000
00100000
00000000
10000000
00000000
00010000
00000000
01000000
00100000
,
01000000
00000000
00010000
00000000
10000000
00000000
01000000
00000000
00100000
00000000
00010000
00000000
10000000
00000000
01000000
00100000
,
01000000
00000000
10000000
01000000
00010000
00000000
00001000
00000000
00000010
00000000
00000001
00000000
00001000
00000010
00000100
00000010
,
00000100
00000001
00001000
00000100
00001000
00000100
00010000
00000000
00001000
00000000
00011000
00000000
00000000
00000000
00000000
00000000
;

//---------------dance-double - NewbStepper-DDP----------------
#NOTES:
     dance-double:
     NewbStepper:
     Medium:
     13:
     0.506401,0.647996,0.135363,0.169203,0.169203,419,403,16,20,0,0,0.506401,0.647996,0.135363,0.169203,0.169203,419,403,16,20,0,0:
00000000
00000000
00000000
00000000
,
00000000
00000000
00000000
00000000
,
00000000
00000000
00000000
00000000
,
00000000
00000000
00000000
00000000
,
00000000
00000000
00000000
00000000
,
00000000
00000000
00000000
00000000
,
00000000
00000000
00000000
00000000
,
00000000
00000000
00000000
00000000
,
00000000
00000000
00000000
00000000
,
10000000
00000000
00000000
01000000
10000000
01000000
10000000
00000000
00000000
00010000
01000000
00010000
,
01000000
00001000
00011000
00000100
,
00000001
00000000
00000000
00000010
00000001
00000010
00000001
00000000
00000000
00001000
00000010
00001000
,
00000010
00010000
00011000
00100000
,
10000000
00000000
00000000
00100000
10000000
00100000
10000000
00000000
00000000
00010000
00100000
00010000
,
00100000
00001000
00011000
00000010
,
00000001
00000000
00000000
00000100
00000001
00000100
00000001
00000000
00000000
00000100
00000000
00000000
,
00000220
00000000
00000000
00000330
,
00000001
00000000
00000100
00000000
,
00000010
00000000
00001000
00000000
,
00010000
00000000
01000000
00000000
,
00100000
00000000
10000000
00000000
,
10010000
10000000
01000000
00010000
,
00011000
00001000
00000100
00000001
,
00001000
00000100
00001000
00000100
00000010
00000001
00000010
00000001
,
00001000
00000001
00000100
00001000
00010000
01000000
10000000
00000000
,
00010000
00000000
01010000
00000000
00100000
10000000
00010000
00000000
,
00100000
01000000
00010000
00001000
00000100
00000000
00000010
00000000
,
00001000
00000000
00001100
00000000
00000010
00000001
00001000
00000000
,
00000010
00000100
00001000
00010000
01000000
00000000
00100000
00000000
,
00010000
10000000
01000000
00010000
00001000
00000010
00000001
00000000
,
00001000
00000100
00001000
00000001
00000100
00000001
00001000
00000000
,
00000001
00000100
00001000
00010000
00100000
10000000
00010000
00100000
,
01000000
00010000
10000000
00100000
00010000
01000000
00001000
00000000
,
00010000
01000000
00100000
01000000
10000000
01000000
00010000
00000000
,
00001000
00000100
00000010
00000100
00000001
00000100
00001000
00000000
,
00010000
00100000
10000000
01000000
00100000
00010000
00100000
00000000
,
00001000
00000010
00000001
00000100
00000010
00001000
00000010
00000000
,
00010000
01000000
10000000
00100000
01000000
00010000
00100000
00001000
,
00020000
01030000
20000000
31000000
,
00020000
00031000
00000010
00000001
,
00001000
00001000
00000000
00000000
00000001
00000001
00000000
00000000
,
00002000
00000100
00003002
00000010
,
00001003
00000000
00001000
00000100
00000000
00000100
00010000
00001000
00100000
00010000
00000000
00000000
,
00020000
01000000
20030000
00100000
,
30010000
00000000
00010000
01000000
00000000
01000000
00001000
00010000
00000010
00001000
00000000
00000000
,
00000001
00000010
00000001
00000010
00000000
00000000
00000100
00001000
00000100
00001000
00000000
00000000
,
00010000
00000000
00010000
01000000
00000000
01000000
00100000
10000000
01000000
00100000
00000000
00000000
,
00001000
00010000
00001000
00010000
00000000
00000000
00000100
00000010
00000100
00000010
00000000
00000000
,
00000001
00001000
00000100
00010000
00001000
00000100
00000010
00001000
00000001
00000100
00000000
00000000
,
00000002
00000000
00002003
00000000
,
00023000
00000000
00000000
00000000
00130000
00010000
00001000
00000100
,
00000020
00000000
00002030
00000000
,
00023000
00000000
00230000
00000000
,
10300000
10000000
00010000
00010000
,
00001000
00001000
00000001
00000001
,
00000100
00001000
00010000
01000000
,
20020000
00000000
30030000
00100000
,
10000000
01000000
00100000
00000000
00010000
01000000
00100000
10000000
,
01000000
00010000
00001000
00000000
00000010
00000001
00000100
00000000
,
00000001
00000100
00001000
00010000
01000000
10000000
00100000
01000000
,
00010000
00001000
00000000
00000001
00001000
00000100
00000010
00000000
,
00000001
00000100
00000010
00000000
00001000
00000100
00000010
00000001
,
00000100
00001000
00010000
00000000
00100000
10000000
00020000
00000000
,
00100000
10000000
01000000
00032000
,
00000010
00000000
00000001
00000000
00003100
00000010
00000001
00000000
,
00000100
00001000
00010000
00000000
01000000
00010000
00001000
00000100
,
00001000
00010000
00100000
00000000
10000000
00010000
01000000
00000000
,
00010000
10000000
01000000
00010000
00001000
00000010
00000001
00000100
,
00000010
00001000
00000000
00010000
01000000
00100000
10000000
00000000
,
01000000
00010000
00001000
00000000
00000100
00001000
00010000
01000000
,
00010000
00001000
00000010
00000000
00000001
00001000
00000100
00010000
,
00001000
00100000
00010000
10000000
01000000
00010000
00001000
00000000
,
00011000
00000000
00000100
00000010
00000110
00000000
00000001
00000000
,
00001000
00010000
00011000
00001000
,
00010000
10000000
10010000
10000000
,
00010000
00001000
00011000
00010000
,
00001000
00000000
00000001
00000000
00001001
00000000
00000001
00000100
,
00001000
00010000
01000000
10000000
00010000
00000000
10000000
01000000
,
00010000
00001000
00000100
00000001
00001000
00000000
00000001
00000100
,
00000010
00001000
00000100
00010000
00001000
00100000
00010000
10000000
,
00100000
00010000
00001000
00000010
00000001
00001001
00000000
00000000
;

//---------------dance-double - NewbStepper-BDP----------------
#NOTES:
     dance-double:
     NewbStepper:
     Easy:
     8:
     0.291271,0.341050,0.160743,0.541451,0,241,222,19,64,0,0,0.291271,0.341050,0.160743,0.541451,0,241,222,19,64,0,0:
00000000
00000000
00000000
00000000
,
00000000
00000000
00000000
00000000
,
00000000
00000000
00000000
00000000
,
00000000
00000000
00000000
00000000
,
00000000
00000000
00000000
00000000
,
00000000
00000000
00000000
00000000
,
00000000
00000000
00000000
00000000
,
00000000
00000000
00000000
00000000
,
00000000
00000000
00000000
00000000
,
00110000
00000000
10010000
00000000
,
01010000
00000000
00011000
00000000
,
00001010
00000000
00001001
00000000
,
00001100
00000000
00011000
00000000
,
00100000
00100000
01000000
01000000
,
10000000
10000000
00010000
00010000
,
00100000
00100000
00001000
00001000
,
00022000
00000000
00000000
00033000
,
00000100
00000000
00000010
00000000
,
00000100
00000000
00000010
00000000
,
00000200
00000000
00000301
00000000
,
00000200
00000000
00001300
00010000
,
00100000
00100000
10000000
10000000
,
00010000
00010000
00100000
00100000
,
00001000
00010000
00000100
00001000
,
00002002
00003003
00000220
00000330
,
00000001
00000100
00000010
00000100
,
00001000
00010000
01000000
00000000
,
10000000
01000000
00100000
01000000
,
00010000
00001000
00000100
00000000
,
00000001
00000010
00001000
00010000
,
00001000
00000100
00001000
00010000
,
01000000
10000000
00100000
00010000
,
00001000
00000010
00000002
00000003
,
00001000
00000100
00000001
00000100
,
00002000
00000000
00013000
00100000
,
00010000
01000000
10000000
01000000
,
00020000
00000000
00031000
00000010
,
00002000
00000000
00003002
00000000
,
00000203
00000000
00002300
00000000
,
00013000
01000000
00100000
00010000
,
10000000
10000000
00000000
00000000
00010000
00010000
00000000
00000000
,
00110000
00000000
11000000
00000000
,
00100000
00001000
00010000
00000010
,
00001010
00000000
00000101
00000000
,
00000010
00000001
00000100
00000010
,
00010000
00001000
00100000
00010000
,
10000000
00100000
01000000
00010000
,
10000000
01000000
00010000
00001000
,
00000100
00000001
00001000
00000000
,
00000002
00000003
00000200
00000300
,
00000020
00000030
00002000
00003000
,
00020000
00000000
02030000
00000000
,
03200000
00000000
20300000
00000000
,
30010000
00010000
00010000
00010000
,
10000000
10000000
10000000
10000000
,
01000000
00010000
00001000
00000100
,
00000002
00000000
00000003
00002000
,
00000000
00003002
00000000
00000103
,
00000010
00000220
00000330
00002000
,
00000000
00023000
00000000
00130000
,
10000000
00100000
10000000
00020000
,
00000000
20030000
00000000
31000000
,
00100000
02200000
03300000
00020000
,
00001000
00001000
00031000
00000100
,
00000010
00010000
00001000
00000020
,
00000030
00000001
00000200
00000000
00000300
00000010
00002000
00000000
,
00003100
00022000
00033000
00200000
,
00300000
10000000
00020000
00000000
00230000
00000000
02300000
00000000
,
23000000
30020000
02030000
03200000
,
00300000
10000000
02000000
00000000
03000000
00100000
00020000
00000000
,
01030000
00022000
00033000
00000010
,
00000001
00001000
00000001
00000100
,
00000001
00001000
00000100
00020000
,
00000000
00032000
00000000
00203000
,
00000000
00320000
00000000
20030000
,
00000000
32000000
00000000
03020000
,
00000000
00032000
00000000
00003020
,
00000000
00000032
00000000
00000203
,
00000000
00000302
00000000
00000013
,
00001000
00010000
00100000
10000000
,
01000000
00000000
00010000
00000000
00001000
00001000
00000000
00000000
;
