#VERSION:0.83;
#TITLE:Catch Our Fire! (STARDOM Remix);
#ARTIST:kors k;
#BANNER:Catch Our Fire! (STARDOM Remix).png;
#BACKGROUND:Catch Our Fire! (STARDOM Remix)-bg.png;
#JACKET:Catch Our Fire! (STARDOM Remix)-jacket.png;
#MUSIC:Catch Our Fire! (STARDOM Remix).ogg;
#OFFSET:-1.715;
#SAMPLESTART:29.122982;
#SAMPLELENGTH:15;
#BPMS:0=140;
#BGCHANGES:-3.750=Catch Our Fire! (STARDOM Remix).avi=1=0=0=0=StretchNoLoop====,99999=-nosongbg-=1=0=0=0 // don't automatically add -songbackground-;

//---------------dance-single - Nitrospan-bSP----------------
#NOTEDATA:;
#CHARTNAME:Nitrospan-bSP;
#STEPSTYPE:dance-single;
#DESCRIPTION:Nitrospan-bSP;
#DIFFICULTY:Beginner;
#METER:2;
#CREDIT:Nitrospan;
#NOTES:
0000
0000
0000
0000
,
0000
0000
0000
0000
,
0000
0000
0000
0000
,
0000
0000
0000
0000
,
0001
0000
0000
0000
,
0010
0000
0000
0000
,
0100
0000
0000
0000
,
1000
0000
0000
0000
,
0010
0000
0000
0000
,
0100
0000
0000
0000
,
0001
0000
0000
0000
,
1000
0000
0000
0000
,
0100
0000
0000
0000
,
0010
0000
0000
0000
,
0001
0000
0000
0000
,
1000
0000
0000
0000
,
1001
0000
0100
0000
,
0001
0000
0000
0000
,
0010
0000
0001
0000
,
0100
0000
0000
0000
,
0010
0000
1000
0000
,
0001
0000
0100
0000
,
0010
0000
1000
0000
,
0100
0000
0000
0000
,
0110
0000
0100
0000
,
1000
0000
0000
0000
,
0001
0000
0100
0000
,
0010
0000
0000
0000
,
1000
0000
0010
0000
,
0100
0000
0001
0000
,
0010
0000
0100
0000
,
1000
0000
0000
0000
,
1001
0000
0000
0000
,
0001
0000
0100
0000
,
0010
0000
0000
0000
,
1000
0000
0010
0000
,
0100
0000
0000
0000
,
0001
0000
1000
0000
,
0100
0000
0000
0000
,
0010
0000
0100
0000
,
1001
0000
0000
0000
,
0001
0000
0100
0000
,
0010
0000
0000
0000
,
1000
0000
0010
0000
,
0100
0000
0000
0000
,
0001
0000
0010
0000
,
0100
0000
0000
0000
,
1000
0000
0001
0000
,
2002
0000
0000
0000
,
0000
0000
3003
0000
,
1001
0000
0100
0000
,
0010
0000
0000
0000
,
1000
0000
0010
0000
,
0100
0000
0001
0000
,
0010
0000
0100
0000
,
1000
0000
0000
0000
,
1001
0000
0100
0000
,
0010
0000
0000
0000
,
0001
0000
1000
0000
,
0010
0000
0000
0000
,
0100
0000
0001
0000
,
0010
0000
0100
0000
,
1000
0000
0001
0000
,
0100
0000
0000
0000
,
1001
0000
0000
0000
;

//---------------dance-single - Nitrospan-BSP----------------
#NOTEDATA:;
#CHARTNAME:Nitrospan-BSP;
#STEPSTYPE:dance-single;
#DESCRIPTION:Nitrospan-BSP;
#DIFFICULTY:Easy;
#METER:6;
#CREDIT:Nitrospan;
#NOTES:
0000
0000
0000
0000
,
0000
0000
0000
0000
,
0000
0000
0000
0000
,
0000
0000
0000
0000
,
1000
0100
0000
0100
,
1000
0001
0000
0001
,
0100
0010
0000
0010
,
1000
0001
0000
0100
,
0110
0000
0010
0100
,
0001
0001
0010
0100
,
1000
0000
0100
0100
,
0010
0001
1000
0010
,
0200
0000
0310
0000
,
2000
0000
3001
0000
,
0010
0010
0100
0100
,
2002
0000
0000
3003
,
1001
0100
0010
1000
,
0100
1000
0010
0000
,
0100
0001
0010
0100
,
0010
0001
0100
0000
,
0010
1000
0100
1100
,
0010
0001
0100
0101
,
0010
1000
0001
0100
,
0020
0100
0130
0000
,
1001
0100
0010
0100
,
1000
0001
0100
0001
,
0010
0001
0100
0001
,
0010
0100
1000
0000
,
0010
1000
0100
1100
,
0010
0001
0100
0101
,
0010
1000
0001
0010
,
0200
0010
0310
0000
,
1001
0000
0000
0001
0001
0000
0000
1000
,
1000
0000
0000
0010
0010
0000
0100
0000
,
0001
0000
0000
0010
0010
0000
0000
0100
,
0100
0000
0000
1000
1000
0000
0001
0000
,
0100
0000
0000
0010
0010
0000
0000
0100
,
0100
0000
0000
0001
0001
0000
0010
0000
,
0100
0000
0000
0010
0010
0000
0000
0001
,
0002
0203
0320
1030
,
0010
1010
0100
0101
,
0010
1010
0100
0000
,
0001
0011
1000
1100
,
0001
0011
0100
0000
,
1000
0100
0010
0001
,
0010
0100
1000
1000
,
0001
0100
0010
1000
,
0010
0100
0001
0000
,
2002
0000
0000
0000
,
0000
0000
0000
3003
,
0010
1000
0100
1000
,
0010
0100
0001
0000
,
0010
0001
0100
0101
,
0010
1000
0100
1100
,
0010
0001
1000
0010
,
0200
0010
0310
0000
,
1001
0100
0001
0010
,
0001
0100
0010
0100
,
0001
1000
0100
1000
,
0010
0100
0001
0000
,
0010
0001
0100
0101
,
0010
1000
0100
1100
,
0010
0001
1000
0100
,
0020
0100
0130
0000
,
1001
0000
0000
0000
;

//---------------dance-single - Nitrospan-DSP----------------
#NOTEDATA:;
#CHARTNAME:Nitrospan-DSP;
#STEPSTYPE:dance-single;
#DESCRIPTION:Nitrospan-DSP;
#DIFFICULTY:Medium;
#METER:9;
#CREDIT:Nitrospan;
#NOTES:
0000
0000
0000
0000
,
0000
0000
0000
0000
,
0000
0000
0000
0000
,
0000
0000
0000
0000
,
1000
0000
0010
0000
0000
1000
0010
0000
,
0100
0000
0001
0000
0000
0100
0001
0000
,
0010
0000
0100
0000
0000
0010
0100
0000
,
1000
0000
0010
0000
0000
0100
0001
0000
,
0010
0000
0001
0000
0100
0001
1000
0000
,
0100
0000
0010
0000
0100
1000
0001
0000
,
0100
0000
0010
0000
1000
0001
0010
0000
,
0100
0000
1000
0000
0010
1000
0001
0000
,
0020
0100
0100
0130
,
2000
0001
0001
3001
,
1000
0010
1000
0000
0001
0100
0001
0000
,
2002
0000
0000
3003
,
0001
0000
0010
0000
0100
0000
1000
0010
,
0100
0001
0100
0110
,
0001
0000
0010
0000
0100
0000
1000
0001
,
0100
0010
1000
1001
,
0010
0000
0100
0000
1000
0100
0001
0000
,
0100
0000
0010
0000
0001
0100
1000
0000
,
0100
0000
0001
0000
1000
0010
0001
0000
,
0010
0000
1000
0001
0100
0000
0010
0000
,
1001
0000
0010
0000
0100
0000
1000
0010
,
0100
0001
0010
0110
,
1000
0000
0010
0000
0100
0000
0001
1000
,
0100
0010
0001
1001
,
0100
0000
0010
0000
1000
0100
0001
0000
,
0100
0000
1000
0000
0001
0100
1000
0000
,
0100
0000
0010
0000
1000
0010
0001
0000
,
0010
1000
0001
1001
,
0001
0000
0010
0001
0010
0000
0100
0010
,
0100
0000
1000
0100
1000
0000
0001
0000
,
1001
0000
0001
0100
0001
0000
0100
0010
,
0100
0000
0010
1000
0010
0000
1010
0000
,
0101
0000
0010
0001
0100
0000
0010
0100
,
1000
0000
0100
0001
0010
0000
0100
0000
,
1001
0000
0010
1000
0100
0000
0010
0100
,
0002
0203
2300
3020
,
0130
0000
0000
0100
0000
0000
0100
0000
1000
0000
0100
0000
0000
0000
0100
0000
,
0001
0100
0000
0100
0010
0000
1000
0000
,
0001
0000
0001
0010
0001
0000
0010
0100
,
0010
0000
1000
0010
1000
0000
0010
0000
,
0001
0000
0100
0010
0100
0000
0001
0100
,
0001
0000
1000
0100
1000
0000
0010
0000
,
0100
0000
0001
0010
0100
0000
1000
0001
,
0100
0001
1000
0000
,
2002
0000
0000
0000
,
0000
0000
0000
3003
,
1000
0000
0100
0000
0010
0000
0001
1000
,
0010
0100
0001
1001
,
0100
0000
0010
0000
0001
0010
1000
0000
,
0010
0000
0100
0000
1000
0010
0001
0000
,
0010
0000
1000
0000
0001
0100
1000
0000
,
0100
0000
0001
1000
0010
0000
0100
0000
,
1001
0000
0100
0000
0010
0000
0001
0100
,
0010
1000
0100
0110
,
0001
0000
0100
0000
0010
0000
1000
0001
,
0010
0100
1000
1001
,
0010
0000
0100
0000
0001
0010
1000
0000
,
0010
0000
0001
0000
1000
0010
0001
0000
,
0010
0000
0100
0000
0001
0100
1000
0000
,
0100
0000
0000
0010
0000
0000
0100
0000
0001
0000
0000
0000
1000
0000
0000
0000
,
1001
0000
0000
0000
;

//---------------dance-single - Nitrospan-ESP----------------
#NOTEDATA:;
#CHARTNAME:Nitrospan-ESP;
#STEPSTYPE:dance-single;
#DESCRIPTION:Nitrospan-ESP;
#DIFFICULTY:Hard;
#METER:13;
#CREDIT:Nitrospan;
#NOTES:
0000
0000
0000
0000
,
0000
0000
0000
0000
,
0000
0000
0000
0000
,
0000
0000
0000
0000
,
0100
0000
0000
0000
1001
0000
0000
1000
0001
0000
0100
0000
0010
0000
0000
0000
,
0100
0000
0000
0000
1001
0000
0000
0010
0001
0000
0100
0000
0010
0000
0000
0000
,
1000
0000
0000
0000
0110
0000
0000
1000
0010
0000
0100
0000
0001
0000
0000
0000
,
1000
0000
0000
0000
0110
0000
0001
1000
0001
0000
0010
0000
0100
0000
1000
0000
,
0001
0000
0000
0001
0100
0000
0010
0000
0000
0000
1000
0000
0010
0000
2000
0000
,
0000
3001
0010
0200
0000
1300
0001
0000
,
0100
0000
0000
0100
0010
0000
1000
0000
0000
0000
0001
0000
0010
0000
0100
0000
,
1000
0000
0000
1000
0001
0000
0100
0010
0100
0000
0001
0000
0010
0000
0100
0000
,
2000
0100
0010
0001
,
3020
0001
0100
1000
,
0130
0100
0010
0010
1000
1000
0001
0001
,
0220
0000
0000
0330
,
1001
0000
1000
0100
0000
0000
0010
0000
0001
0000
0010
0100
0010
0000
0001
0000
,
0100
0000
0100
0010
0000
0000
0100
0000
0001
0000
1000
0000
0100
0000
0000
0000
,
0010
0000
0010
0001
0000
0000
0100
0000
0001
0000
1000
0100
1000
0000
0010
0000
,
1000
0000
1000
0100
0000
0000
0010
0000
0001
0000
0100
0000
0010
0000
0000
0000
,
1010
0000
0000
0110
0000
0000
1010
0000
0001
0000
1000
0000
0100
0000
0000
0000
,
0110
0000
0000
0011
0000
0000
0110
0000
0001
0010
0000
0100
1000
0000
0010
0000
,
0101
0000
0000
1001
0000
0000
0101
0000
0010
0000
1000
0000
0100
0000
0000
0000
,
1100
0000
0000
1001
0000
0000
1100
0000
0001
0010
0000
0100
1000
0000
0000
0000
,
1001
0000
0001
0100
0000
0000
0010
0000
1000
0000
0010
0100
0010
0000
1000
0000
,
0100
0000
0100
0010
0000
0000
0100
0000
1000
0000
0001
0000
0100
0000
0000
0000
,
0010
0000
0010
1000
0000
0000
0100
0000
1000
0000
0001
0100
0001
0000
0010
0000
,
0001
0000
0001
0100
0000
0000
0010
0000
1000
0000
0100
0000
0010
0000
0000
0000
,
0011
0000
0000
0110
0000
0000
0011
0000
1000
0000
0001
0000
0100
0000
0000
0000
,
0110
0000
0000
1010
0000
0000
0110
0000
1000
0010
0000
0100
0001
0000
0010
0000
,
1100
0000
0000
1001
0000
0000
1100
0000
0010
0000
0001
0000
0100
0000
0000
0000
,
0101
0000
0000
1001
0000
0000
0101
0000
1000
0000
0000
0000
0001
0000
0000
0000
,
1000
0000
0100
1000
0000
0000
0100
0000
0010
0000
0001
0010
0000
0000
0001
0000
,
0100
0000
0010
1000
0000
0000
0010
0000
0100
0000
0000
0001
0000
0000
0010
0000
,
0100
0000
1000
0010
0000
0000
0100
0000
0001
0000
0100
0010
0000
0000
1000
0000
,
0001
0000
0010
0001
0000
0000
0100
0000
1010
0000
0000
0101
0000
0000
1001
0000
,
0010
0000
0100
0001
0000
0000
0010
0000
0100
0000
1000
0010
0000
0000
0100
0000
,
0001
0000
1000
0100
0000
0000
0010
0000
0001
0000
0000
0100
0000
0000
0010
0000
,
1000
0000
0010
0100
0000
0000
0001
0000
0010
0000
0100
1000
0000
0000
0010
0000
,
1010
0101
0110
1001
,
1100
0000
0000
0101
0000
0000
1001
0000
0010
0000
0100
0001
0100
0000
0010
0000
,
1000
0000
0001
0010
0001
0000
0100
0000
0010
0000
0000
1000
0000
0000
0100
0000
,
1000
0000
0010
1000
0010
0000
0100
0000
0001
0000
0010
0001
0010
0000
0100
0000
,
1000
0000
0010
1000
0010
0000
0100
0000
0001
0000
0000
0010
0000
0000
0100
0000
,
1001
0000
0000
0000
0100
1000
0000
0000
0010
0000
1000
0001
0000
0000
0010
0000
,
0000
0000
0001
0000
0100
0010
0000
0000
1000
0000
0000
0100
0000
0000
1000
0000
,
0001
0000
0000
0000
0010
0001
0000
0000
0100
0000
0000
0010
0000
0000
1000
0000
,
0001
0000
0010
0000
0100
1000
0001
0000
0100
0000
0010
0000
1000
0000
0000
0000
,
1002
0000
0100
0100
0000
1000
0000
0010
,
0000
1000
0100
0020
0000
0000
0033
0000
,
0100
0000
0100
1000
0000
0000
0010
0000
1000
0000
0001
0010
0001
0000
0100
0000
,
0001
0000
0001
0010
0000
0000
0100
0000
1000
0000
0010
0000
0100
0000
0000
0000
,
0101
0000
0000
0110
0000
0000
0101
0000
1000
0000
0001
0000
0010
0000
0000
0000
,
0110
0000
0000
1100
0000
0000
0110
0000
1000
0100
0000
0010
0001
0000
0100
0000
,
1010
0000
0000
1001
0000
0000
1010
0000
0100
0000
0001
0000
0010
0000
0000
0000
,
0011
0000
0000
1001
0000
0000
0011
0000
1000
0100
0000
0010
0001
0000
0000
0000
,
1001
0000
1000
0010
0000
0000
0100
0000
0001
0000
0100
0010
0100
0000
0001
0000
,
0010
0000
0010
0100
0000
0000
0010
0000
0001
0000
1000
0000
0010
0000
0000
0000
,
0100
0000
0100
0001
0000
0000
0010
0000
0001
0000
1000
0010
1000
0000
0100
0000
,
1000
0000
1000
0010
0000
0000
0100
0000
0001
0000
0010
0000
0100
0000
0000
0000
,
1100
0000
0000
0110
0000
0000
1100
0000
0001
0000
1000
0000
0010
0000
0000
0000
,
0110
0000
0000
0101
0000
0000
0110
0000
0001
0100
0000
0010
1000
0000
0100
0000
,
0011
0000
0000
1001
0000
0000
0011
0000
0100
0000
1000
0000
0010
0000
0000
0000
,
1010
0000
0000
1001
0000
0000
1010
0000
0100
0000
0010
0000
0001
0000
0000
0000
,
1001
0000
0000
0000
;

//---------------dance-double - NewbStepper-BDP----------------
#NOTEDATA:;
#CHARTNAME:NewbStepper-BDP;
#STEPSTYPE:dance-double;
#DESCRIPTION:NewbStepper-BDP;
#DIFFICULTY:Easy;
#METER:5;
#CREDIT:NewbStepper;
#NOTES:
00000000
00000000
00000000
00000000
,
00000000
00000000
00000000
00000000
,
00000000
00000000
00000000
00000000
,
00000000
00000000
00000000
00000000
,
10000000
00000000
00100000
00000000
,
01000000
00000000
00010000
00000000
,
00100000
00000000
00001000
00000000
,
00010000
00000000
00000100
00000000
,
00001000
00001000
00000100
00000000
,
00000010
00000010
00000001
00000000
,
00000100
00000100
00001000
00000000
,
00010000
00010000
00001000
00000000
,
00200000
00000000
00000000
00300000
,
00002000
00000000
00000000
00003000
,
00010000
00001000
00010000
00001000
,
00022000
00000000
00000000
00033000
,
00100000
00001000
00100000
00000000
,
00010000
01000000
00010000
00000000
,
10000000
01000000
10000000
00000000
,
01000000
00010000
01000000
00000000
,
00010000
00001000
00000010
00000000
,
00000001
00000100
00000010
00000000
,
00001000
00000100
00010000
00000000
,
00001000
00010000
00100000
00000000
,
10000000
10000000
01000000
00100000
,
00010000
00010000
01000000
00000000
,
00001000
00001000
00010000
00000100
,
00000010
00000010
00000001
00000000
,
00001000
00000100
00000010
00000000
,
00000001
00000100
00001000
00000000
,
00010000
00001000
00100000
00010000
,
10000000
00000000
00010000
00010000
,
10000000
00000000
00000000
01000000
01000000
00000000
00000000
00010000
,
00010000
00000000
00001000
00000010
,
00000001
00000000
00000000
00000100
00000100
00000000
00000000
00001000
,
00001000
00000000
00010000
00100000
,
10000000
00000000
00000000
00010000
00010000
00000000
00000000
00100000
,
00100000
00000000
00001000
00000100
,
00000001
00000000
00000000
00001000
00001000
00000000
00000000
00000010
,
00000010
00020000
00000000
00030000
,
00001000
00000000
00100000
00000000
,
01000000
00000000
00010000
00000000
,
00001000
00000000
00000010
00000000
,
00000100
00000000
00010000
00000000
,
00001000
00100000
00001000
00000000
,
01000000
00010000
01000000
00000000
,
00001000
00010000
00001000
00000000
,
00000010
00000100
00000010
00000000
,
00002002
00000000
00000000
00000000
,
00000000
00000000
00000000
00003003
,
00000001
00000100
00000001
00000000
,
00000100
00001000
00000100
00000000
,
00001000
00010000
00100000
00000000
,
10000000
01000000
00100000
00000000
,
00010000
01000000
00001000
00000000
,
00010000
00001000
00000010
00000000
,
00000001
00000001
00000100
00000010
,
00001000
00001000
00000100
00000000
,
00010000
00010000
00001000
01000000
,
00100000
00100000
10000000
00000000
,
00010000
01000000
00100000
00000000
,
10000000
01000000
00010000
00000000
,
00001000
00010000
00000010
00001000
,
00000001
00000000
00001000
00000001
,
00001001
00000000
00000000
00000000
;

//---------------dance-double - NewbStepper-DDP----------------
#NOTEDATA:;
#CHARTNAME:NewbStepper-DDP;
#STEPSTYPE:dance-double;
#DESCRIPTION:NewbStepper-DDP;
#DIFFICULTY:Medium;
#METER:9;
#CREDIT:NewbStepper;
#NOTES:
00000000
00000000
00000000
00000000
,
00000000
00000000
00000000
00000000
,
00000000
00000000
00000000
00000000
,
00000000
00000000
00000000
00000000
,
10000000
00000000
01000000
00000000
00000000
10000000
01000000
00000000
,
00100000
00000000
00010000
00000000
00000000
00100000
00010000
00000000
,
00001000
00000000
00000100
00000000
00000000
00001000
00000100
00000000
,
00000010
00000000
00000001
00000000
00000000
00000010
00000001
00000000
,
00001000
00000000
00000100
00000000
00000010
00000001
00001000
00000000
,
00000001
00000000
00000100
00000000
00001000
00010000
00001000
00000000
,
00100000
00000000
00010000
00000000
10000000
00100000
01000000
00000000
,
00010000
00000000
10000000
00000000
01000000
00100000
00001000
00000000
,
00020000
00000100
00000100
00000100
,
00032000
01000000
01000000
01000000
,
00013000
00001000
00010000
00000000
00000100
00001000
00000100
00000000
,
00002002
00000000
00000000
00003003
,
00001000
00000000
00000010
00000000
00000100
00000001
00000100
00001000
,
00010000
00100000
10000000
10010000
,
00010000
00000000
00100000
00000000
01000000
10000000
01000000
00010000
,
00001000
00000010
00000001
00001001
,
00001000
00000000
00000001
00000100
00000010
00010000
00001000
00000000
,
00100000
00000000
00010000
10000000
01000000
00100000
00001000
00000000
,
00010000
00000000
00100000
01000000
00100000
00000000
00010000
00000000
,
00001000
00000000
00000010
00000100
00000010
00000000
00001000
00000000
,
00011000
00000000
00010000
00000000
01000000
00100000
00010000
00000000
,
10000000
00000000
00100000
00000000
00010000
00001000
00010000
00000000
,
00011000
00000000
00001000
00000000
00000100
00000010
00001000
00000000
,
00000001
00000010
00001000
00011000
,
00010000
00000000
00100000
00000000
10000000
01000000
00010000
00000000
,
00001000
00000000
00000010
00000000
00000001
00000100
00001000
00000000
,
00010000
00100000
00001000
00000010
,
00010000
00100000
20000000
30000000
,
00010000
00000000
10000000
01000000
10000000
00000000
01000000
00010000
,
01000000
00000000
00000000
00000000
00010000
00000000
00001000
00000000
00010000
00000000
00000000
00001000
00000000
00000000
00000010
00000000
,
00000001
00000000
00000001
00000100
00000001
00000000
00000100
00001000
,
00000100
00000000
00000000
00000000
00001000
00000000
00010000
00000000
00001000
00000000
00000000
00010000
00000000
00000000
00100000
00000000
,
10000000
00000000
10000000
01000000
00010000
00000000
01000000
00010000
,
00001000
00000000
00000000
00000000
00010000
00000000
00001000
00000000
00000010
00000000
00000000
00000001
00000000
00000000
00001000
00000000
,
00000001
00000000
00000001
00000100
00001000
00000000
00000100
00001000
,
00020000
00001000
00100000
00031000
,
00100000
00000000
00000000
00100000
00000000
00000000
00001000
00000000
00010000
00000000
00000000
00000000
00000010
00000000
00000000
00000000
,
00001000
00100000
00010000
00000010
,
00001000
00001100
00000001
00000101
,
00001000
00000000
00010100
00000000
00001000
00010000
00001000
00000000
,
00100000
00000000
00000000
00000000
00010000
00000000
00000000
00000000
10000000
00000000
00000000
10000000
00000000
00000000
10000000
00000000
,
00000000
00010000
00010000
00000000
00100000
00001000
00010000
00000000
,
00000010
00000000
00000000
00000000
00001000
00000000
00000000
00000000
00000001
00000000
00000000
00000001
00000000
00000000
00000001
00000000
,
00002000
00000100
00000001
00003010
,
00000220
00000000
00000000
00000000
,
00000000
00000000
00000000
00000330
,
00001000
00000000
00000010
00000000
00000100
00000001
00000100
00001000
,
00010000
00100000
10000000
10010000
,
00010000
00000000
10000000
01000000
00100000
00001000
00010000
00000000
,
00000010
00000000
00001000
00000001
00000100
00000010
00010000
00000000
,
00001000
00000000
00000010
00000100
00000010
00000000
00001000
00000000
,
00010000
00000000
00100000
01000000
00100000
00000000
00010000
00000000
,
00011000
00000000
00001000
00000000
00000100
00000010
00001000
00000000
,
00000001
00000000
00000010
00000000
00001000
00010000
00001000
00000000
,
00011000
00000000
00010000
00000000
01000000
00100000
00010000
00000000
,
10000000
00100000
00010000
00011000
,
00001000
00000000
00000010
00000000
00000001
00000100
00001000
00000000
,
00010000
00000000
00100000
00000000
10000000
01000000
00010000
00000000
,
00001000
00000010
00010000
00100000
,
00001000
00000010
00000002
00000003
,
00001001
00000000
00000000
00000000
;

//---------------dance-double - NewbStepper-EDP----------------
#NOTEDATA:;
#CHARTNAME:NewbStepper-EDP;
#STEPSTYPE:dance-double;
#DESCRIPTION:NewbStepper-EDP;
#DIFFICULTY:Hard;
#METER:12;
#CREDIT:NewbStepper;
#NOTES:
00000000
00000000
00000000
00000000
,
00000000
00000000
00000000
00000000
,
00000000
00000000
00000000
00000000
,
00000000
00000000
00000000
00000000
,
01000000
00000000
00000000
00000000
10010000
00000000
00000000
10000000
00010000
00000000
01000000
00000000
00100000
00000000
00000000
00000000
,
00010000
00000000
00000000
00000000
00011000
00000000
00000000
00001000
00000010
00000000
00000001
00000000
00000100
00000000
00000000
00000000
,
00000010
00000000
00000000
00000000
00001001
00000000
00000000
00000001
00000100
00000000
00001000
00000000
00010000
00000000
00000000
00000000
,
00100000
00000000
00000000
00000000
01100000
00000000
10000000
00010000
10000000
00000000
01000000
00000000
00100000
00000000
00010000
00000000
,
00100000
00000000
00000000
00001000
00010000
00000000
00100000
00000000
00000000
00000000
00010000
00000000
00001000
00000000
00010000
00000000
,
00000010
00000000
00000000
00001000
00000100
00000000
00000010
00000000
00000000
00000000
00000001
00000000
00000100
00000000
00001000
00000000
,
00010000
00000000
00000000
00001000
00010000
00000000
00000010
00000000
00000000
00000000
00010000
00000000
00001000
00000000
00010000
00000000
,
00100000
00000000
00000000
10100000
00000000
00000000
10000000
01000000
00100000
00000000
00010000
00000000
10000000
00000000
00000000
00000000
,
00020000
01000000
10000000
00100000
,
00032000
00000100
00000001
00000010
,
00013000
01000000
00100000
10000000
01000000
00010000
00001000
00000100
,
00000002
00000000
00001000
00001003
,
00000001
00000000
00000100
00000000
00001000
00000000
00010000
00000000
00000000
00000000
00001000
00010000
00001000
00000000
00100000
00000000
,
00010000
00000000
00000000
00010000
00000000
00000000
10000000
00000000
00000000
00000000
01000000
00000000
10010000
00000000
00000000
00000000
,
00010000
00000000
00000000
00010000
00000000
00000000
10000000
00000000
00000000
00000000
01000000
00100000
01000000
00000000
10000000
00000000
,
00100000
00000000
00000000
00010000
00000000
00000000
00001000
00000000
00000000
00000000
00000100
00000000
00000110
00000000
00000000
00000000
,
00000001
00000000
00000000
00000001
00000000
00000000
00000001
00000000
00000100
00000000
00001000
00000000
00010000
00000000
00000000
00000000
,
00100000
00000000
00000000
00100000
00000000
00000000
00100000
00000000
10000000
00010000
00000000
00010000
01000000
00000000
00100000
00000000
,
10000000
00000000
00000000
10000000
00000000
00000000
10000000
00000000
01000000
00000000
00010000
00000000
00001000
00000000
00000000
00000000
,
00000010
00000000
00000000
00000010
00000000
00000000
00000010
00000000
00000002
00000000
00000000
00000000
00001003
00000000
00000000
00000000
,
00000100
00000000
00000000
00000100
00000000
00000000
00000010
00000000
00000000
00000000
00001000
00010000
00001000
00000000
00010000
00000000
,
00100000
00000000
00000000
00100000
00000000
00000000
10000000
00000000
00000000
00000000
00010000
00000000
01010000
00000000
00000000
00000000
,
01000000
00000000
00000000
01000000
00000000
00000000
00100000
00000000
00000000
00000000
00010000
00001000
00010000
00000000
00001000
00000000
,
00000010
00000000
00000000
00000010
00000000
00000000
00000001
00000000
00000000
00000000
00001000
00000000
00001100
00000000
00000000
00000000
,
00000001
00000000
00000000
00000001
00000000
00000000
00000001
00000000
00000100
00000000
00001000
00000000
00010000
00000000
00000000
00000000
,
00100000
00000000
00000000
00100000
00000000
00000000
00100000
00000000
10000000
00010000
00000000
00010000
01000000
00000000
00100000
00000000
,
10000000
00000000
00000000
10000000
00000000
00000000
10000000
00000000
01000000
00000000
00010000
00000000
00001000
00000000
00000000
00000000
,
00000010
00000000
00000000
00000010
00000000
00000000
00000010
00000000
00000002
00000000
00000000
00000000
00001003
00000000
00000000
00000000
,
00000100
00010000
00001000
00000100
00001000
00010000
00000100
00001000
,
00000100
00000000
00010000
00000000
00001000
00000000
00000010
00000000
00001000
00000000
00000000
00010000
00000000
00000000
00100000
00000000
,
01000000
00001000
00010000
01000000
00010000
00001000
01000000
00010000
,
01000000
00000000
00001000
00000000
00010000
00000000
00100000
00000000
00010000
00000000
00000000
00001000
00000000
00000000
00000010
00000000
,
00000001
00000100
00001000
00000100
00000001
00000010
00001000
00010000
,
00100000
00000000
10000000
00000000
01000000
00000000
00010000
00000000
00001000
00000000
00000000
00010000
00000000
00000000
00100000
00000000
,
10000000
01000000
00010000
01000000
10000000
00100000
00010000
00001000
,
00000020
00000001
00000100
00001030
,
00011000
00000000
00000000
00010000
00001000
00000000
00000100
00000000
00000110
00000000
00000000
00000000
00001001
00000000
00000000
00000000
,
00000010
00000000
00000101
00000000
00000010
00001000
00010000
01000000
,
00100000
10010000
01000000
10100000
,
01000000
00000000
00110000
00000000
00100000
00001000
00010000
00000000
,
00001010
00000000
00000000
00000000
00001000
00000010
00000000
00000000
00000110
00000000
00000000
00000101
00000000
00000000
00000110
00000000
,
00000000
00000000
00000001
00000000
00000100
00001000
00000000
00000000
00010000
00000000
00000000
00001000
00000000
00000000
00100000
00000000
,
00110000
00000000
00000000
00000000
00010000
00100000
00000000
00000000
01100000
00000000
00000000
11000000
00000000
00000000
01100000
00000000
,
10000000
01000000
00100000
00010000
00001000
00000100
00000010
00000001
,
00002000
00000000
00000001
00000001
00000000
00000100
00000000
00000001
,
00000000
00003100
00000010
00000002
00000000
00000000
00000003
00000000
,
00001000
00000000
00000000
00001000
00000000
00000000
00000001
00000000
00000000
00000000
00000100
00000010
00000100
00000000
00000001
00000000
,
00000010
00000000
00000000
00001000
00000000
00000000
00010000
00000000
00000000
00000000
01000000
00000000
01100000
00000000
00000000
00000000
,
10000000
00000000
00000000
10000000
00000000
00000000
10000000
00000000
01000000
00000000
00010000
00000000
00001000
00000000
00000000
00000000
,
00000010
00000000
00000000
00000010
00000000
00000000
00000010
00000000
00000001
00001000
00000000
00001000
00000100
00000000
00000010
00000000
,
00000001
00000000
00000000
00000001
00000000
00000000
00000001
00000000
00000100
00000000
00001000
00000000
00010000
00000000
00000000
00000000
,
00100000
00000000
00000000
00100000
00000000
00000000
00100000
00000000
20000000
00000000
00000000
00000000
30010000
00000000
00000000
00000000
,
10000000
01000000
00100000
00001000
00010000
00100000
01000000
00001000
,
00100000
00010000
01000000
00100000
00010000
00001000
00000010
00000000
,
00000001
00000000
00000000
00000001
00000100
00000000
00001000
00000000
00000000
00000000
00010000
00001000
00010000
00000000
00100000
00000000
,
10000000
00000000
00000000
10100000
00000000
00000000
01010000
00000000
00000000
00000000
00000000
00000000
10010000
00000000
00000000
00000000
,
10000000
00000000
00000000
10000000
00000000
00000000
10000000
00000000
01000000
00000000
00010000
00000000
00001000
00000000
00000000
00000000
,
00000010
00000000
00000000
00000010
00000000
00000000
00000010
00000000
00000001
00001000
00000000
00001000
00000100
00000000
00000010
00000000
,
00000001
00000000
00000100
00000000
00000010
00000000
00010000
00000000
00001000
00000000
01000000
00000000
00100000
10000000
00100000
10000000
,
00020000
00000000
10000000
10030000
,
10010000
00000000
00000000
00000000
;
