#VERSION:0.83;
#TITLE:Catastrophic Dance;
#ARTIST:the wandering bard feat. 志方あきこ;
#ARTISTTRANSLIT:the wandering bard feat. Akiko Shikata;
#BANNER:Catastrophic Dance.png;
#BACKGROUND:Catastrophic Dance-bg.png;
#JACKET:Catastrophic Dance-jacket.png;
#MUSIC:Catastrophic Dance.ogg;
#SAMPLESTART:54.61;
#SAMPLELENGTH:15;
#BPMS:0=145;

//---------------dance-single - RGTM-bSP----------------
#NOTEDATA:;
#CHARTNAME:RGTM-bSP;
#STEPSTYPE:dance-single;
#DESCRIPTION:RGTM-bSP;
#DIFFICULTY:Beginner;
#METER:4;
#CREDIT:RGTM;
#NOTES:
0000
0000
0000
0000
,
0000
0000
0000
0000
,
0000
0000
0000
0000
,
0000
0000
0000
0000
,
0000
0000
0000
0000
,
0002
0000
0003
0000
,
0020
0000
0030
0000
,
0200
0000
0300
0000
,
2000
0000
3000
0000
,
1001
0000
0000
0000
,
1000
0000
0010
0000
,
0110
0000
0000
0000
,
0100
0000
0001
0000
,
1000
0000
0100
0000
,
1000
1000
1000
0000
,
0001
0000
0100
0000
,
0001
0001
0001
0000
,
1001
0000
0000
0000
,
0000
0000
0000
0000
,
0000
0000
0000
0000
,
0000
0000
0000
0000
,
0001
0000
0001
0000
,
1000
1000
0001
0001
,
0100
0000
0100
0000
,
0010
0010
0100
0100
,
0001
0000
0001
0000
,
1000
0000
1000
0000
,
1001
0000
0110
0000
,
1001
0000
0110
0000
,
1000
0000
0100
0000
,
1000
0000
0001
1000
,
0001
0000
0100
0000
,
0010
0010
0100
0100
,
0001
0000
0010
0000
,
0100
0000
1000
0000
,
0001
0000
1000
0000
,
0001
0001
1000
1000
,
0010
0000
1000
0000
,
0100
0000
0010
0000
,
1001
0000
0110
0000
,
1000
0001
1000
0000
,
0110
0000
0000
0000
,
0000
0000
0000
0000
,
0000
0000
0000
0000
,
0000
0000
0000
0000
,
0002
0000
0003
0000
,
0020
0000
0030
0000
,
0200
0000
0300
0000
,
2000
0000
3000
0000
,
0001
0000
0010
0000
,
0100
0000
1000
1000
,
1000
0000
0010
0000
,
0100
0000
0001
0001
,
0001
0000
1000
0000
,
0100
0000
0010
0000
,
0110
0000
1001
0000
,
0001
0001
1000
1000
,
0001
0000
1000
0000
,
0001
1000
0001
0000
,
1001
0000
0110
0000
,
0100
0010
0100
0000
,
0110
0000
0000
0000
,
0000
0000
0000
0000
,
0000
0000
0000
0000
,
0000
0000
0000
0000
,
0001
0001
0010
0010
,
0100
0100
1000
1000
,
0001
0010
0100
1000
,
0002
0000
2003
0000
,
3000
0000
0000
0000
;

//---------------dance-single - RGTM-BSP----------------
#NOTEDATA:;
#CHARTNAME:RGTM-BSP;
#STEPSTYPE:dance-single;
#DESCRIPTION:RGTM-BSP;
#DIFFICULTY:Easy;
#METER:8;
#CREDIT:RGTM;
#NOTES:
0000
0000
0000
0000
,
0000
0000
0000
0000
,
0000
0000
0000
0000
,
0000
0000
0000
0000
,
0000
0000
0000
0000
,
0002
0000
0023
0000
,
0230
0000
2300
0000
,
3002
0000
0203
0000
,
0320
0000
0000
0000
2030
0000
0000
3000
,
0001
1000
0001
0000
0010
0000
0001
0000
,
0100
0010
1000
0001
,
1000
0001
1000
0000
0100
0000
1000
0000
,
0010
0100
0010
0000
1000
0001
1000
0001
,
0000
0010
0000
0010
0200
0000
1300
0001
,
2000
3020
0230
0302
,
2003
0000
0000
0000
3001
0000
0000
0000
0010
0000
0000
0100
0000
0000
0010
0000
,
0001
0000
0000
0100
0000
0000
0010
0000
2000
0000
0000
0000
3100
0000
0000
0000
,
0110
0000
0000
0000
,
0000
0000
0000
0000
,
0000
0000
0000
0000
,
0000
0000
0000
0010
,
2001
0010
0001
0100
,
3002
0023
0230
2300
,
3002
0010
1000
0100
,
2003
3020
0230
0302
,
2003
0100
0001
0010
,
3001
0000
1000
0000
0010
0100
0010
0100
,
0010
0000
1000
0001
1000
0000
0100
0010
,
0100
1001
0110
1001
,
0001
0010
0001
0000
0010
0100
0010
0000
,
0100
1000
0100
0000
2000
0000
3002
0000
,
1003
0010
1000
0000
0010
0100
0010
0000
,
0100
0000
0001
1000
0001
1000
0001
1000
,
0002
1003
2000
3002
,
0023
0100
0130
1000
,
0001
0100
0001
0000
1000
0100
1000
0000
,
0020
2030
3200
0320
,
0032
0000
0010
0000
1003
0000
1000
0001
,
1000
0020
2030
3100
,
0010
0100
0010
0000
0001
1000
0001
0000
,
0100
0010
0100
0010
0100
0000
0001
1000
,
2002
0000
0000
3003
0000
0000
0000
0000
0000
0000
0000
0000
0000
0000
0000
0000
,
0000
0000
0000
0000
,
0000
0000
0000
0000
,
0000
0000
0000
0000
,
2000
0000
3200
0000
,
0320
0000
0032
0000
,
0203
0000
0320
0000
,
2030
0000
0002
3003
,
1001
0000
1000
0000
0100
0010
0001
0000
,
1000
0010
0100
0000
0001
1000
0100
0000
,
0020
0100
0100
0001
,
0032
0000
1003
0000
0010
0100
0010
0100
,
0010
0000
1000
0000
0010
0100
0001
0000
,
1000
0100
0010
0000
0001
1000
0010
0000
,
0110
0100
0110
0010
,
1000
0000
0001
1000
0001
1000
0001
1000
,
0002
0010
0010
1000
,
2003
3002
0023
0230
,
1300
0100
1000
0000
0001
0100
0001
0000
,
0010
0000
0000
0100
0000
0000
0010
0000
0000
0000
0001
0000
1000
0000
0001
0000
,
1000
0000
0000
0000
,
0000
0000
0000
0000
,
0000
0000
0000
0000
,
0000
0000
0000
1001
,
0001
1000
0001
1000
0001
1000
0001
1000
,
0010
0100
0010
0100
0010
0100
0010
0100
,
0001
0010
0100
1000
0001
0010
0100
1000
,
0002
2003
3020
0230
,
0300
0000
0000
0000
;

//---------------dance-single - RGTM-DSP----------------
#NOTEDATA:;
#CHARTNAME:RGTM-DSP;
#STEPSTYPE:dance-single;
#DESCRIPTION:RGTM-DSP;
#DIFFICULTY:Medium;
#METER:12;
#CREDIT:RGTM;
#NOTES:
0000
0000
0000
0000
,
0000
0000
0000
0000
,
0000
0000
0000
0000
,
0000
0000
0000
0000
,
0000
0000
0000
0000
,
2000
3200
0320
0032
,
0203
0320
2030
3002
,
2003
3020
0230
0302
,
0023
0000
0000
0000
0230
0000
0000
0000
2300
0000
0000
0000
3002
0000
0000
0003
,
1001
0000
1001
0000
1000
0000
0010
0000
0100
0000
0000
0100
0001
0000
1000
0000
,
0001
0000
0000
0001
0010
0000
0100
0000
1000
0000
0000
1000
0001
0000
0100
0000
,
0110
0000
0110
0000
0010
0000
1000
0000
0001
0000
0000
0001
0010
0000
0100
0000
,
1000
0000
0000
1000
0001
0000
0100
0000
0010
0000
0100
0000
0010
0000
0000
0000
,
1000
0002
0000
2003
3200
0000
0320
0032
,
2003
3020
0032
0023
,
2030
0000
0010
0000
0010
0000
0000
0000
3002
0000
0000
0023
0000
0000
0230
0000
,
2300
0000
0000
3002
0000
0000
0203
0000
0320
0000
0000
0000
0130
0000
0100
0000
,
1001
0000
0000
0001
0000
0000
0001
0000
0000
0001
0000
0000
0001
0000
0001
0000
,
0000
0000
1000
0000
0001
0000
1000
0000
0001
0000
0000
0010
0000
0000
0100
0000
,
1000
0000
0000
1000
0000
0000
1000
0000
0000
1000
0000
0000
1000
0000
1000
0000
,
0000
0001
1000
0001
1000
0000
0110
0000
,
0001
0010
1000
0010
0001
0100
1000
0100
,
0010
0000
0000
0010
1000
0000
0000
1000
0001
0000
0000
0001
0010
0000
0000
0010
,
0100
0001
0100
1000
0010
0001
0010
1000
,
0001
0000
0000
0001
0010
0000
0000
0010
0100
0000
0000
0100
1000
0000
0000
1000
,
0010
1000
0100
0010
0100
1000
0001
0100
,
1000
0100
0010
1000
0001
0001
1000
1000
,
1010
0000
0000
0000
0001
0000
0001
0000
0011
0000
0000
0010
0100
0000
1000
0000
,
1001
0000
0001
0000
0100
0000
0100
0000
0010
0100
0000
0010
0100
0000
0001
0000
,
1000
0100
1000
0001
1000
0010
1000
0001
,
0200
0000
0310
1000
0200
0000
0320
0000
,
0031
0010
0001
1000
0001
0100
0001
1000
,
1010
0000
0000
0000
0010
0000
0100
0000
0001
0000
1000
0100
1000
0000
0001
0100
,
0002
1000
0023
2030
,
3002
1000
0100
1000
,
0203
0001
0010
1000
,
0302
0203
2300
3020
,
0032
0000
0010
0000
1000
0000
0023
0230
,
0302
0023
2030
3002
,
0103
0100
0010
0010
0001
0001
1000
1000
,
0010
0100
0010
0000
0100
0010
0100
0000
0001
1000
0000
0001
1000
0000
0100
0010
,
0100
0000
0000
1001
0000
0000
0000
0000
0000
0000
0000
0000
0000
0000
0000
0000
,
0000
0000
0000
0000
,
0000
0000
0000
0000
,
0000
0000
0000
0000
,
0001
2000
0000
3002
0203
0000
0302
2003
,
3002
0023
0230
0302
,
2003
0000
0000
0000
0000
0000
0000
0000
3002
0000
0000
0203
0000
0000
2300
0000
,
3020
0000
0000
0230
0000
0000
0302
0000
2000
0000
0000
0000
0000
0000
3003
0000
,
1001
1000
0100
0010
0001
0100
1000
0100
,
0001
0010
0100
1000
0010
0100
1000
0001
,
0010
1000
0100
0001
0100
1000
0010
0001
,
0010
0000
0100
0000
0001
0000
0010
0000
1000
0000
0010
0000
0001
0000
1000
0001
,
1000
0001
0010
0100
1000
0010
0001
0010
,
1000
0100
0001
1000
0010
0001
1000
0010
,
0110
0100
0001
0010
0110
0100
1000
0001
,
1000
0010
1000
0000
0001
0010
0001
0000
1000
0000
0010
0100
0010
0000
1000
0001
,
2000
0010
0001
0100
,
3020
0032
2003
3200
,
0310
0000
0010
0000
0100
0000
0100
0000
0001
1000
0001
0000
1000
0001
1000
0000
,
1100
0000
0000
0101
0000
0000
1001
0000
0000
0000
2000
0000
3001
0000
0010
0100
,
0010
0000
0000
0000
,
0000
0000
0000
0000
,
0000
0000
0000
0000
,
0000
0000
0000
1001
,
0001
0010
1000
0001
0100
1000
0001
0010
,
1000
0010
0001
1000
0100
0001
1000
0010
,
0002
0203
2300
3002
0023
2030
3002
0203
,
1300
0000
0100
0010
0100
0000
0001
0000
1000
0001
1000
0000
0100
0010
0100
0010
;

//---------------dance-single - RGTM-ESP----------------
#NOTEDATA:;
#CHARTNAME:RGTM-ESP;
#STEPSTYPE:dance-single;
#DESCRIPTION:RGTM-ESP;
#DIFFICULTY:Hard;
#METER:15;
#CREDIT:RGTM;
#NOTES:
0000
0000
0000
0000
,
0000
0000
0000
0000
,
0000
0000
0000
0000
,
0000
0000
0000
0000
,
0000
0000
0000
0000
,
1002
0023
0230
2300
,
3002
0203
2300
3020
,
0032
0203
0320
2030
,
3002
0000
0000
0000
0023
0000
0000
0000
2030
0000
0000
0000
3200
0000
0000
0300
,
0110
1001
0001
1000
0100
0010
0001
1000
,
0001
0100
0010
0100
0001
0000
1000
0001
1000
0000
0001
0000
0010
0000
0100
0000
,
0110
0000
1001
0000
1000
0000
0010
0100
0010
0000
0100
0000
0001
0000
1000
0000
,
0100
1000
0100
0010
0100
0000
1000
0001
1000
0100
1000
0000
0010
0100
0010
1000
,
0001
2000
0000
3020
2030
0000
3200
0320
,
0032
2003
3020
0230
,
0301
0100
0001
0100
0001
0000
1000
0000
0200
0000
0000
0320
0000
0000
0031
0000
,
1000
0001
1000
0001
1000
0001
1000
0001
0100
0010
0000
1000
0100
0000
0010
0000
,
1001
0000
0000
0001
0000
0000
0001
0000
0000
0001
0000
0000
0001
0000
0001
0000
,
0000
0000
1000
0000
0001
0000
0010
0000
0100
0000
0000
1000
0000
0000
0001
0000
,
1000
0000
0000
1000
0000
0000
1000
0000
0000
1000
0000
0000
1000
0000
1000
0000
,
0000
0001
1000
0010
0100
0000
1001
0000
,
0001
0010
0001
0000
0010
0100
0010
0000
0100
1000
0100
0000
1000
0001
1000
0000
,
0001
0100
0010
1000
0100
0010
0100
1000
0010
0100
0001
0010
0100
0010
0001
1000
,
0001
0100
0001
0000
0100
0010
0100
0000
0010
1000
0010
0000
1000
0001
1000
0000
,
0001
0010
0100
1000
0010
0100
0010
1000
0100
0010
0001
0100
0010
0100
0001
1000
,
0001
0100
0001
0000
1000
0010
1000
0000
0001
1000
0001
0000
1000
0100
0010
0001
,
1000
0010
1000
0000
0001
0100
0001
0000
0010
0000
0010
0000
0100
0000
0100
0000
,
0110
0000
0000
0000
0010
0000
0010
0000
1001
0000
0000
1000
0001
0000
0100
0010
,
0100
0000
0100
0000
0010
0000
0010
0000
1000
0001
1000
0001
1000
0000
0002
0000
,
1003
0100
1000
0000
1000
0001
1000
0000
1000
0010
1000
0000
1000
0001
1000
0000
,
0100
1000
0100
0010
0100
0000
0010
0001
1000
0001
0020
0000
0031
0000
1000
0000
,
0001
0100
0001
0000
0001
1000
0001
0000
0001
0010
0001
0000
0001
1000
0001
0000
,
0100
0000
0010
0100
0010
0000
1000
0001
1000
0001
1000
0001
1000
0000
0100
0010
,
0200
1000
0320
0032
,
2003
0100
3020
0100
,
2030
0010
0001
0100
,
3001
1000
0100
1000
0001
0000
0010
0100
1000
0100
0020
0000
0031
0010
0100
1000
,
0002
0000
1000
0000
0010
0000
2003
3002
,
2003
0000
3020
0000
0230
0302
0023
0030
,
0110
0010
0001
0001
1001
1000
0010
0010
,
0100
0010
0100
0010
0100
0010
0100
0010
0100
0001
0000
1000
0100
0000
0010
0001
,
1000
0000
0000
1001
0000
0000
0000
0000
0000
0000
0000
0000
0000
0000
0000
0000
,
0000
0000
0000
0000
,
0000
0000
0000
0000
,
0000
0000
0000
0000
,
1000
0002
0000
0023
0230
0000
2300
3002
,
2003
3020
0230
2300
,
3002
0000
0000
0000
0000
0000
0000
0000
0023
0000
0000
2030
0000
0000
3100
0000
,
0120
0000
0000
0032
0000
0000
2003
0000
0002
0000
0000
0000
0000
0000
3003
0000
,
1001
0000
1000
0000
0100
1000
0100
0000
0010
0100
0010
0000
0001
0010
0001
0000
,
1000
0001
0100
0001
1000
0000
0010
0100
0001
0100
0020
0000
1030
0000
0001
0000
,
0010
0100
0010
0001
1000
0001
0100
0000
0010
0100
0010
0000
1000
0010
1000
0000
,
0001
1000
0100
1000
0001
0000
0010
0100
1000
0100
0020
0000
0031
0010
0100
1000
,
0001
0100
0001
0000
0100
0010
0100
0000
0010
1000
0010
0000
1000
0001
1000
0000
,
0001
0010
0100
0010
0001
0000
1000
0001
0010
0001
2000
0000
3100
1000
0001
0000
,
1001
0000
1000
0000
0010
0000
0010
0000
0110
0000
0100
0000
0001
0000
0001
0010
,
0100
1000
0100
0000
0010
0100
0010
0100
0010
0100
0010
0100
0010
0000
0001
1000
,
0001
0000
1000
0000
0001
0100
0001
0000
1000
0010
1000
0000
0001
1000
0001
0000
,
0010
0100
1000
0100
0010
0000
0001
1000
0100
1000
0002
0000
1003
0000
0010
0000
,
0110
0000
0100
0000
0010
0000
0010
0000
1000
0001
1000
0001
1000
0001
1000
0001
,
0010
0000
0000
0110
0000
0000
1001
0000
0000
0000
2000
0000
3001
0000
0100
0010
,
0100
0000
0000
0000
,
0000
0000
0000
0000
,
0000
0000
0000
0000
,
0000
0000
0000
1001
,
0001
0010
0001
0010
0100
0010
0100
0010
0100
1000
0100
1000
0001
1000
0001
1000
,
0001
0100
0001
0100
0010
0100
0010
0100
0010
1000
0010
1000
0001
1000
0001
1000
,
0001
0010
0100
1000
0100
0010
0001
1000
0001
0100
0010
1000
0010
0100
0001
1000
,
0100
0010
0100
0010
0001
0000
0100
0010
0100
0010
1000
0000
0001
0010
0100
1000
;

//---------------dance-double - RGTM-BDP----------------
#NOTEDATA:;
#CHARTNAME:RGTM-BDP;
#STEPSTYPE:dance-double;
#DESCRIPTION:RGTM-BDP;
#DIFFICULTY:Easy;
#METER:8;
#CREDIT:RGTM;
#NOTES:
00000000
00000000
00000000
00000000
,
00000000
00000000
00000000
00000000
,
00000000
00000000
00000000
00000000
,
00000000
00000000
00000000
00000000
,
00000000
00000000
00000000
00000000
,
20000000
00000000
30200000
00000000
,
02300000
00000000
03002000
00000000
,
00023000
00000000
00030200
00000000
,
00000320
00000000
00000000
00000000
00000032
00000000
00000000
00000003
,
00001000
00000001
00001000
00000000
00000010
00000000
00000100
00000000
,
00001000
00010000
00100000
01000000
,
00010000
10000000
00010000
00000000
00100000
00000000
01000000
00000000
,
00010000
00001000
00010000
00000000
00000010
00000100
00000010
00000100
,
00000000
00000001
00000000
00000001
00001000
00000000
00001000
00000001
,
00000020
00002030
00023000
00230000
,
10300000
00000000
00100000
00000000
10000000
00000000
00000000
00000000
00010000
00000000
00000000
10000000
00000000
00000000
01000000
00000000
,
00100000
00000000
00000000
00001000
00000000
00000000
00010000
00000000
00002000
00000000
00000000
00000000
00003100
00000000
00000000
00000000
,
00000110
00000000
00000000
00000000
,
00000000
00000000
00000000
00000000
,
00000000
00000000
00000000
00000000
,
00000000
00000000
00000000
00000100
,
00002001
00000010
00000001
00000100
,
00003002
00000023
00002030
00023000
,
00230000
10000000
01000000
00010000
,
20300000
32000000
03020000
00032000
,
00003200
00000000
00000010
00000000
00001000
00000000
00000301
00001000
,
00000002
00000000
00000010
00000000
00001003
00000001
00001000
00000001
,
00000010
00000000
00001000
00010000
00001000
00000000
00100000
00000000
,
10010000
01100000
00011000
00000110
,
00000001
00000100
00000010
00000000
00000100
00000010
00010000
00000000
,
00001000
00010000
00001000
00000000
00200000
00000000
02300000
00000000
,
13000000
01000000
00100000
00000000
01000000
00100000
00001000
00000000
,
00010000
00000000
00000100
00000010
00000100
00000010
00000100
00000010
,
00000002
00001003
00000002
00000023
,
00000230
00010000
00000010
00001000
,
00020300
00001000
01000000
00001000
,
00230000
20300000
30020000
00230000
,
02300000
00100000
00010000
23000000
,
30200000
00320000
00032000
00003020
,
00000031
00001000
00000001
00000000
00000100
00000010
00000100
00000000
,
00001000
00010000
00001000
00010000
00001000
00000000
00100000
01000000
,
02200000
00000000
00000000
03300000
00000000
00000000
00000000
00000000
00000000
00000000
00000000
00000000
00000000
00000000
00000000
00000000
,
00000000
00000000
00000000
00000000
,
00000000
00000000
00000000
00000000
,
00000000
00000000
00000000
00000000
,
20000000
00000000
30200000
00000000
,
02300000
00000000
03002000
00000000
,
00023000
00000000
00030200
00000000
,
00002300
00000000
00000000
00000000
00003002
00000000
00000000
00000003
,
00001001
00000001
00000100
00001000
,
00010000
00000000
00100000
00000000
01000000
00100000
01000000
00000000
,
00010000
10000000
01000000
00010000
,
00001000
00010000
00001000
00000000
00000010
00000100
00000010
00000000
,
00001001
00000001
00000010
00001000
,
00010000
00000000
01000000
00000000
00100000
01000000
00100000
00000000
,
00010000
10000000
00100000
00010000
,
00001000
00000000
00010000
00001000
00010000
00001000
00010000
00001000
,
00020000
00001000
00000100
00001000
,
00030020
00000230
00000302
00002003
,
00003100
00000010
00000100
00000000
00010000
00001000
00010000
00000000
,
00100000
00000000
00000000
00100000
00000000
00000000
00100000
00000000
00000000
00000000
10000000
00000000
00010000
00000000
10000000
00000000
,
00010000
00000000
00000000
00000000
,
00000000
00000000
00000000
00000000
,
00000000
00000000
00000000
00000000
,
00000000
00000000
00000000
10010000
,
10000000
00010000
10000000
00000000
00010000
10000000
00010000
00000000
,
01000000
00100000
01000000
00000000
00100000
01000000
00100000
00000000
,
00010000
00001000
00010000
00000000
00000010
00000100
00000010
00000000
,
00002000
00003200
00000320
00000032
,
00000003
00000000
00000000
00000000
;

//---------------dance-double - RGTM-DDP----------------
#NOTEDATA:;
#CHARTNAME:RGTM-DDP;
#STEPSTYPE:dance-double;
#DESCRIPTION:RGTM-DDP;
#DIFFICULTY:Medium;
#METER:13;
#CREDIT:RGTM;
#NOTES:
00000000
00000000
00000000
00000000
,
00000000
00000000
00000000
00000000
,
00000000
00000000
00000000
00000000
,
00000000
00000000
00000000
00000000
,
00000000
00000000
00000000
00000000
,
10020000
20030000
30200000
00320000
,
00032000
00003020
00000032
00002003
,
00003002
00000203
00002300
00023000
,
02030000
00000000
00000000
00000000
23000000
00000000
00000000
00000000
30020000
00000000
00000000
00000000
02030000
00000000
00000000
03000000
,
01100000
00000000
01100000
00000000
00100000
00000000
10000000
00000000
01000000
00000000
00000000
01000000
00100000
00000000
00001000
00000000
,
00010000
00000000
00000000
00010000
00000010
00000000
00000100
00000000
00000010
00000000
00000000
00000010
00001000
00000000
00000100
00000000
,
00000110
00000000
00000110
00000000
00000010
00000000
00000001
00000000
00000100
00000000
00000000
00000100
00000010
00000000
00010000
00000000
,
00001000
00000000
00000000
00001000
00100000
00000000
01000000
00000000
10000000
00000000
00010000
00000000
10000000
00000000
00010000
00000000
,
00000000
02000000
00000000
03200000
02300000
00000000
03020000
20030000
,
30020000
00030020
00002030
00203000
,
00320000
00000000
10000000
00000000
10000000
00000000
00000000
00000000
02030000
00000000
00000000
03200000
00000000
00000000
00320000
00000000
,
00032000
00000000
00000000
00003020
00000000
00000000
00000032
00000000
00002003
00000000
00000000
00000000
00003010
00000000
00000010
00000000
,
00001001
00000000
00000000
00000001
00000000
00000000
00000001
00000000
00000000
00000001
00000000
00000000
00000001
00000000
00000001
00000000
,
00000000
00000000
00001000
00000000
00000010
00000000
00010000
00000000
00001000
00000000
00000000
00100000
00000000
00000000
00010000
00000000
,
10000000
00000000
00000000
10000000
00000000
00000000
10000000
00000000
00000000
10000000
00000000
00000000
10000000
00000000
10000000
00000000
,
00000000
00010000
01000000
00001000
00010000
00000000
00011000
00000000
,
00001000
00100000
01000000
10000000
00100000
00010000
00001000
00000100
,
00000001
00000010
00001000
00000010
00000001
00000100
00001000
00001000
,
00010000
00000010
00000100
00000001
00000010
00001000
00010000
01000000
,
10000000
00100000
00010000
00100000
10000000
01000000
00010000
00010000
,
00001000
00000100
00000001
00000010
00001000
00010000
00001000
00001000
,
00010000
01000000
10000000
00100000
00010000
00010000
00001000
00001000
,
00011000
00000010
00001001
00000100
,
00011000
10010000
00011000
00001001
,
00000001
00000100
00001000
00000100
00000001
00000010
00001000
00000010
,
00000001
00000100
00001000
00010000
01000000
00100000
00010000
00000000
,
10000000
00100000
00010000
00100000
10000000
01000000
00010000
01000000
,
10000000
00000000
00100000
00000000
01000000
00000000
00001000
00000000
00010000
00001000
00010000
00000000
00001000
00010000
00001000
00000000
,
00020000
00001000
00030002
00000023
,
00002030
00010000
20003000
00010000
,
30200000
01000000
00001000
01000000
,
20300000
32000000
03002000
00023000
,
00030020
00000000
00001000
00000000
00000100
00000000
00000032
00002003
,
00003002
00000203
00020300
00032000
,
00103000
01000000
00100000
01000000
00010000
10000000
00010000
10000000
,
01000000
00000000
00100000
00000000
00001000
00000000
00010000
00000000
00000010
00000100
00000000
00000010
00000100
00000000
00000001
00001000
,
00000001
00000000
00000000
00001001
00000000
00000000
00000000
00000000
00000000
00000000
00000000
00000000
00000000
00000000
00000000
00000000
,
00000000
00000000
00000000
00000000
,
00000000
00000000
00000000
00000000
,
00000000
00000000
00000000
00000000
,
00001000
00000002
00000000
00000023
00000230
00000000
00020300
00032000
,
00023000
00230000
20300000
30020000
,
00230000
00000000
00000000
00000000
00000000
00000000
00000000
00000000
02300000
00000000
00000000
23000000
00000000
00000000
30200000
00000000
,
00320000
00000000
00000000
00032000
00000000
00000000
00003020
00000000
00000032
00000000
00000000
00000000
00000000
00000000
00000003
00000000
,
00001001
00000001
00000100
00001000
00010000
00001000
00000100
00000001
,
00000010
00000100
00010000
00001000
01000000
00100000
10000000
00000000
,
00010000
10000000
01000000
00010000
00001000
00010000
01000000
10000000
,
00100000
01000000
00001000
00010000
00000100
00000010
00000001
00000000
,
00001000
00000001
00000010
00001000
00010000
00001000
00000010
00000001
,
00000100
00000010
00010000
00001000
00100000
01000000
10000000
00000000
,
10010000
00100000
00011000
00000010
,
00001001
00000000
00000000
00000000
00001000
00000100
00001000
00000000
00000001
00000100
00000001
00000000
00001000
00000010
00001000
00000000
,
00000002
00000010
00001000
00010000
,
00002003
00003020
00020030
00032000
,
00103000
00000000
00100000
00000000
01000000
00000000
01000000
00000000
10000000
00010000
10000000
00000000
00010000
10000000
00010000
00000000
,
10010000
00000000
00000000
11000000
00000000
00000000
01010000
00000000
00000000
00000000
10000000
00000000
01000000
00000000
00010000
00001000
,
00010000
00000000
00000000
00000000
,
00000000
00000000
00000000
00000000
,
00000000
00000000
00000000
00000000
,
00000000
00000000
00000000
00011000
,
00001000
01000000
00100000
00010000
00001000
00000100
00000010
00010000
,
00001000
00100000
01000000
00010000
00001000
00000010
00000100
00010000
,
00001000
00100000
10000000
00100000
00001000
00000010
00000001
00000010
,
00001000
00000000
00010000
00001000
00010000
00000000
00100000
00000000
01000000
00100000
01000000
00000000
00010000
10000000
00010000
10000000
;

//---------------dance-double - RGTM-EDP----------------
#NOTEDATA:;
#CHARTNAME:RGTM-EDP;
#STEPSTYPE:dance-double;
#DESCRIPTION:RGTM-EDP;
#DIFFICULTY:Hard;
#METER:15;
#CREDIT:RGTM;
#NOTES:
00000000
00000000
00000000
00000000
,
00000000
00000000
00000000
00000000
,
00000000
00000000
00000000
00000000
,
00000000
00000000
00000000
00000000
,
00000000
00000000
00000000
00000000
,
00021000
00230000
20300000
30020000
,
00032000
00003020
00000032
00002003
,
00003002
00000203
00020300
02030000
,
23000000
00000000
00000000
00000000
30200000
00000000
00000000
00000000
00320000
00000000
00000000
00000000
00032000
00000000
00000000
00003000
,
00011000
00011000
00010000
00000010
00000001
00001000
00000100
00000001
,
00001000
00000100
00001000
00000100
00001000
00000000
00000001
00000100
00000010
00000000
00001000
00000000
00000100
00000000
00010000
00000000
,
00011000
00011000
00001000
00100000
10000000
00010000
01000000
10000000
,
00010000
01000000
00010000
01000000
00010000
00000000
10000000
01000000
00100000
01000000
00100000
01000000
00100000
00000000
00001000
00010000
,
00001000
00020000
00000000
00030020
00000230
00000000
00000302
00000023
,
00002030
20003000
30200000
00320000
,
00031000
00010000
00001000
00010000
00001000
00000000
00000000
00000000
00020000
00000000
00000000
00030020
00000000
00000000
00000032
00000000
,
00000023
00000000
00000000
00002030
00000000
00000000
00003200
00000000
00000310
00000001
00000000
00000100
00001000
00000000
00010000
00000000
,
01100000
00000000
00000000
00100000
00000000
00000000
00100000
00000000
00000000
00100000
00000000
00000000
00100000
00000000
00100000
00000000
,
00000000
00000000
10000000
00000000
01000000
00000000
00010000
00000000
00001000
00000000
00000000
00000100
00000000
00000000
00000001
00000000
,
00000010
00000000
00000000
00000010
00000000
00000000
00000010
00000000
00000000
00000010
00000000
00000000
00000010
00000000
00000010
00000000
,
00000000
00000001
00000100
00001000
00010000
00000000
01100000
00000000
,
10000000
01000000
10000000
00000000
00010000
00100000
00010000
00000000
01000000
00100000
01000000
00000000
00001000
00010000
00001000
00000000
,
00000100
00000000
00000001
00000000
00000010
00000000
00000100
00010000
00001000
00010000
00000010
00000100
00000010
00001000
00000100
00001000
,
00000001
00000100
00000001
00000000
00001000
00000010
00001000
00000000
00000100
00000010
00000100
00000000
00010000
00001000
00010000
00000000
,
01000000
00000000
10000000
00000000
00100000
00000000
01000000
00001000
00010000
00001000
00100000
01000000
00100000
00010000
01000000
00010000
,
10000000
00000000
01000000
00000000
00100000
00000000
00001000
00010000
00001000
00000000
00000100
00000000
00000010
00001000
00000100
00000010
,
00000001
00000100
00001000
00010000
00100000
00100000
01000000
01000000
,
01100000
00000000
00000000
00000000
00010000
00000000
00001000
00000000
00000110
00000000
00000000
00001000
00010000
00000000
00100000
01000000
,
00100000
00000000
00100000
00000000
10000000
00000000
10000000
00000000
01000000
00010000
00000000
00001000
00000100
00000000
00000020
00000000
,
00001030
00000010
00001000
00000000
00001000
00000001
00001000
00000000
00001000
00000100
00001000
00000000
00001000
00000001
00001000
00000000
,
00000001
00000000
00000010
00000100
00010000
00000000
00001000
01000000
00100000
00000000
00020000
00000000
00130000
00000000
10000000
00000000
,
00010000
00100000
00010000
00000000
00010000
10000000
00010000
00000000
00010000
01000000
00010000
00000000
00010000
10000000
00010000
00000000
,
00100000
00000000
01000000
00100000
01000000
00000000
00010000
00001000
00010000
00001000
00010000
00001000
00010000
00000000
00000010
00000100
,
00000002
00000010
00002003
00023000
,
00230000
00001000
20300000
00100000
,
30002000
01000000
00000100
01000000
,
00003100
00001000
00000100
00010000
00001000
00000000
00001000
01000000
00100000
01000000
00020000
00000000
00130000
01000000
10000000
00010000
,
20000000
00000000
00100000
00000000
00001000
00000000
30020000
20030000
,
30020000
00000000
00000000
00000000
00030020
00000000
00000000
00000000
00002030
00000000
00023000
00000000
00030020
00000000
00000000
00000030
,
00000110
00000010
00010000
00001000
00011000
00010000
00001000
00100000
,
01000000
00100000
01000000
00100000
01000000
00100000
01000000
00100000
00010000
10000000
00000000
00100000
01000000
00000000
00001000
00010000
,
00000010
00000000
00000000
00001001
00000000
00000000
00000000
00000000
00000000
00000000
00000000
00000000
00000000
00000000
00000000
00000000
,
00000000
00000000
00000000
00000000
,
00000000
00000000
00000000
00000000
,
00000000
00000000
00000000
00000000
,
00000001
00002000
00000000
00003002
00000203
00000000
00002300
00023000
,
00230000
20300000
32000000
03002000
,
00023000
00000000
00000000
00000000
00031000
00000000
00000000
00000000
00020000
00000000
00000000
00230000
00000000
00000000
00302000
00000000
,
00023000
00000000
00000000
00030020
00000000
00000000
00002030
00000000
00000002
00000000
00000000
00000000
00000000
00000000
00003003
00000000
,
00001001
00000000
00001000
00000000
00000001
00000100
00000001
00000000
00000010
00000100
00000010
00000000
00001000
00010000
00001000
00000000
,
00100000
00010000
00100000
01000000
10000000
00000000
00010000
01000000
00100000
01000000
00002000
00000000
00103000
01000000
10000000
00000000
,
00010000
10000000
00010000
00000000
10000000
01000000
10000000
00000000
00100000
01000000
00100000
00000000
00010000
00001000
00010000
00000000
,
00000010
00001000
00000010
00000100
00000001
00000000
00001000
00000100
00000010
00000100
00020000
00000000
00030010
00000100
00000001
00001000
,
00000001
00000000
00001000
00000000
00000001
00000010
00000001
00000000
00000100
00000010
00000100
00000000
00001000
00010000
00001000
00000000
,
01000000
00010000
01000000
00100000
10000000
00000000
00010000
00100000
01000000
00100000
00002000
00000000
01003000
00100000
10000000
00000000
,
10010000
00010000
01000000
00001000
00011000
00010000
00000100
00001000
,
00001001
00000000
00000001
00000000
00000010
00000100
00000010
00000100
00001000
00000001
00001000
00000001
00000100
00000010
00000100
00000010
,
00020000
00000010
00100000
00000010
,
00032000
00203000
20300000
30020000
,
01030000
00000000
01000000
00000000
00100000
00000000
00100000
00000000
00010000
10000000
00010000
10000000
00010000
10000000
00010000
10000000
,
00100000
00000000
00000000
01100000
00000000
00000000
00011000
00000000
00000000
00000000
00002000
00000000
00013000
00000000
00000100
00000010
,
00000100
00000000
00000000
00000000
,
00000000
00000000
00000000
00000000
,
00000000
00000000
00000000
00000000
,
00000000
00000000
00000000
00001001
,
00000001
00000010
00000001
00000010
00000100
00000010
00000100
00000010
00000100
00010000
00000100
00010000
00001000
00010000
00001000
00010000
,
00001000
01000000
00001000
01000000
00100000
01000000
00100000
01000000
00100000
10000000
00100000
10000000
00010000
10000000
00010000
10000000
,
00010000
00100000
01000000
10000000
00100000
01000000
00010000
00100000
00001000
00010000
00000010
00001000
00000001
00000010
00000100
00001000
,
00000010
00000100
00000010
00000100
00000001
00000000
00000010
00000100
00000010
00000100
00001000
00000000
00000010
00000100
00001000
00010000
;
