#TITLE:Calling;
#ARTIST:Zekk;
#BANNER:Calling.png;
#BACKGROUND:Calling-bg.png;
#MUSIC:Calling.ogg;
#OFFSET:-0.052;
#SAMPLESTART:24.036;
#SAMPLELENGTH:15;
#BPMS:0=90,68.5=180,96.5=90,145=180,176=90;
#STOPS:95.5=1;

//---------------dance-single - Marten-ESP----------------
#NOTES:
     dance-single:
     Marten:
     Hard:
     14:
     0.526852,0.647642,0.397281,0.172405,0.528458,492,439,53,23,0,0,0.526852,0.647642,0.397281,0.172405,0.528458,492,439,53,23,0,0:
// measure 0
0000
0000
0000
0000
,  // measure 1
0000
0000
0000
0000
,  // measure 2
0000
0000
0000
0000
,  // measure 3
0000
0000
0000
0000
,  // measure 4
0000
0000
0000
0000
,  // measure 5
0001
0100
0010
1000
0000
0001
1000
0000
,  // measure 6
1000
0000
0000
0000
0100
0000
0000
0000
0010
0000
0000
0000
0001
0000
0000
0000
0000
0000
1000
0000
0010
0000
0000
0000
0100
0000
0001
0000
0010
0001
0010
0000
,  // measure 7
0100
0000
0000
1000
0001
0000
0100
0000
0000
0000
0010
0000
0110
0000
0000
0000
,  // measure 8
1000
0000
0000
0001
1000
0000
0100
0000
0010
0001
0010
0001
0010
0001
0010
0001
,  // measure 9
1000
0000
0001
0100
0001
0000
0010
0000
0100
0000
0010
0000
0001
0000
0001
0000
,  // measure 10
0000
0000
1000
0010
1000
0000
0100
0000
1000
0000
0010
0000
0100
0010
0100
0000
,  // measure 11
0001
0000
0010
0000
0100
0000
0100
0000
0010
0001
1000
0000
0010
0000
0100
0000
,  // measure 12
0001
0100
0001
0000
1000
0000
1000
0000
0100
1000
0100
0000
0010
0000
0010
0000
,  // measure 13
0100
0000
1000
0000
1001
0000
1000
0000
0001
0000
0100
0000
0001
0010
0001
0000
,  // measure 14
1000
0000
0100
0010
0100
0000
1000
0001
0000
0000
0100
0000
0010
0100
0010
0000
,  // measure 15
0110
0000
0000
0000
0001
0000
0000
0000
1000
0000
0000
0000
0100
0000
0000
0000
0010
0000
0100
0000
0000
0000
0100
0000
0000
0000
0100
0000
1000
0000
0000
0001
,  // measure 16
0100
0010
0100
0000
0001
1000
0001
0000
0010
0001
0100
0000
0010
0000
0010
0000
,  // measure 17
0100
1001
0001
0100
0010
0100
0001
1000
,  // measure 18
0100
0000
0010
0000
0100
1000
0100
0000
1000
0000
0001
0000
0100
0000
0001
0000
,  // measure 19
0000
0011
0001
1000
0010
0001
0010
1000
,  // measure 20
0100
0000
1000
0000
0001
0010
0001
0010
0100
0000
0010
0000
0001
0000
1000
0000
,  // measure 21
0000
0100
1000
0010
1000
0010
1000
0001
,  // measure 22
0100
0000
0001
0000
0100
0000
0010
0000
0100
0000
0010
0000
0100
0000
0001
0010
,  // measure 23
0001
0000
1000
0010
1000
0000
0001
1000
0001
1000
0010
0100
0010
0100
0001
0000
,  // measure 24
0000
0000
1001
0000
0011
0000
0001
1000
0100
0010
0000
0110
0000
1100
1000
0001
,  // measure 25
0001
0001
0100
0000
0001
1000
0100
1000
0001
0010
1000
0010
0001
0100
0000
0101
,  // measure 26
0000
0010
1000
0000
0001
0000
0011
0001
0020
0000
0030
0110
0000
1001
0001
1000
,  // measure 27
0010
0010
0200
0000
0301
1000
0100
1000
0001
0010
0110
0000
0011
0000
1100
0000
,  // measure 28
1001
0000
0100
0000
1000
0001
1000
0010
0100
0001
0000
0101
0000
1100
0100
0010
,  // measure 29
0001
0000
0001
0000
2000
0000
0000
0000
3001
0000
0000
0000
0110
0000
0100
0000
0010
0000
0010
0000
0000
0000
1010
0000
0000
0000
0101
0000
0001
0000
1000
0100
,  // measure 30
1000
0100
0020
0000
0030
0000
0110
0100
2000
0000
3000
1001
0000
0001
0100
0010
,  // measure 31
0100
0000
0100
0000
0001
0000
0000
0010
0100
0000
1000
0000
0000
0010
0100
0000
0001
0000
1000
0000
2002
0000
0000
0000
0000
0000
0000
0000
3003
0000
0000
0000
,  // measure 32
0110
2002
0000
0000
0000
0000
0000
0000
,  // measure 33
0000
0000
0000
0000
0000
0000
0000
3003
,  // measure 34
0000
0000
0001
0000
0000
1000
0010
0000
0100
0000
0000
0000
0001
0000
0011
0000
,  // measure 35
0000
0000
0100
0000
0000
0010
0001
0000
1000
0000
0010
1000
0010
1000
0010
1000
,  // measure 36
0010
1000
0001
0000
1000
0000
0100
0000
0010
0000
0100
0000
1000
0000
0010
0000
,  // measure 37
1000
0000
0001
0000
0100
0000
1000
0000
0100
0001
0100
0000
0010
0000
1000
0000
,  // measure 38
0001
0000
1010
1000
0100
0001
0100
1000
,  // measure 39
0010
0000
0100
0000
0001
0000
1000
0010
1000
0010
0100
0000
0001
0000
0010
0000
,  // measure 40
0100
0000
0010
0001
1000
0001
1000
0001
,  // measure 41
1000
0100
1000
0100
0010
0001
0010
0001
,  // measure 42
1000
0100
1000
0000
0001
0100
0001
0000
1000
0001
1000
0001
0100
0010
0100
0010
,  // measure 43
1000
0000
0000
0001
0000
0000
0110
0000
,  // measure 44
1001
0000
1010
0000
0100
0001
1000
0001
0000
1100
0000
0011
0000
0001
0100
0002
,  // measure 45
0000
0000
1003
0000
1010
0010
0100
0001
0010
1000
0010
0001
0000
1000
0010
1000
,  // measure 46
1200
0000
0310
0000
0001
1000
0010
2000
0000
3001
0000
0011
0000
1001
1000
1020
,  // measure 47
0000
0000
0000
0000
0130
0000
0001
0000
1000
0000
0000
0001
0000
0000
1000
0000
1010
0000
0000
0000
0101
0000
0000
0000
1001
0000
0001
0000
0010
0000
0000
0000
,  // measure 48
0100
0000
0210
0000
0310
0001
1000
1001
0000
0101
0000
1100
1000
0010
0100
0100
,  // measure 49
0000
0000
1001
0000
0001
1000
0000
0020
0000
2030
0000
3002
0000
0023
0100
0130
,  // measure 50
0020
0000
0030
0000
0011
0001
1000
0010
0000
1001
0000
1010
1000
0001
0010
0100
,  // measure 51
1000
0000
0000
0001
0100
0000
0010
0000
0000
1000
0100
0000
0010
0000
0001
0000
2002
0000
0000
0000
0000
0000
0000
0000
3003
0000
0000
0000
0110
0000
0000
0000
,  // measure 52
2002
0000
0000
0000
,  // measure 53
0000
0000
0000
0000
,  // measure 54
3003
0000
0000
0000
;

//---------------dance-single - Marten-DSP----------------
#NOTES:
     dance-single:
     Marten:
     Medium:
     12:
     0.439043,0.586926,0.397281,0.157413,0.333566,410,357,53,21,0,0,0.439043,0.586926,0.397281,0.157413,0.333566,410,357,53,21,0,0:
0000
0000
0000
0000
,
0000
0000
0000
0000
,
0000
0000
0000
0000
,
0000
0000
0000
0000
,
0000
0000
0000
0000
,
1000
0000
0001
0100
0000
0010
1000
0000
,
0100
0000
0010
0100
0000
1000
0001
0001
,
0100
0000
0010
0100
0000
0001
1000
0000
,
0100
0000
0000
0000
0010
0000
0001
0000
1000
0001
1000
0001
1000
0001
1000
0001
,
0100
0010
0100
0001
0000
1000
0100
1000
,
0000
0001
0100
0001
0010
0100
1000
1000
,
0000
0010
1000
1000
0010
0100
0001
0100
,
0000
0001
1000
1000
0100
0010
0001
0001
,
1000
0100
0110
0000
0001
0100
0101
0000
,
0010
1000
1010
0000
1000
0001
1001
0000
,
0001
0000
0100
0000
0001
0000
1000
0000
0001
0010
0000
0010
0000
0010
0000
0010
,
0001
1000
0010
0010
0100
0001
1000
1000
,
0100
0110
0000
0010
0001
1000
0000
0010
,
1000
0010
1000
0100
1000
0001
0100
0001
,
0000
0010
0001
1000
0010
1000
0000
0001
,
0100
0001
0100
0001
0010
0100
0010
0001
,
0000
1000
0100
0010
0001
0010
0001
0100
,
0001
0100
0001
1000
0010
1000
0010
1000
,
0100
0010
0000
0001
0100
0010
0000
1001
,
0000
0000
0011
0000
1100
0000
1000
0000
0001
0100
0000
0110
0000
1001
0000
0001
,
1000
0001
0100
0000
0100
0000
0010
0000
0100
0001
1000
0001
1000
0100
0000
0010
,
0000
0001
0010
0000
0001
0000
1000
0100
2000
0000
3000
1100
0000
0101
0000
0001
,
0010
0001
1000
0000
0010
0000
0100
0000
0001
1000
0100
0000
0110
0000
0011
0000
,
1100
0000
1001
0000
0102
0000
0103
0000
0001
1000
0000
1100
0000
1001
0000
0001
,
0010
0001
1000
0000
0010
0000
0100
0010
0100
0010
0000
1010
0000
0101
0000
0001
,
1000
0001
0200
0000
0300
0000
0110
0010
0200
0000
0300
0101
0000
1100
0000
1000
,
0010
0000
1000
0000
0100
0000
0000
1001
0000
0000
0010
0000
0000
1001
0000
0000
0010
0000
0100
0000
2002
0000
0000
0000
3003
0000
0000
0000
0000
0000
0000
0000
,
0110
2002
0000
0000
0000
0000
0000
0000
,
0000
0000
0000
0000
0000
0000
0000
3003
,
0000
0100
1000
0010
0100
0000
0001
1000
,
0000
0000
0100
0000
0010
0000
0001
0000
1000
0000
0010
0100
0010
0100
0010
0100
,
0010
0100
0001
0000
0110
0000
0000
0000
0010
0000
1000
0000
0001
0000
0000
0000
,
0010
0001
0010
0001
0100
0001
1000
0100
,
1000
0000
0010
1000
0001
0010
0001
0000
,
1000
0100
1000
0100
1000
0010
0100
0010
,
1000
0000
0001
0100
0010
1000
0010
1000
,
0100
1000
0100
1000
0001
0010
0001
0010
,
0001
0100
0010
0000
1000
0100
0010
0000
,
0001
0000
0000
1000
0000
0000
0110
0000
,
1010
0000
0011
0000
0001
1000
0001
1000
0000
1100
0000
0101
0000
0110
0000
1002
,
0000
0000
0013
0000
0011
0000
0001
1000
0001
1000
0100
1000
0000
0010
0000
0100
,
0002
0000
0000
0000
1003
0100
0010
0100
0000
2000
0000
3020
0000
0230
0000
0302
,
0000
0000
0000
0000
1003
0000
0000
0000
0001
0000
0000
0010
0000
0000
0100
0000
1000
0000
0000
0000
1001
0000
0000
0000
0011
0000
0000
0000
0101
0000
0000
0000
,
0010
0000
1001
0000
1000
0100
0010
0002
0000
0100
0000
0103
0001
0100
0010
2000
,
0000
0000
3001
0000
0010
0001
0000
1001
0000
1010
0000
0101
0000
0011
0000
0100
,
2000
0000
0000
0000
3001
0100
0010
0100
0000
0101
0000
1010
0000
1000
0100
0010
,
0001
0000
0000
0110
0000
0000
1000
0000
0000
0110
0000
0000
0001
0000
1000
0000
2002
0000
0000
0000
0000
0000
0000
0000
3003
0000
0000
0000
0110
0000
0000
0000
,
2002
0000
0000
0000
,
0000
0000
0000
0000
,
3003
0000
0000
0000
;

//---------------dance-single - Marten-BSP----------------
#NOTES:
     dance-single:
     Marten:
     Easy:
     7:
     0.289126,0.384538,0.254859,0.149917,0.007496,270,236,34,20,0,0,0.289126,0.384538,0.254859,0.149917,0.007496,270,236,34,20,0,0:
0000
0000
0000
0000
,
0000
0000
0000
0000
,
0000
0000
0000
0000
,
0000
0000
0000
0000
,
0000
0000
0000
0000
,
0001
0000
1000
0000
0000
0100
0010
0000
,
0100
0000
1000
0000
0001
0001
0100
0000
,
0010
0000
0100
0001
0000
1000
0001
0000
,
0010
0000
0100
0010
0001
0001
0001
0001
,
1000
0000
0100
1000
0000
0010
1000
0010
,
0000
0100
0001
0100
0001
0000
1000
0000
,
0001
0000
0010
0100
0000
0100
0010
0000
,
0001
0000
1000
0000
0010
0100
0010
0010
,
1000
0000
1010
0000
0000
0100
0101
0000
,
0001
0000
0011
0000
0000
0100
1100
0000
,
0001
0000
1001
0000
0000
1000
1001
0000
,
0010
0000
0110
0000
0100
0000
0010
0010
,
0100
1001
0000
0001
0000
0001
0000
1000
,
0000
0100
0000
0010
0000
0100
0000
1000
,
0000
0010
0000
0100
0000
0100
0000
0001
,
0000
0100
0000
0010
0000
1000
0000
0001
,
0000
1000
0000
0100
0000
0100
0000
0010
,
0000
0010
0000
0100
0000
0100
0000
0010
,
0000
0001
0000
1000
0000
0010
0000
0110
,
0000
1001
0110
0010
1000
0000
0001
0010
,
0010
0011
0000
1000
0100
0010
0001
0010
,
0100
1000
0001
0101
0001
0000
1000
0001
,
0001
1000
0100
0010
0010
0002
0023
0230
,
2300
3000
1001
1000
0100
0000
0010
0001
,
0001
0100
0001
0010
0010
0000
0001
1000
,
0010
0200
0300
0110
0010
0000
1000
0001
,
0001
0000
1001
0000
0000
0110
0000
0000
0001
0000
2002
0000
0000
0000
3003
0000
,
0110
2002
0000
0000
0000
0000
0000
0000
,
0000
0000
0000
0000
0000
0000
0000
3003
,
0000
0001
0000
1000
0100
0000
0010
0001
,
0000
1001
0000
1000
0010
1000
1000
1000
,
1000
0001
1001
0000
1000
0000
1000
0000
,
0001
0100
0010
0100
,
0001
0010
0100
0100
,
1000
0100
0010
0001
,
1000
0001
0100
0100
,
0010
0010
0100
0100
,
0010
1000
0001
0010
,
0001
0000
0000
1000
0000
0000
0110
0000
,
1001
0110
0100
0001
0000
1000
0100
1100
,
1002
0000
0013
0001
1000
1000
0010
0010
,
0200
0000
0301
1000
0000
1000
0001
0001
,
0010
0000
0110
0000
0002
0023
0230
2300
,
3000
1001
0001
0100
0000
0010
0100
0100
,
0000
0001
1000
0000
0100
0010
0100
0100
,
2000
0000
3001
0100
0001
0000
1000
0100
,
1001
0000
0000
0110
0000
0000
1000
0000
2002
0000
0000
0000
3003
0000
0110
0000
,
2002
0000
0000
0000
,
0000
0000
0000
0000
,
3003
0000
0000
0000
;

//---------------dance-single - Marten-bSP----------------
#NOTES:
     dance-single:
     Marten:
     Beginner:
     5:
     0.147776,0.222627,0.082454,0.074959,0,138,127,11,10,0,0,0.147776,0.222627,0.082454,0.074959,0,138,127,11,10,0,0:
0000
0000
0000
0000
,
0000
0000
0000
0000
,
0000
0000
0000
0000
,
0000
0000
0000
0000
,
0000
0000
0000
0000
,
1000
0000
0000
0000
,
0001
0000
0000
0100
,
0010
0000
0000
0000
,
0100
0000
0020
0000
,
0030
0100
0001
0001
,
0000
1000
0001
1000
,
0000
0010
1000
1000
,
0000
0100
0000
0010
,
0000
0001
1000
1000
,
0000
0010
0100
0010
,
0000
1000
0100
0100
,
0000
0010
0001
0001
,
0000
0001
0000
0000
0000
1000
0000
0000
,
0000
0010
0000
0010
0000
0010
0000
0000
,
0000
0100
0000
0000
0000
0010
0000
0000
,
0000
1000
0000
1000
0000
1000
0000
1000
,
0000
0000
0000
0001
0000
0000
0000
0010
,
0000
0000
0000
0100
0000
0000
0000
1000
,
0000
0000
0000
0001
0000
0000
0000
1001
,
0000
1001
0001
0001
0000
0000
0000
1000
,
0000
0000
0000
0100
0000
0010
0000
0010
,
0000
0001
0000
0000
0000
1000
0000
0000
,
0000
0010
0000
0010
0000
0100
0100
0100
,
0000
0000
1001
0000
0001
0000
1000
1000
,
0000
1000
0000
0001
0000
0100
0000
0200
,
0000
0300
0000
1001
0000
0000
0000
1000
,
0000
0001
0000
1000
0000
1001
0000
0000
,
0000
2002
0000
0000
0000
0000
0000
0000
,
0000
0000
0000
0000
0000
0000
0000
3003
,
0000
0001
0000
1000
0000
0000
0000
0010
,
0000
0010
0000
0100
0000
0020
0000
0000
,
0000
0030
1000
0000
0000
0000
0001
0000
,
0000
0010
0010
0010
,
0000
0100
0000
0010
,
0000
0001
0001
0001
,
0001
0000
1000
0000
,
0010
0000
0100
0000
,
0001
0000
1000
0000
,
1001
0000
0000
0000
,
1001
1000
1000
0000
0010
0000
0100
0100
,
0200
0300
0001
1000
,
0002
0003
1000
0010
,
0010
0000
0100
0000
0001
0000
1000
1000
,
0000
1001
0000
0000
0001
0000
0010
0000
,
0001
0000
1000
0001
,
2000
3000
0001
1000
,
0001
1000
1001
0000
,
2002
0000
0000
0000
,
0000
0000
0000
0000
,
3003
0000
0000
0000
;

//---------------dance-double - NewbStepper-EDP----------------
#NOTES:
     dance-double:
     NewbStepper:
     Hard:
     14:
     0.522568,0.667881,0.382289,0.127430,0.490979,488,437,51,17,0,0,0.522568,0.667881,0.382289,0.127430,0.490979,488,437,51,17,0,0:
00000000
00000000
00000000
00000000
,
00000000
00000000
00000000
00000000
,
00000000
00000000
00000000
00000000
,
00000000
00000000
00000000
00000000
,
00000000
00000000
00000000
00000000
,
10000000
00000000
01000000
00000000
00100000
00000000
00010000
00000000
00000000
00000000
00001000
00000010
00000100
00000000
00000000
00000000
,
00000001
00000000
00000100
00000000
00000010
00000000
00001000
00000000
00000000
00000000
00010000
01000000
00100000
00000000
10000000
00000000
,
10010000
00000000
00000000
00000000
00000000
00000000
10000000
00000000
01000000
00000000
00000000
00000000
00010000
00000000
00000000
00000000
00000010
00000000
00000000
00000000
00000000
00000000
00001000
00000100
00001000
00000000
00000001
00000000
00000100
00000000
00000000
00000000
,
00001001
00000000
00000000
00000001
00000100
00000000
00001000
00000000
00100000
00010000
00100000
00010000
00100000
00010000
00100000
00010000
,
10000000
00000000
01000000
00010000
00001000
00000000
00000100
00000000
00000010
00000000
00000100
00000000
00010000
00000000
00001000
00000000
,
00000001
00000000
00000100
00001000
00010000
00000000
01000000
00000000
00100000
00000000
01000000
00000000
00010000
00000000
00001000
00000000
,
00000000
00000000
00011000
00000000
00100000
00000000
00100000
00000000
00010000
10000000
01000000
00000000
00010000
00001000
00000100
00000000
,
00000000
00000000
00000110
00000000
00001000
00000000
00001000
00000000
00000001
00000100
00001000
00000000
00010000
00000000
00011000
00000000
,
00100000
00000000
00010000
00000000
10010000
00000000
10000000
00000000
01000000
00010000
00000100
00000000
00001000
00000000
00010000
00000000
,
01000000
00000000
00001000
00010000
00100000
00000000
00010000
00000000
00000010
00000000
00001000
00000000
00000100
00000010
00000100
00000000
,
00000110
00000000
00000000
00000000
00000001
00000000
00000000
00000000
00001000
00000000
00000000
00000000
00010000
00000000
00000000
00000000
00100000
00010000
00100000
00000000
00000000
00000000
01000000
00000000
00000000
00000000
01000000
00000000
10000000
00100000
10000000
00000000
,
01000000
00100000
00010000
00001000
00000100
00000000
00000010
00000001
00000100
00001000
00010000
00000000
00100000
00000000
00100000
00000000
,
00000000
10010000
10000000
01000000
00010000
00001000
00100000
00010000
,
01000000
00000000
00001000
00000000
00010000
00001000
00010000
00000000
00001000
00000000
00000010
00000000
00000001
00000000
00001000
00000000
,
00000000
00000110
00001000
00000001
00000100
00010000
00000100
00000010
,
00001000
00010000
01000000
00100000
10000000
01000000
00010000
00001000
,
00000000
00000010
00000001
00000010
00000001
00000100
00000001
00000100
,
00001000
00000000
00010000
00000000
00001000
00000000
00010000
00000000
00100000
00000000
10000000
00000000
00100000
00000000
10000000
00100000
,
10000000
00000000
00010000
00100000
00010000
00000000
00100000
00001000
00100000
00000000
00001000
00010000
00001000
00000000
00011000
00000000
,
00000000
00000000
00010100
00000000
00000010
00000000
00000001
00000100
00001000
00010000
00000000
00011000
00001000
00100000
00010000
00001000
,
00001000
00001000
00000100
00000000
00000010
00001000
00010000
00100000
00010000
10000000
01000000
00010000
00100000
00001000
00010000
00000100
,
00001000
00010000
01000000
00000000
01001000
00000000
00001000
00010000
00100000
00010000
00001000
00000010
00000002
00000000
00000000
00001003
,
00000010
00000010
00000200
00000000
00001300
00010000
01000000
10000000
00100000
01000000
00010000
00100000
01100000
00000000
10010000
00000000
,
11000000
00000000
00010000
00000000
00001000
00010000
00100000
00100000
00010000
00001000
00000010
00000010
00002000
00000000
00013000
00001000
,
00000100
00000000
00000100
00000000
00000010
00000000
00000000
00000000
00000110
00000000
00000000
00000000
00000001
00000000
00000100
00000000
00001000
00000000
00010000
00000000
00100000
00000000
00000000
00000000
01100000
00000000
00010000
10000000
00010000
00000000
10000000
00000000
,
01000000
00010000
00002000
00000000
00003000
00000000
00011000
00010000
00001000
00000000
00000010
00001000
00010000
00000000
00100000
01000000
,
00100000
00010000
00001000
00000000
00000110
00000001
00000000
00000110
00001000
00000000
00000200
00000000
00000000
00000000
00000300
00000000
,
00001000
00022000
00000000
00000000
00000000
00000000
00000000
00000000
,
00000000
00000000
00000000
00000000
00000000
00000000
00000000
00033000
,
00000000
00000000
00100000
00000000
00000000
00000000
10000000
00000000
00000000
00000000
01000000
00010000
00001000
00000000
00011000
00000000
,
00000000
00000000
00000010
00000000
00000000
00000000
00000001
00000000
00000000
00000000
00000100
00000010
00000100
00000010
00000100
00000001
,
00000100
00000001
00000100
00000000
00001001
00000000
00000001
00000000
00000100
00000000
00001000
00000000
00010000
00000000
00000010
00000000
,
00001000
00000000
00000100
00000000
00010000
00000000
00001000
00010000
00001000
00000000
00010000
00000000
00100000
00000000
10000000
00000000
,
00010000
00000000
01100000
00010000
10000000
01000000
00001000
01000000
,
00100000
00010000
00001000
00000100
00000010
00000001
00000100
00001000
,
00010000
00000000
00100000
10000000
00100000
10000000
01000000
00010000
,
01000000
00010000
00001000
00010000
00001000
00000010
00000001
00000010
,
00000001
00000010
00000001
00000000
00001000
00000010
00001000
00000000
00000010
00010000
00000010
00000000
00010000
00001000
00010000
00000000
,
00011000
00000000
00000000
00011000
00000000
00000000
00100000
00000000
,
10010000
00000000
01010000
00000000
10000000
00100000
00010000
00001000
00000000
00010100
00000000
00001010
00000000
00000110
00000000
00000002
,
00000000
00000000
00001003
00000000
00001010
00000010
00000100
00000001
00000010
00001000
00010000
00100000
00000000
10000000
01000000
00100000
,
00020000
00000000
00001000
00000000
00130000
00001000
00010000
00200000
00000000
00310000
00000000
00011000
00000000
01001000
01000000
01020000
,
00000000
00000000
00030000
00000000
10000000
01000000
10000000
00000000
01000000
00000000
00010000
00000000
00001000
00000000
00000010
00000000
00000001
00000000
00000100
00000000
00000100
00000000
00001000
00000000
00000100
00000000
00000100
00000000
00000001
00000000
00000000
00000000
,
00001001
00000000
00001100
00000000
00000001
00000010
00001000
00010000
00000000
01001000
00000000
00110000
00000000
01100000
00000000
20000000
,
00000000
00000000
30010000
00000000
00110000
00100000
01000000
10000000
00000000
10100000
00000000
00110000
00000000
00011000
00001000
00000010
,
00002000
00000000
00003000
00000000
00011000
00010000
00100000
10000000
00000000
10010000
00000000
01010000
00000000
00100000
00001000
00010000
,
00001000
00000010
00000001
00000100
00001000
00010000
00000100
00000010
00000220
00000000
00000000
00000000
00000330
00000000
00001001
00000000
,
00002002
00000000
00000000
00000000
,
00000000
00000000
00000000
00000000
,
00003003
00000000
00000000
00000000
;

//---------------dance-double - NewbStepper-DDP----------------
#NOTES:
     dance-double:
     NewbStepper:
     Medium:
     12:
     0.426193,0.566687,0.344810,0.134925,0.296086,398,352,46,18,0,0,0.426193,0.566687,0.344810,0.134925,0.296086,398,352,46,18,0,0:
00000000
00000000
00000000
00000000
,
00000000
00000000
00000000
00000000
,
00000000
00000000
00000000
00000000
,
00000000
00000000
00000000
00000000
,
00000000
00000000
00000000
00000000
,
00010000
00000000
01000000
10000000
00000000
01000000
00010000
00000000
,
00001000
00000000
00000100
00000001
00000000
00000100
00001000
00010000
,
00001000
00000000
00000010
00000001
00000000
00000010
00001000
00000000
,
00010000
00000000
00000000
00000000
00100000
00000000
10000000
00000000
00010000
01000000
00010000
01000000
00010000
01000000
00010000
01000000
,
00100000
10000000
01000000
00010000
00001000
00000100
00000001
00000010
,
00000000
00000001
00000100
00001000
00010000
01000000
10000000
00100000
,
00000000
00010000
00001000
00001000
00010000
00100000
01000000
00100000
,
00000000
00001000
00010000
00001000
00000100
00000010
00000001
00000010
,
00000010
00000001
00000100
00001000
00010000
01000000
10000000
00100000
,
00000000
10000000
01000000
00010000
00001000
00000100
00000001
00000010
,
00000000
00001000
00010000
00010000
00001000
00000010
00000100
00000010
,
00000000
00010000
00001000
00010000
01000000
00100000
10000000
10000000
,
00100000
01100000
00000000
10000000
01000000
00010000
00000000
00001000
,
00000100
00000001
00000010
00000001
00001000
00000010
00000000
00000110
,
00000000
00000001
00000100
00000010
00010000
00001000
00000010
00000100
,
00000000
00010000
00001000
00010000
01000000
10000000
00010000
01000000
,
00000000
00100000
00010000
00001000
00000000
00010000
00001000
00000010
,
00000100
00000010
00001000
00000010
00000100
00000010
00000001
00000100
,
00000010
00001000
00000000
00000001
00000100
00001000
00000000
00011000
,
00000000
00000000
00101000
00000000
00110000
00000000
00010000
00000000
10000000
01000000
00000000
01100000
00000000
10010000
00000000
10000000
,
01000000
00010000
00001000
00000000
00001000
00000000
00010000
00000010
00001000
00000010
00010000
00001000
00000100
00000010
00000000
00001000
,
00000000
00000001
00000010
00000000
00001000
00000000
00010000
00001000
00020000
00000000
00030000
00011000
00000000
01001000
00000000
01000000
,
00010000
01000000
00100000
00000000
10000000
00000000
01000000
00000000
00010000
00001000
00000100
00000000
00000101
00000000
00000110
00000000
,
00001001
00000000
00001100
00000000
00001010
00000000
00001000
00000000
00000001
00000100
00000000
00000110
00000000
00001001
00000000
00000001
,
00000100
00001000
00010000
00000000
00010000
00000000
00001000
00100000
00010000
00100000
00001000
00010000
00000000
00100000
00000000
10000000
,
00100000
00000000
00020000
00000000
00030000
00000000
00011000
00001000
00020000
00000000
00030000
00011000
00000000
00001100
00000000
00000100
,
00000001
00000100
00000010
00000000
00001010
00001000
00000000
00000011
00000001
00000100
00000020
00000000
00000030
00000000
00000000
00000000
,
00000110
00002002
00000000
00000000
00000000
00000000
00000000
00000000
,
00000000
00000000
00000000
00000000
00000000
00000000
00000000
00003003
,
00000000
00000100
00001000
00000010
00000000
01000000
00010000
00100000
,
00000000
00000000
00001000
00000000
00001000
00000000
00010000
00000000
00000010
00000000
00001000
00000100
00001000
00000100
00001000
00000100
,
00001000
00000100
00000010
00000000
00000110
00000000
00000000
00000000
00000001
00000000
00000100
00000000
00001000
00000000
00000000
00000000
,
00010000
01000000
10000000
00100000
10000000
00010000
00100000
00000000
,
01100000
00000000
10000000
01000000
00100000
00001000
00010000
00100000
,
01000000
00000000
00001000
00010000
00001000
00000100
00000001
00001000
,
00000100
00000000
00000010
00001000
00010000
00000000
00001000
00010000
,
00100000
01000000
00100000
00010000
00100000
10000000
01000000
00100000
,
00010000
00000000
10000000
01000000
00010000
00000000
00011000
00000000
,
00000010
00000000
00000000
00000100
00000000
00000000
00000110
00000000
,
00000101
00000000
00001100
00000000
00010000
00001000
00010000
00001000
00000000
00001100
00000000
00011000
00000000
00110000
00000000
02100000
,
00000000
00000000
03100000
00000000
10000000
01000000
10000000
00000000
01000000
00010000
00001000
00000100
00000000
00000010
00000000
00001000
,
00000002
00000000
00000000
00000000
00002003
00000000
00000000
00000000
00003000
00000010
00000000
00000010
00000100
00000000
00001000
00010000
,
00001000
00000000
00100000
00000000
00010000
10000000
00010000
00000000
10000000
00000000
01000000
00000000
00010000
00000000
01000000
00000000
,
11000000
00000000
01010000
00000000
00001000
00010000
00001000
00010000
00000000
01010000
00000000
00011000
00000000
00001010
00000000
00000210
,
00000000
00000000
00000310
00000000
00000001
00000100
00000001
00000200
00000000
00002300
00000000
00023000
00000000
02030000
00000000
03100000
,
00002000
00000000
00003000
00000000
00011000
00010000
00000100
00010000
00000000
00011000
00000000
01010000
00000000
01000000
10000000
01000000
,
00100000
00000000
00110000
00010000
00000000
10100000
10000000
01000000
00200000
00000000
00000000
00000000
00300000
00000000
01100000
00000000
,
20020000
00000000
00000000
00000000
,
00000000
00000000
00000000
00000000
,
30030000
00000000
00000000
00000000
;

//---------------dance-double - NewbStepper-BDP----------------
#NOTES:
     dance-double:
     NewbStepper:
     Easy:
     7:
     0.281630,0.364299,0.217380,0.142421,0.007496,263,234,29,19,0,0,0.281630,0.364299,0.217380,0.142421,0.007496,263,234,29,19,0,0:
00000000
00000000
00000000
00000000
,
00000000
00000000
00000000
00000000
,
00000000
00000000
00000000
00000000
,
00000000
00000000
00000000
00000000
,
00000000
00000000
00000000
00000000
,
00010000
00000000
10000000
00000000
00000000
01000000
00100000
00000000
,
01000000
00000000
00010000
00000000
00001000
00001000
00010000
00000000
,
00000010
00000000
00001000
00000100
00000000
00001000
00000001
00000000
,
00000010
00000000
00000100
00010000
00001000
00001000
00001000
00001000
,
00010000
00000000
01000000
10000000
00000000
00100000
10000000
00100000
,
00000000
00010000
00001000
00010000
00001000
00000000
00100000
00000000
,
00010000
00000000
00001000
00000100
00000000
00000100
00000010
00000000
,
00000001
00000000
00001000
00000000
00000010
00000100
00001000
00001000
,
00010000
00000000
00011000
00000000
00000000
01000000
01100000
00000000
,
10000000
00000000
10010000
00000000
00000000
00000100
00000110
00000000
,
00000001
00000000
00001001
00000000
00000000
00100000
01100000
00000000
,
10000000
00000000
10010000
00000000
00001000
00000000
00000100
00000100
,
00000001
00001001
00000000
00001000
00000000
00001000
00000000
00000001
,
00000000
00000100
00000000
00000010
00000000
00000100
00000000
00001000
,
00000000
00010000
00000000
01000000
00000000
01000000
00000000
00100000
,
00000000
01000000
00000000
10000000
00000000
00100000
00000000
00100000
,
00000000
10000000
00000000
01000000
00000000
01000000
00000000
00010000
,
00000000
00010000
00000000
00001000
00000000
00001000
00000000
00000010
,
00000000
00000001
00000000
00001000
00000000
00000010
00000000
00000110
,
00000000
00001001
00000110
00000010
00001000
00000000
00000001
00000010
,
00000010
00000011
00000000
00001000
00000100
00000010
00000100
00001000
,
00010000
00100000
01000000
01010000
01000000
00000000
00001000
00010000
,
00010000
00100000
01000000
00001000
00001000
00020000
00032000
00003020
,
00000230
00000300
00001001
00001000
00000100
00000000
00000010
00000001
,
00000001
00000100
00001000
00010000
00010000
00000000
00100000
10000000
,
00100000
02000000
03000000
01100000
00100000
00000000
10000000
00010000
,
00010000
00000000
10010000
00000000
00000000
01100000
00000000
00000000
00010000
00000000
00002000
00000000
00000000
00000000
00003000
00000000
,
00000110
00002002
00000000
00000000
00000000
00000000
00000000
00000000
,
00000000
00000000
00000000
00000000
00000000
00000000
00000000
00003003
,
00000000
00000001
00000000
00000100
00001000
00000000
00010000
00100000
,
00000000
01100000
00000000
10000000
00100000
10000000
00010000
10000000
,
00010000
10000000
10010000
00000000
00010000
00000000
00010000
00000000
,
10000000
01000000
00100000
01000000
,
00010000
00001000
00000100
00000100
,
00000010
00000100
00000001
00000010
,
00000010
00000001
00000100
00000100
,
00001000
00001000
00010000
00010000
,
00100000
10000000
00010000
00100000
,
01000000
00000000
00000000
01000000
00000000
00000000
00010000
00000000
,
00011000
00011000
00000100
00000000
00000000
00000010
00000001
00001000
,
00001002
00000000
00000013
00000100
00020000
00000000
00031000
00100000
,
00020000
00000000
10030000
00010000
00000000
00010000
10000000
10000000
,
00100000
00000000
01100000
00000000
02000000
03200000
00320000
00032000
,
00003000
00011000
00001000
01000000
00000000
00100000
10000000
10000000
,
00000000
01000000
00010000
00000000
00001000
00000100
00000010
00000100
,
00000002
00000000
00001003
00000100
00001000
00000000
00000001
00000100
,
00001000
00000000
00000000
00011000
00000000
00000000
00100000
00000000
02000000
00000000
00000000
00000000
03000000
00000000
01100000
00000000
,
20020000
00000000
00000000
00000000
,
00000000
00000000
00000000
00000000
,
30030000
00000000
00000000
00000000
;
