#TITLE:CARNIVOROUS;
#ARTIST:SOUND HOLIC feat. Nana Takahashi;
#BANNER:CARNIVOROUS.png;
#BACKGROUND:CARNIVOROUS-bg.png;
#MUSIC:CARNIVOROUS.ogg;
#OFFSET:-0.048;
#SAMPLESTART:47.871;
#SAMPLELENGTH:15;
#BPMS:0=170;
#BGCHANGES:-0.7=CARNIVOROUS.avi=1=0=0=0=StretchNoLoop====,99999=-nosongbg-=1=0=0=0 // don't automatically add -songbackground-;

//---------------dance-single - NewbStepper-ESP----------------
#NOTES:
     dance-single:
     NewbStepper:
     Hard:
     15:
     0.810979,0.877120,0.607557,0.123410,0.555345,598,534,64,13,0,0,0.810979,0.877120,0.607557,0.123410,0.555345,598,534,64,13,0,0:
0000
0000
0000
0000
,
0000
0000
0000
0000
,
0000
0000
0000
0000
,
0000
0000
0000
0000
,
0000
0000
0000
0000
,
0010
0010
1000
1000
,
0100
0100
0010
0010
,
0001
0100
1000
0001
0010
1000
0100
0010
,
0200
0000
0000
0300
,
2002
0000
0000
3003
,
1000
0000
1000
0000
0010
0000
0000
0000
0101
0000
0000
0110
0000
0000
0101
0000
,
0000
0000
0010
0000
1000
0000
0100
0000
0001
0000
0100
0010
0000
0100
0010
0000
,
0001
0000
0001
0000
0100
0000
0000
0000
1010
0000
0000
0110
0000
0000
1010
0000
,
1000
0000
0100
0000
0100
0000
0100
0000
0010
0001
0010
0001
0010
0000
0000
0000
,
0001
0000
0001
0000
0010
0000
0000
0000
1100
0000
0000
0110
0000
0000
1100
0000
,
0000
0000
0010
0000
0001
0000
0100
0000
1000
0000
0100
0010
0000
0100
0010
0000
,
1000
0000
1000
0000
0100
0000
0000
0000
0011
0000
0000
0110
0000
0000
0011
0000
,
0000
1000
0100
0010
0001
0100
0010
1000
,
0001
0000
0010
0001
0010
0000
0000
0000
0101
0000
0010
0000
0000
0000
1010
0000
,
0000
0001
0100
0010
1000
0100
0010
0001
,
1000
0000
0010
1000
0010
0000
0000
0000
1100
0000
0010
0000
0000
0000
0011
0000
,
0000
0001
0100
1000
0100
0001
0010
0100
,
1100
0010
0001
0101
0000
0110
1000
0100
,
0110
0001
0100
1000
0001
0010
1000
0000
,
0001
0000
0100
0010
0100
0000
0001
0000
1000
0100
1000
0000
0001
0100
0001
0000
,
1000
0100
1000
0100
1000
0100
0010
0000
0001
0000
0100
0000
0101
0000
0000
0000
,
0100
0002
1000
1003
0010
0001
1000
0001
,
0010
2000
0001
3001
0010
1000
0010
0001
,
0101
1000
1001
0100
1100
0000
0001
1001
,
0000
0000
1100
0000
0010
0000
0001
0000
0101
0000
0000
0000
1000
0000
0001
1000
,
0100
2000
0001
3001
0010
1000
0001
1000
,
0010
0002
1000
1003
0010
0001
0010
1000
,
1000
0000
0001
0000
0001
0000
1000
0010
1000
0010
0100
0001
0100
0001
1000
0100
,
0010
0000
0011
0200
0000
0000
0300
0000
,
1001
0100
0001
0010
0110
0000
1000
0101
,
0000
1001
0001
0010
0001
0100
1000
0100
,
0010
0000
0000
0000
0110
0000
0000
0000
0201
0000
0000
0010
0000
0000
0301
0000
,
1000
0000
0100
0010
0100
0000
1000
0000
0000
0000
0001
0100
0001
0000
0010
0000
,
0100
0000
1000
0100
0000
1000
0100
0000
0010
0000
0001
0000
0100
0000
1000
0000
,
0100
0001
0010
1000
0001
0100
1100
0000
,
0020
0000
0031
0100
0201
0000
1300
0100
,
0010
1000
0010
1000
0010
0100
0010
0100
0001
0100
0001
0100
0010
0000
0000
0000
,
1001
0100
1000
0010
0110
0000
0001
1100
,
0000
1001
1000
0010
1000
0100
0001
0100
,
0010
0000
0000
0000
0110
0000
0000
0000
1200
0000
0000
0010
0000
0000
1300
0000
,
0001
0000
0100
0010
0100
0000
0001
0000
0000
0000
1000
0100
1000
0000
0010
0000
,
0100
0000
0001
0100
0000
0001
0100
0000
0010
0000
1000
0000
0100
0000
0001
0000
,
0100
0000
1000
0000
0010
0000
0001
0000
1000
0000
0100
0000
0001
0000
1000
0010
,
2000
0010
0001
3100
,
0010
0001
0010
0001
0010
0100
0010
0100
1000
0100
1000
0100
0010
0000
0000
0000
,
0101
0000
0001
0000
0010
0000
1000
0000
0010
0000
0001
0100
0000
0001
0100
0000
,
0000
0000
0010
0000
0001
0000
0010
0000
0100
0000
0001
0100
0000
0000
0110
0000
,
0000
0000
1000
0000
0100
0000
0010
0000
0001
0000
0000
1000
0000
0000
0001
0000
,
0100
0010
1000
0010
0100
0010
1000
0010
0100
0000
0000
0110
0000
0000
1001
0000
,
0000
0000
0001
0010
0100
0010
0001
0000
1000
0000
0010
1000
0000
1000
0100
0000
,
0000
0000
1000
0010
0100
0010
1000
0000
0100
0000
0010
0001
0000
0001
0100
0000
,
0000
0000
0010
1000
0001
1000
0010
0000
0100
0000
1000
0000
0100
0000
0001
0000
,
1000
0000
0010
1000
0010
0100
0001
1000
0100
0000
0000
0000
1001
0000
0000
0000
,
0001
0000
0001
0000
0010
0000
0000
0000
1100
0000
0000
0110
0000
0000
1100
0000
,
0000
0000
0010
0000
0001
0000
0100
0000
1000
0000
0100
0010
0000
0100
0010
0000
,
1000
0000
1000
0000
0100
0000
0000
0000
0011
0000
0000
0110
0000
0000
0011
0000
,
0001
0000
0100
0000
0100
0000
0100
0000
0010
1000
0010
1000
0010
0000
0000
0000
,
1000
0000
1000
0000
0010
0000
0000
0000
0101
0000
0000
0110
0000
0000
0101
0000
,
0000
0000
0010
0000
1000
0000
0100
0000
0001
0000
0100
0010
0000
0100
0010
0000
,
0001
0000
0001
0000
0100
0000
0000
0000
1010
0000
0000
0110
0000
0000
1010
0000
,
1000
0001
1000
0001
0100
0010
0100
0010
1000
0001
1000
0001
0100
0000
0000
0000
,
0011
0000
0010
0000
0100
0000
0000
0000
1001
0000
0001
0100
0010
0000
1000
0000
,
0100
0000
0001
0000
0100
0000
1000
0000
0001
0000
1000
0100
1000
0000
0000
0000
,
1010
0000
0010
0000
0100
0000
0000
0000
1001
0000
1000
0100
0010
0000
0001
0000
,
1000
0000
0100
0000
0001
0000
0100
0000
1000
0000
0001
0100
0001
0000
0000
0000
,
1000
0010
1000
0001
0010
0001
1000
0010
0100
0001
0000
0000
,
0001
0010
0001
1000
0010
1000
0001
0010
0100
1000
0000
0000
,
0001
0100
0001
1000
0100
1000
0001
0100
0010
1000
0001
1000
,
0100
0010
0001
1000
0010
0100
0001
0010
0100
1000
0001
0100
;

//---------------dance-single - NewbStepper-DSP----------------
#NOTES:
     dance-single:
     NewbStepper:
     Medium:
     12:
     0.566872,0.771866,0.256313,0.170875,0.151889,418,391,27,18,0,0,0.566872,0.771866,0.256313,0.170875,0.151889,418,391,27,18,0,0:
0000
0000
0000
0000
,
0000
0000
0000
0000
,
0000
0000
0000
0000
,
0000
0000
0000
0000
,
0000
0000
0000
0000
,
2000
0000
0000
0000
,
3002
0000
0000
0000
,
0103
0010
0100
0010
1000
0001
1000
0001
,
0020
0000
0030
0000
,
2002
0000
0000
3003
,
0010
0000
0010
0000
1000
0000
0000
0000
0100
0000
0000
0010
0000
0000
0100
0000
,
0000
1000
0010
0100
0001
0010
0100
0000
,
0010
0000
0010
0000
0001
0000
0000
0000
0100
0000
0000
0010
0000
0000
0100
0000
,
1000
0100
0001
0010
0110
0000
1001
0000
,
0010
0000
0010
0000
0001
0000
0000
0000
0100
0000
0000
0010
0000
0000
0100
0000
,
0000
0001
0010
0100
1000
0010
0100
0000
,
0010
0000
0010
0000
1000
0000
0000
0000
0100
0000
0000
0010
0000
0000
0100
0000
,
0000
1000
0100
0001
0100
1000
0010
0000
,
1000
0100
0001
0000
0100
1000
0000
1010
,
0000
0100
0001
0010
1000
0010
0001
0000
,
0100
0010
1000
0000
0001
0010
0000
0011
,
0000
0001
0100
1000
0100
0001
0000
0010
,
0100
0000
1000
0010
0000
0100
0001
0020
,
0000
0030
0000
1000
0010
0001
0000
0100
,
0000
0010
1000
0001
0010
0001
1000
0010
,
0100
0001
1000
0200
0000
0000
0300
0000
,
0010
0000
0001
0000
0200
0000
0300
0010
,
0000
0010
1000
0100
0010
0000
0001
0100
,
0101
0000
1100
0000
0220
0000
0330
1001
,
0000
0001
0100
0000
1000
0100
0001
0000
,
0010
0000
0001
0100
0100
0000
0000
1010
,
0000
1000
0001
0010
0100
0000
1000
0010
,
0000
0100
0000
0001
0000
0010
0100
1000
,
1010
0000
0001
0202
0000
0000
0303
0000
,
0010
1000
0100
1000
0010
0000
0100
0110
,
0000
0001
0010
0001
0100
0000
1000
0100
,
0001
0011
1000
1010
,
0100
0001
0010
0100
1000
0000
0010
0100
,
0001
0020
0100
0000
1000
0000
0031
0000
,
1000
0001
1000
0200
0010
0000
0001
0000
,
1300
0000
0001
0100
0101
0000
1000
0100
,
0010
0001
0100
0010
1000
0000
1001
0000
,
0010
0001
0100
0001
0010
0000
0100
0110
,
0000
1000
0010
1000
0100
0000
0001
0100
,
1000
1010
0001
0011
,
0100
1000
0010
0100
0001
0000
0010
0100
,
1000
0020
0100
0000
0001
0000
1030
0000
,
0001
1000
0001
0200
0010
0000
1000
0000
,
0302
0000
0000
0000
0003
1000
0010
0200
,
0000
0000
0300
0000
0010
0010
0000
1000
,
0000
0000
0001
0000
0100
0000
1000
0000
0100
0000
0000
0010
0000
0000
1010
0000
,
0000
1000
0100
0010
0001
0100
0000
0101
,
0000
0000
0010
0000
1000
0000
0001
0000
0010
0000
0000
0001
0000
0000
0100
0000
,
0010
0000
1000
0000
0100
0000
0001
0000
0100
0000
0000
1000
0000
0000
0001
0000
,
0000
0000
1000
0000
0100
0000
0001
0000
0100
0000
0000
0010
0000
0000
0011
0000
,
0000
0001
0100
0010
1000
0100
0000
1100
,
0000
0010
0001
1000
0010
1000
0001
0100
,
0000
0010
0010
1000
0100
0000
1001
0000
,
0010
0000
0010
0000
0001
0000
0000
0000
0100
0000
0000
0010
0000
0000
0100
0000
,
0000
0001
0010
0100
1000
0010
0100
0000
,
0010
0000
0010
0000
1000
0000
0000
0000
0100
0000
0000
0010
0000
0000
0100
0000
,
0001
0100
1000
0010
0110
0000
1001
0000
,
0010
0000
0010
0000
1000
0000
0000
0000
0100
0000
0000
0010
0000
0000
0100
0000
,
0000
1000
0010
0100
0001
0010
0100
0000
,
0010
0000
0010
0000
0001
0000
0000
0000
0100
0000
0000
0010
0000
0000
0100
0000
,
0000
0001
0100
1000
0100
0001
0010
0000
,
0001
0100
1000
0000
1000
0100
0001
0000
,
0010
0010
0001
0100
0010
1000
0001
0000
,
1000
0100
0001
0000
0001
0100
1000
0000
,
0010
0010
1000
0100
0010
0001
1000
0000
,
0010
0000
0000
1000
0100
1000
0001
0000
0010
0001
0000
0000
,
0010
0000
0000
0001
0100
0001
1000
0000
0010
1000
0000
0000
,
0001
0100
0001
0100
0000
0001
1000
0001
1000
0001
0000
1000
,
0010
1000
0010
1000
0010
0100
0001
0100
0001
0100
0001
0100
;

//---------------dance-single - NewbStepper-BSP----------------
#NOTES:
     dance-single:
     NewbStepper:
     Easy:
     7:
     0.339038,0.455074,0.341751,0.056958,0,250,214,36,6,0,0,0.339038,0.455074,0.341751,0.056958,0,250,214,36,6,0,0:
0000
0000
0000
0000
,
0000
0000
0000
0000
,
0000
0000
0000
0000
,
0000
0000
0000
0000
,
0000
0000
0000
0000
,
0001
0000
0000
0000
,
1000
0000
0000
0000
,
0002
0000
0000
0003
,
2000
0000
0000
3000
,
0000
0000
0000
0000
,
0010
0010
1000
0000
,
0100
0010
0110
0000
,
0010
0010
0001
0000
,
0100
0010
1001
0000
,
0010
1000
0010
0000
,
0100
0001
0100
0000
,
0001
0001
1000
1000
,
0020
0000
0030
0000
,
1000
0100
0001
0000
,
0001
0000
0000
0000
,
1000
0010
0001
0000
,
0001
0000
0000
0000
,
0001
0100
1000
0000
,
1000
0000
0000
0000
,
0001
0010
1000
0000
,
1000
0000
1001
0000
,
0010
0010
0001
0000
,
0100
0010
0100
1000
,
0100
0001
0101
0000
,
0010
1000
1010
0000
,
0010
0010
1000
0000
,
0100
0010
0100
0001
,
0100
1000
1100
0000
,
0010
0100
0110
0000
,
0001
0100
1000
0010
,
1000
0100
0001
0010
,
0110
1000
0001
0100
,
0101
1100
0101
0000
,
1000
0100
0100
0001
,
0100
1000
0010
0010
,
1200
0010
1000
0001
,
1300
0001
0100
0110
,
1000
0100
0001
0010
,
0001
0100
1000
0010
,
0110
0001
1000
0100
,
1100
0101
1100
0000
,
0001
0100
0100
1000
,
0100
0001
0010
0010
,
0201
0010
0001
1000
,
0301
1000
0100
0000
,
0110
0001
0101
0010
,
0110
1000
1100
0010
,
0001
0100
1000
0100
,
0001
0011
1010
0000
,
0110
1000
1100
0010
,
0110
0001
0101
0010
,
1000
0100
0001
0100
,
1000
1010
0011
0000
,
0010
0010
0001
0000
,
0100
0010
0110
0000
,
0010
0010
1000
0000
,
0100
0010
1001
0000
,
0010
0001
0010
0000
,
0100
1000
0100
0000
,
1000
1000
0001
0001
,
0020
0000
0030
0000
,
0001
0001
1000
0010
,
0001
0100
0001
0010
,
1000
1000
0001
0010
,
1000
0100
1000
0010
,
0001
0100
0001
0101
,
1000
0100
1000
1100
,
0110
0000
1001
0000
,
0010
0001
0100
0010
;

//---------------dance-single - NewbStepper-bSP----------------
#NOTES:
     dance-single:
     NewbStepper:
     Beginner:
     4:
     0.221053,0.350057,0.132903,0.104424,0,163,149,14,11,0,0,0.221053,0.350057,0.132903,0.104424,0,163,149,14,11,0,0:
0000
0000
0000
0000
,
0000
0000
0000
0000
,
0000
0000
0000
0000
,
0000
0000
0000
0000
,
0000
0000
0000
0000
,
0001
0000
0000
0000
,
0001
0000
0000
0000
,
2000
0000
0000
0000
,
3000
0000
0000
0000
,
0000
0000
0000
0000
,
0010
0000
1000
0000
,
0010
0010
0010
0000
,
0010
0000
0001
0000
,
0010
0010
0010
0000
,
0100
0000
0001
0000
,
0100
0100
0100
0000
,
0100
0000
1000
0000
,
0200
0000
0300
0000
,
0001
0000
1000
0000
,
0001
0000
0000
0000
,
1000
0000
0001
0000
,
1000
0000
0000
0000
,
0010
0000
0100
0000
,
0010
0000
0000
0000
,
0100
0100
0100
0100
,
0200
0000
0300
0000
,
0001
0001
0001
0000
,
1000
0000
0100
0000
,
1000
1000
1000
0000
,
0001
0000
0100
0000
,
0010
0010
0010
0000
,
1000
0000
0001
0000
,
0100
0100
0100
0000
,
1001
0000
0000
0000
,
0001
0100
0001
0000
,
1000
0100
1000
0000
,
0001
0000
1000
0000
,
0001
0000
1001
0000
,
0010
1000
1000
0000
,
0100
0001
0001
0000
,
0010
0000
1001
0000
,
0220
0000
0330
0000
,
1000
0100
1000
0000
,
0001
0100
0001
0000
,
1000
0000
0001
0000
,
1000
0000
1001
0000
,
0010
0001
0001
0000
,
0100
1000
1000
0000
,
0010
0000
1001
0000
,
0220
0000
0330
0000
,
1000
1000
1000
0000
,
0100
0100
0100
0000
,
0001
0001
0001
0000
,
0010
0010
0010
0000
,
0001
0001
0001
0000
,
0100
0100
0100
0000
,
1000
1000
1000
0000
,
0020
0000
0030
0000
,
0010
0000
0001
0000
,
0010
0010
0010
0000
,
0010
0000
1000
0000
,
0010
0010
0010
0000
,
0100
0000
1000
0000
,
0100
0100
0100
0000
,
0100
0000
0001
0000
,
0200
0000
0300
0000
,
1000
0000
0010
0000
,
1000
1000
0001
0000
,
0001
0000
0010
0000
,
0001
0001
1000
0000
,
1001
0000
1001
0000
,
0110
0000
0110
0000
,
1001
0000
1001
0000
,
0220
0000
0000
0330
;

//---------------dance-double - NewbStepper-EDP----------------
#NOTES:
     dance-double:
     NewbStepper:
     Hard:
     15:
     0.773007,0.877120,0.417695,0.104424,0.488893,570,526,44,11,0,0,0.773007,0.877120,0.417695,0.104424,0.488893,570,526,44,11,0,0:
// measure 0
00000000
00000000
00000000
00000000
,  // measure 1
00000000
00000000
00000000
00000000
,  // measure 2
00000000
00000000
00000000
00000000
,  // measure 3
00000000
00000000
00000000
00000000
,  // measure 4
00000000
00000000
00000000
00000000
,  // measure 5
00000001
00000001
00000100
00000100
,  // measure 6
00001000
00001000
00010000
00010000
,  // measure 7
00100000
10000000
01000000
00010000
00001000
00000010
00000001
00000100
,  // measure 8
00002000
00000000
00003000
00000000
,  // measure 9
00022000
00000000
00000000
00033000
,  // measure 10
00100000
00000000
00100000
00000000
00010000
00000000
00000000
00000000
01000000
00000000
00000000
00010000
00000000
00000000
01010000
00000000
,  // measure 11
00000000
00000000
00100000
00000000
10000000
00000000
01000000
00000000
00010000
00000000
00001000
00100000
00000000
00001000
00010000
00000000
,  // measure 12
00000100
00000000
00000100
00000000
00001000
00000000
00000000
00000000
00000010
00000000
00000000
00001000
00000000
00000000
00001010
00000000
,  // measure 13
00001000
00000000
00000100
00000000
00000010
00000000
00001000
00000000
00010000
00001000
00010000
00001000
00010000
00000000
00000000
00000000
,  // measure 14
00000010
00000000
00000010
00000000
00001000
00000000
00000000
00000000
00000100
00000000
00000000
00001000
00000000
00000000
00001100
00000000
,  // measure 15
00000000
00000000
00000010
00000000
00000001
00000000
00000100
00000000
00001000
00000000
00010000
00000010
00000000
00010000
00001000
00000000
,  // measure 16
01000000
00000000
01000000
00000000
00010000
00000000
00000000
00000000
00100000
00000000
00000000
00010000
00000000
00000000
00110000
00000000
,  // measure 17
00000000
10000000
01000000
00010000
00001000
00000100
00000001
00000010
,  // measure 18
00001000
00000010
00000011
00000000
00001100
00000010
00000000
00000101
,  // measure 19
00000000
00000001
00000100
00001000
00010000
01000000
10000000
00100000
,  // measure 20
00010000
00100000
10100000
00000000
01010000
00100000
00000000
11000000
,  // measure 21
00000000
10000000
01000000
00010000
00001000
00100000
00010000
00001000
,  // measure 22
00000100
00001000
00000001
00000101
00000000
00001100
00010000
00001000
,  // measure 23
00011000
00010000
01000000
10000000
00010000
00100000
10000000
00100000
,  // measure 24
00010000
01000000
00010000
00000000
00100000
00001000
00100000
00000000
00001000
00010000
00001000
00000000
00010000
00000010
00010000
00000000
,  // measure 25
00000010
00001000
00000010
00001000
00000010
00001000
00000001
00000000
00000100
00000000
00001000
00000000
00011000
00000000
00000000
00000000
,  // measure 26
00100000
00002000
00010000
00013000
00100000
10000000
00010000
10000000
,  // measure 27
00100000
00020000
00001000
00031000
00000010
00000001
00000010
00001000
,  // measure 28
00011000
00000100
00010100
00001000
00101000
00000000
00100000
01100000
,  // measure 29
00000000
00000000
10000000
00000000
01000000
00000000
00010000
00000000
00011000
00000000
00000000
00000000
00000010
00000000
00000001
00001000
,  // measure 30
00000010
00020000
00001000
00031000
00000010
00000001
00001000
00000001
,  // measure 31
00000010
00002000
00010000
00013000
00100000
10000000
00100000
00010000
,  // measure 32
00001000
00000000
00000010
00000000
00001000
00000000
00010000
00001000
01000000
00001000
00010000
00000100
00010000
00000100
00001000
00000100
,  // measure 33
00000010
00000000
00000011
00000200
00000000
00000000
00000300
00000000
,  // measure 34
00001001
00000100
00000001
00000010
00000110
00000000
00001000
00011000
,  // measure 35
00000000
00101000
00100000
00010000
00001000
00010000
00100000
01000000
,  // measure 36
00010000
00000000
00011000
00000000
00001000
00010000
01000000
10000000
,  // measure 37
00100000
00000000
10000000
00010000
10000000
00000000
00100000
00000000
00000000
00000000
00010000
00001000
00010000
00000000
00000100
00000000
,  // measure 38
00001000
00000000
00000001
00000100
00000000
00000001
00000100
00000000
00001000
00000000
00010000
00000000
01000000
00000000
00001000
00000000
,  // measure 39
00010000
00100000
00001000
00010000
01000000
10000000
00100000
00010000
,  // measure 40
00012000
00000000
00003010
00000001
00000021
00000000
00001030
00010000
,  // measure 41
00001000
00010000
00001000
00010000
00001000
00100000
00001000
00100000
00010000
00100000
00010000
00100000
01000000
00000000
00000000
00000000
,  // measure 42
10010000
01000000
10000000
00100000
01100000
00000000
00010000
00011000
,  // measure 43
00000000
00010010
00000010
00001000
00010000
00001000
00000010
00000100
,  // measure 44
00001000
00000000
00011000
00000000
00010000
00001000
00000100
00000001
,  // measure 45
00000010
00000000
00000001
00001000
00000001
00000000
00000010
00000000
00000000
00000000
00001000
00010000
00001000
00000000
01000000
00000000
,  // measure 46
00010000
00000000
10000000
01000000
00000000
10000000
01000000
00000000
00010000
00000000
00001000
00000000
00000100
00000000
00010000
00000000
,  // measure 47
00001000
00000010
00010000
00001000
00000100
00000001
00000010
00000100
,  // measure 48
00002000
00000100
00000001
00003010
,  // measure 49
00010000
00001000
00010000
00001000
00010000
00000010
00010000
00000010
00001000
00000010
00001000
00000010
00000100
00000000
00000000
00000000
,  // measure 50
00000101
00000000
00000001
00000000
00000010
00000000
00001000
00000000
00000010
00000000
00000000
00000001
00000000
00000000
00000100
00000000
,  // measure 51
00000000
00001000
00010000
00001000
00100000
00010000
10000000
10010000
,  // measure 52
00000000
00000000
00010000
00000000
01000000
00000000
00100000
00000000
10000000
00000000
00000000
01000000
00000000
00000000
00010000
00000000
,  // measure 53
00001000
00100000
00010000
00100000
00001000
00100000
00010000
00100000
00001000
00000000
00000000
00011000
00000000
00000000
00010010
00000000
,  // measure 54
00000000
00000000
00000100
00000001
00000100
00000001
00000100
00000000
00000010
00000000
00010000
00001000
00000000
00010000
00100000
00000000
,  // measure 55
10000000
00000000
01000000
10000000
01000000
10000000
01000000
00000000
00100000
00000000
00001000
00010000
00000000
00001000
00000010
00000000
,  // measure 56
00000001
00000100
00001000
00010000
01000000
10000000
00010000
01000000
,  // measure 57
00001000
00000000
00100000
00010000
00100000
00001000
00010000
00000010
00001000
00000000
00000000
00000000
00001001
00000000
00000000
00000000
,  // measure 58
00000010
00000000
00000010
00000000
00001000
00000000
00000000
00000000
00000100
00000000
00000000
00001000
00000000
00000000
00001100
00000000
,  // measure 59
00000000
00000000
00000010
00000000
00000001
00000000
00000100
00000000
00001000
00000000
00010000
00000010
00000000
00010000
00001000
00000000
,  // measure 60
01000000
00000000
01000000
00000000
00010000
00000000
00000000
00000000
00100000
00000000
00000000
00010000
00000000
00000000
00110000
00000000
,  // measure 61
00010000
00000000
01000000
00000000
00100000
00000000
00010000
00000000
00001000
00010000
00001000
00010000
00001000
00000000
00000000
00000000
,  // measure 62
00100000
00000000
00100000
00000000
00010000
00000000
00000000
00000000
01000000
00000000
00000000
00010000
00000000
00000000
01010000
00000000
,  // measure 63
00000000
00000000
00100000
00000000
10000000
00000000
01000000
00000000
00010000
00000000
00001000
00100000
00000000
00001000
00010000
00000000
,  // measure 64
00000100
00000000
00000100
00000000
00001000
00000000
00000000
00000000
00000010
00000000
00000000
00001000
00000000
00000000
00001010
00000000
,  // measure 65
00001000
00000001
00000100
00001000
00010000
01000000
10000000
00000000
,  // measure 66
10100000
00000000
10000000
00000000
01000000
00000000
00000000
00000000
00010000
00000000
00001000
00010000
00001000
00000000
00000000
00000000
,  // measure 67
00000010
00000000
00000001
00000000
00000100
00000000
00001000
00000000
00000100
00000000
00000001
00001000
00000001
00000000
00000000
00000000
,  // measure 68
00000011
00000000
00000001
00000000
00000100
00000000
00000000
00000000
00001000
00000000
00010000
00001000
00010000
00000000
00000000
00000000
,  // measure 69
00100000
00000000
10000000
00000000
01000000
00000000
00010000
00000000
01000000
00000000
10000000
00010000
10000000
00000000
00000000
00000000
,  // measure 70
00100000
10000000
00100000
01000000
00010000
01000000
00001000
00010000
00001000
00000010
00000000
00000000
,  // measure 71
00000010
00000001
00000010
00000100
00001000
00000100
00010000
00001000
00010000
00100000
00000000
00000000
,  // measure 72
10000000
00100000
10000000
00010000
00100000
00010000
01000000
00001000
00010000
00000100
00010000
00001000
,  // measure 73
00000010
00000001
00001000
00000010
00010000
00001000
00010000
00100000
10000000
00010000
01000000
00100000
;

//---------------dance-double - NewbStepper-DDP----------------
#NOTES:
     dance-double:
     NewbStepper:
     Medium:
     12:
     0.558735,0.701696,0.218341,0.170875,0.142396,412,389,23,18,0,0,0.558735,0.701696,0.218341,0.170875,0.142396,412,389,23,18,0,0:
00000000
00000000
00000000
00000000
,
00000000
00000000
00000000
00000000
,
00000000
00000000
00000000
00000000
,
00000000
00000000
00000000
00000000
,
00000000
00000000
00000000
00000000
,
00000002
00000000
00000000
00000000
,
00002003
00000000
00000000
00000000
,
00003100
00000010
00000100
00000010
00000001
00001000
00000001
00001000
,
00000020
00000000
00000030
00000000
,
00022000
00000000
00000000
00033000
,
00100000
00000000
00100000
00000000
10000000
00000000
00000000
00000000
01000000
00000000
00000000
00100000
00000000
00000000
01000000
00000000
,
00000000
10000000
01000000
00010000
00001000
00000010
00000001
00000000
,
00000100
00000000
00000100
00000000
00000001
00000000
00000000
00000000
00000010
00000000
00000000
00000100
00000000
00000000
00000010
00000000
,
00001000
00010000
00001000
00000100
00000001
00001000
00000001
00000000
,
00000010
00000000
00000010
00000000
00000001
00000000
00000000
00000000
00000100
00000000
00000000
00000010
00000000
00000000
00000100
00000000
,
00000000
00000001
00000100
00001000
00010000
00100000
10000000
00000000
,
01000000
00000000
01000000
00000000
10000000
00000000
00000000
00000000
00100000
00000000
00000000
01000000
00000000
00000000
00100000
00000000
,
00000000
00010000
00001000
00010000
00100000
00010000
00001000
00000000
,
00010000
01000000
10000000
00000000
01000000
00100000
00000000
01100000
,
00000000
00001000
00010000
00001000
00000010
00001000
00010000
00000000
,
00001000
00000100
00000001
00000000
00000100
00000010
00000000
00000110
,
00000000
00000001
00000100
00001000
00010000
00001000
00000000
00100000
,
01000000
00000000
00010000
00001000
00000000
00100000
00010000
20000000
,
00000000
30000000
00000000
00010000
00100000
10000000
00000000
00100000
,
00000000
00010000
01000000
00001000
00010000
00000100
00001000
00000001
,
00000100
00000010
00001000
00000200
00000000
00000000
00000300
00000000
,
00000010
00000000
00001000
00000000
00020000
00000000
00030000
00100000
,
00000000
00100000
00010000
00001000
00000100
00000000
00000010
00001000
,
00001100
00000000
00000101
00000000
00000220
00000000
00000330
00001001
,
00000000
00000001
00000100
00000000
00001000
00010000
01000000
00000000
,
00100000
00000000
00010000
10000000
10000000
00000000
00000000
10100000
,
00000000
10000000
01000000
00010000
00001000
00000000
00000010
00000100
,
00000000
00010000
00000000
00001000
00000000
00000100
00000001
00001000
,
00000100
00000000
00010000
00022000
00000000
00000000
00033000
00000000
,
00100000
00001000
00010000
00001000
00100000
00000000
01000000
01100000
,
00000000
10000000
01000000
00010000
00001000
00000000
00000010
00000001
,
00001000
00001010
00000001
00000011
,
00000100
00001000
00000100
00010000
00001000
00000000
00000010
00000001
,
00001000
00000020
00000100
00000000
00000001
00000000
00001030
00000000
,
00000001
00000100
00001000
00010000
02000000
00000000
10000000
00000000
,
03010000
00000000
00001000
00010000
00100000
00000000
00010000
00001000
,
00000010
00000110
00001100
00010010
,
00000010
00010000
00001000
00010000
00000010
00000000
00000100
00000110
,
00000000
00000001
00000100
00001000
00010000
00000000
00100000
10000000
,
00010000
00110000
10000000
10100000
,
01000000
00010000
01000000
00001000
00010000
00000000
00100000
10000000
,
00010000
00200000
01000000
00000000
10000000
00000000
00310000
00000000
,
10000000
01000000
00010000
00001000
00000200
00000000
00000001
00000000
,
00002300
00000000
00000000
00000000
00003000
00010000
01000000
00200000
,
00000000
00000000
00300000
00000000
00001000
00001000
00000000
00010000
,
00000000
00000000
00001000
00000000
00000100
00000000
00000001
00000000
00000100
00000000
00000000
00001000
00000000
00000000
00011000
00000000
,
00000000
00010000
00100000
10000000
00100000
01000000
00000000
01100000
,
00000000
00000000
10000000
00000000
01000000
00000000
00010000
00000000
00001000
00000000
00000000
00000010
00000000
00000000
00001000
00000000
,
00010000
00000000
00001000
00000000
00000100
00000000
00000001
00000000
00000010
00000000
00000000
00000010
00000000
00000000
00001000
00000000
,
00000000
00000000
00010000
00000000
01000000
00000000
10000000
00000000
01000000
00000000
00000000
00010000
00000000
00000000
00011000
00000000
,
00000000
00001000
00000010
00000001
00000010
00000100
00000000
00000110
,
00000000
00000001
00000100
00001000
00010000
01000000
10000000
00100000
,
00000000
10000000
01000000
00010000
00001000
00000000
00000110
00000000
,
00000010
00000000
00000010
00000000
00000001
00000000
00000000
00000000
00000100
00000000
00000000
00000010
00000000
00000000
00000100
00000000
,
00000000
00000001
00000100
00001000
00010000
00100000
10000000
00000000
,
01000000
00000000
01000000
00000000
10000000
00000000
00000000
00000000
00100000
00000000
00000000
01000000
00000000
00000000
00100000
00000000
,
00010000
00001000
00010000
01000000
10000000
00010000
10000000
00000000
,
00100000
00000000
00100000
00000000
10000000
00000000
00000000
00000000
01000000
00000000
00000000
00100000
00000000
00000000
01000000
00000000
,
00000000
10000000
01000000
00010000
00001000
00000010
00000001
00000000
,
00000100
00000000
00000100
00000000
00000001
00000000
00000000
00000000
00000010
00000000
00000000
00000100
00000000
00000000
00000010
00000000
,
00000000
00000001
00000100
00000010
00001000
00010000
01000000
00000000
,
00100000
10000000
01000000
00000000
00100000
00010000
01000000
00000000
,
00100000
10000000
01000000
00010000
00001000
00000100
00000001
00000000
,
00000010
00000001
00000100
00000000
00000010
00001000
00000100
00000000
,
00000010
00000001
00000100
00001000
00010000
01000000
10000000
00000000
,
00100000
00000000
00000000
10000000
01000000
10000000
00010000
00000000
00100000
00010000
00000000
00000000
,
00100000
00000000
00000000
00001000
00010000
00001000
01000000
00000000
00001000
00010000
00000000
00000000
,
00000010
00000000
00000010
00001000
00000000
00001000
00000001
00000000
00000001
00001000
00000000
00001000
,
00000010
00001000
00000010
00010000
00001000
00010000
00001000
00100000
00010000
00100000
00010000
00100000
;

//---------------dance-double - NewbStepper-BDP----------------
#NOTES:
     dance-double:
     NewbStepper:
     Easy:
     7:
     0.328189,0.455074,0.246820,0.037972,0,242,216,26,4,0,0,0.328189,0.455074,0.246820,0.037972,0,242,216,26,4,0,0:
00000000
00000000
00000000
00000000
,
00000000
00000000
00000000
00000000
,
00000000
00000000
00000000
00000000
,
00000000
00000000
00000000
00000000
,
00000000
00000000
00000000
00000000
,
00010000
00000000
00000000
00000000
,
00001000
00000000
00000000
00000000
,
00020000
00000000
00000000
00030000
,
00002000
00000000
00000000
00003000
,
00000000
00000000
00000000
00000000
,
00100000
00100000
00010000
00000000
,
00000010
00000010
00001000
00000000
,
01000000
01000000
00010000
00000000
,
00000100
00000100
00001000
00000000
,
00010000
01000000
10000000
00000000
,
00100000
00010000
00001000
00000000
,
00000010
00000010
00000100
00000100
,
00000020
00000000
00000000
00000030
,
00001000
00000010
00000001
00000100
,
00001000
00000000
00000000
00000000
,
00010000
00100000
10000000
01000000
,
00010000
00000000
00000000
00000000
,
00001000
00000100
00000001
00000010
,
00001000
00000000
00000000
00000000
,
00010000
01000000
10000000
00100000
,
00010000
00001000
00000010
00000000
,
00000001
00000001
00000010
00000000
,
00001000
00010000
00001000
00000010
,
00001000
00010000
00101000
00000000
,
00010000
00001000
00010010
00000000
,
10000000
10000000
00100000
00000000
,
00010000
00001000
00010000
00100000
,
00010000
00001000
00000010
00000001
,
00001001
00000000
00000000
00000000
,
00000001
00000100
00001000
00010000
,
01000000
10000000
00100000
01000000
,
01100000
00010000
00001000
00010000
,
00010010
00101000
00011000
00000000
,
00001000
00000100
00000001
00000010
,
00000010
00000001
00000100
00001000
,
00011000
00000000
01010000
00000000
,
10000000
01000000
00100000
00010000
,
10000000
01000000
00010000
00001000
,
00000100
00000001
00000010
00000100
,
00000110
00001000
00010000
00001000
,
00101000
00010010
00011000
00000000
,
00010000
01000000
10000000
00100000
,
00100000
10000000
01000000
00010000
,
00011000
00000000
00001100
00000000
,
00000001
00000100
00000010
00001000
,
00000001
00000100
00001000
00010000
,
00001000
00000010
00001000
00010000
,
00100000
00010000
00001000
00010000
,
00011000
00101000
00110000
10010000
,
10000000
01000000
00010000
00001000
,
00010000
00100000
00010000
00001000
,
00000010
00001000
00010000
00001000
,
00011000
00011000
00011000
00000000
,
00000010
00000010
00001000
00000000
,
00100000
00100000
00010000
00000000
,
00000100
00000100
00001000
00000000
,
01000000
01000000
00010000
00000000
,
00001000
00000100
00000001
00000000
,
00000010
00001000
00010000
00000000
,
00100000
00100000
01000000
01000000
,
00200000
00000000
00300000
00000000
,
00010000
00010000
00001000
00000010
,
00000001
00000100
00000001
00000010
,
00001000
00001000
00010000
00100000
,
10000000
01000000
10000000
00100000
,
00010000
00001000
00000010
00001010
,
00001000
00010000
00100000
00110000
,
00011000
00000000
00000110
00000000
,
00000010
00000001
00000100
00000010
;
