#TITLE:C'mon baby;
#ARTIST:Polyphonix;
#BANNER:C'mon baby.png;
#BACKGROUND:C'mon baby-bg.png;
#MUSIC:C'mon baby.ogg;
#OFFSET:1.503;
#SAMPLESTART:44.651;
#SAMPLELENGTH:15;
#BPMS:0=130;

//---------------dance-single - Marten-ESP----------------
#NOTES:
     dance-single:
     Marten:
     Hard:
     13:
     0.569930,0.579405,0.174798,0.113105,0.380443,388,371,17,11,0,0,0.569930,0.579405,0.174798,0.113105,0.380443,388,371,17,11,0,0:
// measure 0
0000
0000
0000
0000
,  // measure 1
0000
0000
0000
0000
,  // measure 2
0000
0000
0000
0000
,  // measure 3
0000
0000
0000
0000
,  // measure 4
0000
0000
0000
0000
,  // measure 5
1001
0000
0000
0000
1010
0000
0000
0000
1000
0000
0000
0001
0000
0000
0000
0000
,  // measure 6
0010
0000
0001
0000
0010
0000
0000
0000
0100
0000
0000
1000
0000
0000
0000
0000
,  // measure 7
1010
0000
0000
0000
1001
0000
0000
0000
0101
0000
0000
1100
0000
0000
0000
0000
,  // measure 8
1000
0000
0100
0000
0010
0000
0000
0000
0011
0000
0000
1001
0000
0000
0000
0000
,  // measure 9
0002
0000
0000
0000
0103
0000
0000
0100
0000
0001
1000
0000
0100
0000
0100
0000
,  // measure 10
1000
0100
0010
0001
0100
0001
1000
0000
,  // measure 11
0010
0000
0000
0000
1000
0010
0000
0000
0100
0001
0100
0000
0001
0000
0001
0000
,  // measure 12
0010
0010
0001
1000
0100
1000
0001
0000
,  // measure 13
1000
1000
1000
1000
0001
0001
0001
0001
,  // measure 14
0010
0010
0010
0010
0100
0100
0100
0100
,  // measure 15
1000
0000
0100
0000
0010
0000
0001
0000
1000
0001
1000
0001
1000
0001
1000
0001
,  // measure 16
1000
0000
0000
0000
0000
0000
0000
0000
0001
1000
0000
0001
1000
0000
0010
0000
,  // measure 17
0110
0000
0000
0000
1000
0000
0001
0100
0000
0001
0010
0000
0100
0000
0100
0000
,  // measure 18
1000
0000
0100
0000
1000
0010
0000
0010
0100
0010
0100
0000
0001
0000
0000
0000
,  // measure 19
1001
0000
0000
0000
0100
1000
0000
0000
0001
0010
0001
0000
0100
0000
0100
0000
,  // measure 20
0001
0000
0001
0000
1000
0000
0010
1000
0010
1000
0010
0000
0100
0000
0000
0000
,  // measure 21
0101
0000
0000
0000
0001
0000
0010
0100
0000
0010
0100
0000
1000
0000
1000
0000
,  // measure 22
0001
0000
0001
0000
0100
0010
0000
0010
1000
0010
1000
0000
0001
0000
0000
0000
,  // measure 23
0011
0000
0010
0000
0100
1000
0000
0000
0001
1000
0001
0000
0100
0000
0100
0000
,  // measure 24
0001
0000
0001
0000
0010
0000
0001
1000
0001
1000
0001
0000
0100
0000
0000
0000
,  // measure 25
1010
0000
0010
0000
1000
0000
0100
1000
0000
0100
1000
0000
0010
0000
0001
0000
,  // measure 26
0010
0000
0100
0000
1000
0100
0000
0100
0010
0100
0010
0000
1000
0000
0000
0000
,  // measure 27
1100
0000
0100
0010
0001
1000
0000
0000
0010
1000
0010
0000
0100
0000
0100
0000
,  // measure 28
0001
0000
0010
0000
1000
0000
0010
0001
0010
0001
0010
0000
0100
0000
0000
0000
,  // measure 29
0011
0000
0010
0000
0001
0000
0100
0001
0000
0100
0001
0000
0010
0000
1000
0000
,  // measure 30
0010
0000
0100
0000
0001
0100
0000
0100
0010
0100
0010
0000
0001
0000
0000
0000
,  // measure 31
0101
0000
0100
0010
1000
0001
0000
0000
0010
0001
0010
0000
0100
0000
0100
0000
,  // measure 32
1000
0000
0010
0000
0001
0000
0010
1000
0010
1000
0010
0000
0100
0000
0000
0000
,  // measure 33
0001
0100
0001
0100
1000
0100
1000
0100
,  // measure 34
0001
0100
0001
0100
1000
0100
1000
0100
,  // measure 35
0001
0010
0001
0010
1000
0010
1000
0010
,  // measure 36
0001
0010
0001
0010
1000
0010
1000
0010
,  // measure 37
0001
0010
0100
0000
1000
0000
0001
0000
1000
0010
0100
0000
0010
0000
1000
0000
,  // measure 38
0001
1000
0100
0000
1000
0000
0001
0000
1000
0001
0100
0000
0010
0000
1000
0000
,  // measure 39
0001
0000
0010
0000
1000
0000
0010
0000
0001
1000
0001
1000
0001
1000
0001
1000
,  // measure 40
0001
0000
0000
0000
0000
0000
0000
0000
0100
0010
0100
0000
0010
0000
0010
1000
,  // measure 41
0002
0000
0000
0000
1003
0000
0100
0000
0001
0000
0100
0000
0010
0001
0010
0000
,  // measure 42
0100
0000
1000
0000
0010
0000
0100
0000
0010
0000
1000
0000
0001
0100
0001
0000
,  // measure 43
2000
3200
2300
3000
0001
0000
0100
0000
1000
0000
0100
0000
0010
0000
1000
0000
,  // measure 44
0001
0000
0010
0000
0100
0000
0001
0000
0100
0010
0001
0000
1000
0000
0010
0100
,  // measure 45
0002
0003
0002
0003
1001
0000
1000
0100
0010
0000
0001
0000
0100
0000
0001
0000
,  // measure 46
0010
0000
1000
0000
0010
0000
0001
0100
0010
0000
0001
0000
0010
0000
0100
0000
,  // measure 47
0002
0023
0230
2300
3001
0000
0100
0000
1000
0000
0010
0000
1000
0000
0100
0000
,  // measure 48
0001
0000
0010
0000
0100
0000
1000
0000
0001
0100
0001
0000
1000
0010
1000
0010
,  // measure 49
0100
0000
0000
0000
;

//---------------dance-single - Marten-DSP----------------
#NOTES:
     dance-single:
     Marten:
     Medium:
     10:
     0.387788,0.428256,0.154234,0.215927,0.020564,264,249,15,21,0,0,0.387788,0.428256,0.154234,0.215927,0.020564,264,249,15,21,0,0:
0000
0000
0000
0000
,
0000
0000
0000
0000
,
0000
0000
0000
0000
,
0000
0000
0000
0000
,
0000
0000
0000
0000
,
1000
0000
0000
0000
0001
0000
0000
0000
0100
0000
0000
0100
0000
0000
0000
0000
,
0010
0000
0100
0000
0010
0000
0000
0000
1000
0000
0000
0001
0000
0000
0000
0000
,
0010
0000
0000
0000
0001
0000
0000
0000
1000
0000
0000
0100
0000
0000
0000
0000
,
1000
0000
0001
0000
1000
0000
0000
0000
0010
0000
0000
0110
0000
0000
0000
0000
,
2000
0000
3001
0000
0100
0001
1000
1000
,
0100
1000
0100
0100
0010
0001
1000
0000
,
0002
0000
0103
0000
0000
0001
0010
0010
,
0001
1000
0001
0000
0100
0010
1000
0000
,
0001
0010
0001
0000
1000
0010
1000
0000
,
0001
0100
0001
0000
1000
0100
1000
0000
,
0001
0010
0100
1000
0001
0010
0100
1000
,
0002
0000
0000
0000
1003
0001
1001
0000
,
1010
0000
0020
0000
1030
0100
1000
0000
,
0001
0100
0001
0010
0100
0100
0100
0000
,
1100
0000
2000
0000
3010
1000
0001
0000
,
0100
0100
0001
0001
1000
0100
0010
0000
,
0011
0000
0020
0000
0031
0100
0001
0000
,
1000
0100
1000
0010
0100
0100
0100
0000
,
0101
0000
0002
0000
0013
0001
1000
0000
,
0100
0100
1000
1000
0001
0100
0010
0000
,
1010
0000
2000
0000
3001
0010
0100
0100
,
1000
0001
1000
0000
0010
1000
0001
0000
,
0101
0000
0002
0000
0013
0001
0100
0000
,
0001
1000
0100
1000
0001
0010
0010
0000
,
0011
0000
0002
0000
1003
0010
0100
0100
,
0001
1000
0001
0000
0010
0001
1000
0000
,
1100
0000
2000
0000
3010
1000
0100
0000
,
1000
0001
0100
0001
1000
0010
0010
0000
,
2000
0000
3200
0000
,
0320
0000
0032
0000
,
2003
0000
3020
0000
,
0230
0000
0302
0000
,
1003
0100
1000
0100
1000
0010
1000
0010
,
0100
0001
0100
0001
0010
0001
0010
0001
,
1000
0010
0100
0000
0001
0010
0100
0000
,
2001
0000
0000
0000
3001
0001
1000
0001
,
1001
0000
0001
0010
0100
0000
0100
0000
,
1000
0001
1000
0000
0010
1000
0001
0001
,
0100
0000
0101
0000
0001
1000
0100
0000
,
1000
0100
0010
0100
1000
0000
0001
0001
,
1000
1000
1001
0000
0001
0010
0100
0000
,
1000
0001
1000
0010
0100
0000
0001
1000
,
0200
0000
1300
0010
0100
0100
0001
0000
,
1000
0001
1000
0001
0010
0100
1000
0001
,
1001
0000
0000
0000
;

//---------------dance-single - Marten-BSP----------------
#NOTES:
     dance-single:
     Marten:
     Easy:
     6:
     0.240898,0.302298,0.102822,0.154234,0,164,154,10,15,0,0,0.240898,0.302298,0.102822,0.154234,0,164,154,10,15,0,0:
0000
0000
0000
0000
,
0000
0000
0000
0000
,
0000
0000
0000
0000
,
0000
0000
0000
0000
,
0000
0000
0000
0000
,
1000
0001
0100
0000
,
0001
0001
0010
0000
,
0100
1000
0001
0000
,
1000
0001
1001
0000
,
1000
1000
0001
0001
,
0100
0001
1000
0000
,
0001
0001
1000
1000
,
0100
1000
0001
0000
,
1000
0010
0100
0001
,
1000
0010
0100
0001
,
1000
0001
1000
0001
,
2002
0000
0000
3003
,
0001
0100
0001
0001
,
1000
0100
0001
0100
,
1000
0100
1000
1000
,
0001
0100
1000
0100
,
0001
0010
0100
0100
,
1000
0010
0001
0010
,
1000
0010
0100
0100
,
0001
0010
1000
0010
,
0001
0100
0001
1001
,
1000
0001
0010
0010
,
0001
0100
0010
0010
,
1000
0001
1001
1001
,
1000
0100
1000
1001
,
0001
1000
0010
0010
,
1000
0100
0010
0010
,
0001
1000
1001
1001
,
2000
0000
3002
0000
,
0023
0000
0230
0000
,
2300
0000
3020
0000
,
0230
0000
0302
0000
,
1003
1000
0001
0001
,
0100
0100
0010
0010
,
1000
0100
0010
0001
,
2002
0000
0000
3003
,
0002
0103
0100
0001
,
0100
0100
0001
1000
,
0000
0100
0100
1000
,
0100
0100
0010
0001
,
2000
3001
0000
0001
,
0100
0100
0010
0100
,
0002
0013
0000
0010
,
0100
0100
1000
0001
,
1001
0000
0000
0000
;

//---------------dance-single - Marten-bSP----------------
#NOTES:
     dance-single:
     Marten:
     Beginner:
     3:
     0.111636,0.176341,0.041129,0.082258,0,76,72,4,8,0,0,0.111636,0.176341,0.041129,0.082258,0,76,72,4,8,0,0:
0000
0000
0000
0000
,
0000
0000
0000
0000
,
0000
0000
0000
0000
,
0000
0000
0000
0000
,
0000
0000
0000
0000
,
1000
0000
0000
0000
,
0001
0000
0000
0000
,
0010
0000
0000
0000
,
1001
0000
0000
0000
,
0001
0000
0100
0000
,
1000
0000
0100
0000
,
0001
0000
0100
0000
,
1000
0000
0100
0000
,
0001
0000
0001
0000
,
1000
0000
1000
0000
,
0010
0010
0010
0000
,
0220
0000
0000
0330
,
0010
0000
1000
0000
,
0001
0000
0000
0000
,
0010
0000
0001
0000
,
1000
0000
0000
0000
,
0100
0000
1000
0000
,
0001
0000
0000
0000
,
0100
0000
0001
0000
,
1000
0000
0000
0000
,
0001
0000
0010
0000
,
1000
0000
0000
0000
,
1000
0000
0010
0000
,
0001
0000
0000
0000
,
1000
0000
0010
0000
,
0001
0000
0000
0000
,
0001
0000
0010
0000
,
1000
0000
0000
0000
,
0002
0000
0000
0003
,
2000
0000
0000
3000
,
0020
0000
0000
0030
,
0200
0000
0000
0300
,
0001
0000
0001
0000
,
1000
0000
1000
0000
,
0001
0000
1000
0000
,
2002
0000
0000
3003
,
0001
0000
0000
0001
,
0001
0000
0001
0000
,
1000
0000
0000
1000
,
1000
0000
1000
0000
,
0000
0010
0000
0010
,
0010
0000
0010
0000
,
0000
0100
0000
0100
,
0100
0000
0010
0000
,
1001
0000
0000
0000
;

//---------------dance-double - Kekkle-EDP----------------
#NOTES:
     dance-double:
     Kekkle:
     Hard:
     14:
     0.619873,0.730554,0.154234,0.339314,0.745463,422,407,15,33,0,0,0.619873,0.730554,0.154234,0.339314,0.745463,422,407,15,33,0,0:
00000000
00000000
00000000
00000000
,
00000000
00000000
00000000
00000000
,
00000000
00000000
00000000
00000000
,
00000000
00000000
00000000
00000000
,
00000000
00000000
00000000
00000000
,
10020000
00000000
00000000
00000000
00001000
00000000
00000000
00000000
01000000
00000000
00000000
01000000
00000000
00000000
00000000
00000000
,
00031000
00000000
00002000
00000000
00000001
00000000
00000000
00000000
00000100
00000000
00000000
00000100
00000000
00000000
00000000
00000000
,
00023000
00000000
00000000
00000000
01000000
00000000
00000000
00000000
10000000
00000000
00000000
10000000
00000000
00000000
00000000
00000000
,
00031000
00000000
00002000
00000000
00000010
00000000
00000000
00000000
00000001
00000000
00000000
00000001
00000000
00000000
00000000
00000000
,
00003001
00000000
00000100
00000000
00000010
00000000
00001000
00000100
00000000
00000100
00010000
00000000
00001000
00000000
01000000
00000000
,
00010000
00000000
00100000
00000000
01000000
10000000
00000000
00010000
00000000
01000000
00100000
00000000
01000000
00100000
01000000
00000000
,
00010000
00000000
10000000
00000000
01000000
00100000
00000000
00010000
00000000
00010000
00100000
00000000
00001000
00000000
00010000
00000000
,
00001000
00000000
00000100
00000000
00000010
00001000
00000000
00000001
00000000
00000010
00000100
00000000
00000010
00000000
00000010
00000000
,
00000001
00001000
00000001
00000000
00000100
00000000
00000100
00000000
00000010
00010000
00000010
00000000
00010000
00000000
00010000
00000000
,
00001000
00100000
00001000
00000000
00010000
00000000
00010000
00000000
01000000
00010000
01000000
00000000
10000000
00000000
10000000
00000000
,
00010000
01000000
00010000
01000000
00001000
01000000
00001000
01000000
00001000
00010000
00001000
00010000
00000010
00010000
00000010
00010000
,
00000010
00000100
00000000
00000010
00001000
00000000
00000001
00000000
00001000
00000100
00000000
00000010
00000200
00000000
00010300
00000000
,
00010100
00000000
00000000
00000000
00011000
00000000
00000000
00001000
00000000
00001000
01000000
00000000
00100000
00000000
10000000
00000000
,
00010000
00000000
00100000
00000000
10000000
00100000
00000000
00010000
00000000
01000000
00100000
00000000
00020000
00000000
00030000
00000000
,
00011000
00000000
00001000
00000100
00001000
00000100
00000000
00000001
00000000
00001000
00000100
00000000
00000010
00000000
00000001
00000000
,
00001000
00000000
00000010
00000000
00000100
00001000
00000000
00010000
00002000
00000000
00000000
00000000
00020000
00000000
00033000
00000000
,
01001000
00000000
00000000
00000000
01100000
00000000
00000000
00100000
00000000
00100000
10000000
00000000
01000000
00000000
00010000
00000000
,
01000000
00000000
00100000
00000000
00001000
00010000
00000000
00001000
00000000
00000100
00000010
00000000
00002000
00000000
00003000
00000000
,
00001001
00000000
00000001
00000000
00000100
00001000
00000000
00000100
00000000
00000010
00010000
00000000
00001000
00000000
00010000
00000000
,
01010000
00000000
01000000
10000000
00010000
00000000
01000000
00100000
01000000
00000000
00100000
00000000
01100000
00000000
00000000
00000000
,
01020000
00000000
00000000
00000000
00032000
00000000
00000000
00003010
00000000
00000010
00001000
00000000
00000001
00000000
00000010
00000000
,
00001000
00000000
00000010
00000000
00000001
00000100
00000000
00001000
00000000
00010000
00000100
00000000
00020000
00000000
00030000
00000000
,
00011000
00000000
00001000
00010000
01000000
00010000
00000000
01000000
00000000
00100000
00010000
00000000
10000000
00000000
00100000
00000000
,
01000000
00000000
10000000
00000000
01000000
00010000
00000000
00100000
00000000
00001000
00010000
00000000
00002000
00000000
00003000
00000000
,
00001200
00000000
00000000
00000000
00000302
00000000
00000000
00000013
00000000
00000010
00001000
00000000
00000010
00000000
00000100
00000000
,
00010000
00000000
00001000
00000000
00010000
00100000
00000000
00010000
00000000
00001000
01000000
00000000
00020000
00000000
00030000
00000000
,
10000000
00010000
10000000
00000000
01000000
00010000
00000000
00001000
00000000
00010000
00001000
00000000
00000100
00000000
00000010
00000000
,
00000200
00000300
00000200
00000300
00000002
00000000
00000000
00001003
00000000
00001000
00000100
00000000
00020200
00000000
00030300
00000000
,
00010000
00010000
00001000
00001000
00010000
00010000
00001000
00010000
,
00100000
00000000
00100000
00000000
01000000
00000000
01000000
00000000
00100000
00000000
00100000
00000000
01000000
10000000
01000000
00000000
,
00010000
00000000
00010000
00000000
00100000
00000000
00100000
00000000
00010000
00000000
00010000
00000000
00001000
00000000
00000010
00000100
,
00000010
00000010
00001000
00001000
00000010
00000010
00000100
00000001
,
00001000
00000100
00001000
00000000
00000100
00010000
00000100
00000000
00010000
00001000
00010000
00000000
00001000
01000000
00001000
00000000
,
01000000
00010000
01000000
00000000
00010000
10000000
00010000
00000000
10000000
01000000
10000000
00000000
01000000
00100000
01000000
00000000
,
00100000
00001000
00100000
00001000
00010000
00001000
00010000
00001000
00010000
00000100
00010000
00000100
00000010
00000100
00000010
00000100
,
00001000
00000001
00000000
00000100
00000010
00000000
00001000
00000000
00000001
00001000
00000001
00001000
00000002
00000000
00001003
00000000
,
00002020
00000000
00003030
00000000
00001000
00000100
00000000
00000100
00010000
00001000
00000000
00001000
01000000
00010000
00000000
00010000
,
10000000
01000000
00000000
01000000
00100000
00010000
00000000
00010000
01000000
00000000
00010000
00000000
10000000
01000000
00100000
00000000
,
02000000
03200000
02300000
00000000
13000000
00010000
00000000
00010000
01000000
00001000
00000000
00001000
00010000
00001000
00000000
00001000
,
00000100
00000010
00000000
00000010
00001000
00000001
00000000
00000001
00000010
00000100
00000000
00000100
00010000
00001000
00010000
00001000
,
02000000
00000000
03020000
00000000
10030000
01000000
00000000
01000000
10000000
00010000
00000000
00010000
01000000
00100000
00000000
00100000
,
00010000
00001000
00000000
00001000
00010000
00000100
00000000
00000100
00001000
00000001
00000000
00000001
00000100
00000000
00000010
00000000
,
00002000
00003200
00020300
00030200
00001300
00000001
00000000
00000001
00000100
00000010
00000000
00000010
00010000
00001000
00000000
00001000
,
01000000
00000000
00010000
00000000
10000000
00000000
01000000
00000000
00010000
00000000
01000000
00000000
10000000
00010000
10000000
00000000
,
10010000
00000000
00000000
00000000
;

//---------------dance-double - Kekkle-DDP----------------
#NOTES:
     dance-double:
     Kekkle:
     Medium:
     11:
     0.401008,0.428256,0.061693,0.215927,0.010282,273,267,6,21,0,0,0.401008,0.428256,0.061693,0.215927,0.010282,273,267,6,21,0,0:
00000000
00000000
00000000
00000000
,
00000000
00000000
00000000
00000000
,
00000000
00000000
00000000
00000000
,
00000000
00000000
00000000
00000000
,
00000000
00000000
00000000
00000000
,
20000000
00010000
00010000
00010000
,
30020000
01000000
01000000
01000000
,
00032000
00000010
00000010
00000010
,
00003002
00000010
00000010
00000013
,
00000100
00000010
00000001
00000000
00001000
00000010
00000100
00000000
,
00001000
00010000
00001000
00010000
00100000
01000000
00010000
00000000
,
10000000
01000000
00100000
00000000
01000000
10000000
00010000
00000000
,
01000000
00010000
01000000
00010000
00100000
00001000
00010000
00000000
,
00000010
00001000
00000010
00001000
00000100
00010000
00000100
00010000
,
00001000
00010000
00001000
00010000
00001000
00100000
00001000
00100000
,
01000000
10000000
00010000
01000000
00001000
00010000
00001000
00000100
,
00000020
00000000
00000000
00001030
,
00000002
00000000
00002003
00000000
00003100
00010000
00001000
00000000
,
00010000
00100000
10000000
00100000
01000000
00010000
01000000
00000000
,
00002000
00000000
00000000
00000000
00010000
00000000
00000000
00010000
00000000
00000000
00013000
00000000
00000100
00000000
00000000
00000000
,
00001000
00000010
00000001
00000010
00000100
00000000
00000101
00000000
,
00000002
00000000
00002003
00000000
00003100
00010000
00001000
00000000
,
00010000
00100000
00010000
00100000
10000000
00010000
00100000
00000000
,
01000000
10000000
01000000
10000000
00010000
01000000
00100000
00000000
,
00010000
00001000
00010000
00000000
00011000
00000000
00011000
00000000
,
00002000
00000000
00003200
00000000
00000301
00001000
00000100
00000000
,
00000010
00000001
00001000
00000100
00010000
00001000
00010000
00000000
,
00002000
00000000
00000000
00000000
01000000
00000000
00000000
01000000
00000000
00000000
01003000
00000000
00010000
00000000
10000000
00000000
,
01000000
00100000
01000000
10000000
00010000
00000000
01010000
00000000
,
02000000
00000000
03002000
00000000
00013000
00000100
00000010
00000000
,
00000001
00000100
00000010
00010000
00000100
00010000
00001000
00000000
,
01000000
00010000
00100000
01000000
10000000
01000000
00100000
00000000
,
00001000
00010000
00000010
00010000
00001000
00000100
00000020
00000000
,
00000230
00001000
00000010
00001000
,
00002300
00100000
00010000
00100000
,
00023000
01000000
00001000
01000000
,
02030000
10000000
00100000
10000000
,
03100000
00001000
00100000
00001000
00010000
00001000
00010000
00001000
,
00010000
00000010
00010000
00000010
00001000
00000100
00001000
00000100
,
00000010
00000001
00001000
00000010
00001000
00000100
00010000
00001000
,
00020000
00000000
00000000
00130000
,
10100000
00000000
10000000
01000000
00010000
01000000
10000000
01000000
,
00010000
00001000
00010000
00001000
00000010
00000001
00001000
00000000
,
00001000
00001000
00000001
00000100
00001000
00000100
00000001
00000100
,
00001000
00010000
00001000
00010000
00100000
10000000
00010000
00000000
,
00010000
00010000
10000000
01000000
00100000
01000000
00010000
00001000
,
00010000
00000100
00000010
00000100
00000001
00000100
00001000
00000000
,
00001000
00001000
00000001
00000100
00000010
00000100
00001000
00010000
,
00001000
01000000
00100000
01000000
10000000
01000000
00010000
00000000
,
10010000
00000000
00000000
00000000
;

//---------------dance-double - Kekkle-BDP----------------
#NOTES:
     dance-double:
     Kekkle:
     Easy:
     6:
     0.235023,0.251915,0.051411,0.123387,0,160,155,5,12,0,0,0.235023,0.251915,0.051411,0.123387,0,160,155,5,12,0,0:
00000000
00000000
00000000
00000000
,
00000000
00000000
00000000
00000000
,
00000000
00000000
00000000
00000000
,
00000000
00000000
00000000
00000000
,
00000000
00000000
00000000
00000000
,
10000000
00010000
01000000
00000000
,
00001000
00010000
00000010
00000000
,
00000100
00000001
00001000
00000000
,
00000100
00010000
00001000
00000000
,
01000000
00010000
01000000
00001000
,
00010000
00000100
00000010
00000000
,
00000001
00001000
00000010
00000100
,
00001000
00010000
00001000
00000000
,
00010000
00001000
00010000
00001000
,
00100000
01000000
00100000
01000000
,
10000000
00010000
10000000
00010000
,
20000000
00000000
00000000
30000000
,
00010000
01000000
00010000
00100000
,
00001000
00010000
00000010
00000010
,
00000100
00000001
00001000
00000100
,
00010000
00001000
00010000
00011000
,
00001000
01000000
00010000
01000000
,
00100000
10000000
00010000
00010000
,
00100000
00001000
00010000
00000100
,
00000010
00000100
00001000
00001001
,
00000001
00000100
00000010
00000100
,
00001000
00010000
00001000
00001000
,
00010000
01000000
00100000
01000000
,
10000000
00010000
01000000
01000000
,
00100000
00010000
00001000
00010000
,
00000100
00000010
00000100
00000100
,
00001000
00000001
00000100
00000010
,
00001000
00000100
00010000
00011000
,
00002000
00000000
02003000
00000000
,
03200000
00000000
20300000
00000000
,
30020000
00000000
00230000
00000000
,
00302000
00000000
00023000
00000000
,
00030010
00000010
00000100
00000100
,
00000001
00000001
00001000
00001000
,
00000100
00010000
00000100
00010000
,
00002000
00000000
00000000
00003000
,
00011000
00010000
01000000
00010000
,
01000000
00100000
01000000
10000000
,
00000000
00010000
01000000
00100000
,
00010000
00001000
00010000
00001000
,
00020000
00030010
00000100
00000010
,
00001000
00000001
00000010
00000100
,
00002000
00003000
00000100
00010000
,
00001000
01000000
00010000
00100000
,
01100000
00000000
00000000
00000000
;
