#TITLE:Burn It;
#ARTIST:RiraN;
#BANNER:Burn It.png;
#BACKGROUND:Burn It-bg.png;
#MUSIC:Burn It.ogg;
#SAMPLESTART:39.58;
#SAMPLELENGTH:15;
#BPMS:0=200;

//---------------dance-single - RGTM-bSP----------------
#NOTES:
     dance-single:
     RGTM:
     Beginner:
     4:
     0.175661,0.238056,0.037037,0.066667,0,166,161,5,9,0,0,0.175661,0.238056,0.037037,0.066667,0,166,161,5,9,0,0:
0000
0000
0000
0000
,
2002
3003
0000
0000
0000
0000
0000
0000
,
0000
0000
0000
0000
,
0000
0000
0000
0000
,
0000
0000
0000
0000
,
0000
0000
0000
0000
,
0001
0000
0000
0000
,
1000
0000
0000
0000
,
0001
0000
0000
0000
,
1000
0000
0000
0000
,
0010
0000
0000
0000
,
0100
0000
0000
0000
,
0001
0000
0000
0000
,
1000
0000
0000
0000
,
0100
0000
0000
0000
,
0010
0000
0000
0000
,
0001
0000
0000
0000
,
1000
0000
0000
0000
,
1000
0000
0000
0000
,
0100
0000
0000
0000
,
0100
0000
0000
0000
,
0010
0000
0000
0000
,
0010
0000
0000
0000
,
0001
0000
0000
0000
,
0001
0000
0000
0000
,
1000
0000
0000
0000
,
0001
0000
0000
0000
,
1000
0000
0000
0000
,
0001
0000
0000
0000
,
0100
0000
0100
0000
,
0010
0000
0010
0000
,
1000
0000
0001
0000
,
2000
0000
3000
0000
,
1000
0000
1000
0000
,
0001
0000
0001
0000
,
0010
0000
0010
0000
,
0100
0000
0100
0000
,
1000
0000
1000
0000
,
0001
0000
0001
0000
,
0100
0000
0100
0000
,
0010
0000
0100
0000
,
0001
0000
0001
0000
,
1000
0000
1000
0000
,
0100
0000
0100
0000
,
0010
0000
0010
0000
,
0001
0000
0001
0000
,
1000
0000
1000
0000
,
0010
0000
0010
0000
,
0100
0000
0010
0000
,
1000
0000
0000
0000
,
1000
0000
0000
0000
,
0010
0000
0000
0000
,
0010
0000
0000
0000
,
0100
0000
0000
0000
,
0100
0000
0000
0000
,
0001
0000
0000
0000
,
0001
0000
0000
0000
,
1000
0000
0000
0000
,
0001
0000
0000
0000
,
1000
0000
0000
0000
,
0001
0000
0000
0000
,
0010
0000
0010
0000
,
0100
0000
0100
0000
,
1000
0000
0001
0000
,
2000
0000
3000
0000
,
0001
0000
0001
0000
,
1000
0000
1000
0000
,
0010
0000
0010
0000
,
0100
0000
0100
0000
,
0001
0000
0001
0000
,
1000
0000
1000
0000
,
0100
0000
0100
0000
,
0010
0000
0100
0000
,
1000
0000
1000
0000
,
0001
0000
0001
0000
,
0100
0000
0100
0000
,
0010
0000
0010
0000
,
1000
0000
1000
0000
,
0001
0000
0001
0000
,
0010
0000
0010
0000
,
0100
0000
0010
0000
,
0001
0000
0000
0000
,
1000
0000
0000
0000
,
0010
0000
0000
0000
,
0100
0000
0000
0000
,
0001
0000
1000
0000
,
0001
0000
1000
0000
,
0100
0000
0010
0000
,
0200
0000
0300
0000
,
0100
0000
0010
0000
,
0220
0330
0000
0000
,
1001
0000
0001
0000
,
0100
0000
0100
0000
,
0010
0000
0010
0000
,
1000
0000
1000
0000
,
0001
0000
0001
0000
,
0010
0000
0010
0000
,
0100
0000
0100
0000
,
1000
0000
0001
0000
,
1001
0000
1000
0000
,
0100
0000
0100
0000
,
0010
0000
0010
0000
,
0001
0000
0001
0000
,
1000
0000
1000
0000
,
0010
0000
0010
0000
,
0100
0000
0100
0000
,
0001
0000
1000
0000
,
2002
3003
0000
0000
0000
0000
0000
0000
;

//---------------dance-single - RGTM-BSP----------------
#NOTES:
     dance-single:
     RGTM:
     Easy:
     10:
     0.396825,0.515787,0.133333,0.118519,0,375,357,18,16,0,0,0.396825,0.515787,0.133333,0.118519,0,375,357,18,16,0,0:
0000
0000
0000
0000
,
2002
3003
0000
0000
0000
0000
0000
0000
,
0000
0000
0000
0000
,
0000
0000
0000
0000
,
0000
0000
0000
0000
,
0000
0000
0000
0000
,
1000
0000
0000
1000
,
0001
0000
0000
0000
,
0100
0000
0000
0010
,
1000
0000
0100
0000
,
0010
0000
0100
1000
,
0001
0000
0100
0000
,
0010
0000
1000
0001
,
1000
0000
0100
0000
,
0010
0000
0001
1000
,
0010
0000
0100
0000
,
0001
0000
1000
0000
,
0001
0000
0010
0000
,
0100
0000
1000
0001
,
1000
0000
0010
0000
,
0100
0001
1000
1000
,
0001
0000
0100
0000
,
0010
0000
1000
0001
,
1000
0000
0100
0000
,
0010
0001
1000
0000
,
1001
0000
0001
0000
,
0100
0000
0100
0000
,
0010
0000
0010
0000
,
1000
0000
1000
0000
,
0001
0010
0100
1000
,
0001
0010
0100
1000
,
0010
0000
0100
0000
0001
1000
0001
1000
,
0200
0000
0300
0000
,
1001
1000
0001
0001
,
0010
0000
0010
0000
0100
0010
0100
0000
,
1000
1000
0001
0001
,
0100
0000
0010
0100
0010
0000
1000
0000
,
0001
0001
1000
1000
,
0100
0000
0100
0000
0010
0100
0010
0000
,
0001
0001
1000
0010
,
0100
0000
0100
0010
0100
0000
0010
0000
,
1001
0001
1000
1000
,
0010
0000
0010
0000
0100
0010
0100
0000
,
0001
0001
1000
1000
,
0100
0000
0010
0100
0010
0000
0001
0000
,
1000
1000
0001
0001
,
0100
0000
0100
0000
0010
0100
0010
0000
,
1000
0000
0001
0000
1000
0001
1000
0001
,
1000
0100
0010
0000
,
1001
0000
0000
0001
,
1000
0000
0100
0000
,
0010
0000
0000
0100
,
1000
0000
0001
0000
,
1000
0000
0000
0001
,
0100
0000
0010
0000
,
0100
0000
0001
0000
,
1000
0100
0100
0000
,
1001
0000
1000
0000
,
0100
0000
0100
0000
,
0010
0000
0010
0000
,
0001
0000
0001
0000
,
1000
0010
0100
0001
,
1000
0010
0100
0001
,
0010
0000
0100
0000
1000
0001
1000
0001
,
0200
0000
0300
0000
,
0110
1000
1000
0001
,
0010
0000
0010
0000
0100
0010
0100
0000
,
0010
0001
0001
1000
,
0010
0000
0010
0000
1000
0001
1000
0001
,
0010
0001
0001
1000
,
0010
0000
0010
0000
0100
0010
0100
0000
,
0001
0001
1000
0001
,
0010
0000
0010
0000
0100
0010
0100
0000
,
0110
1000
1000
0001
,
0100
0000
0100
0000
0010
0100
0010
0000
,
0100
0001
0001
1000
,
0100
0000
0100
0000
1000
0001
1000
0001
,
0100
0001
0001
1000
,
0100
0000
0100
0000
0010
0100
0010
0000
,
0001
0000
1000
0000
0010
0100
0010
0100
,
0010
1000
0001
0000
,
1001
0000
1000
0000
,
0100
0000
0010
0000
,
0001
0000
0010
0000
,
0100
0000
1000
0000
,
0001
0100
0010
1000
,
0001
0010
0100
1000
,
0010
0000
0100
0000
0001
1000
0001
1000
,
0200
0000
0000
0300
,
0110
0000
1001
0000
,
0110
0220
0000
0330
,
1001
1000
0200
0310
,
0010
0000
0001
0000
1000
0001
1000
0000
,
0001
0001
0200
0310
,
0010
0000
1000
0001
1000
0001
1000
0000
,
1001
0001
0020
0130
,
0100
0000
1000
0000
0001
0000
1000
0001
,
1000
1000
0020
0130
,
0100
0010
0010
0010
,
1001
1000
0200
0310
,
0100
0000
1000
0000
0010
0000
1000
0001
,
1000
0000
0001
0000
0020
0000
0130
0010
,
0100
0000
0010
0000
0001
1000
0000
0000
,
1001
0001
0200
0310
,
0100
0000
0001
0000
0010
0000
0001
1000
,
0001
0000
0010
0000
0100
0010
0100
0010
,
0100
0000
1000
0000
0001
1000
0001
0000
,
2002
3003
0000
0000
0000
0000
0000
0000
;

//---------------dance-single - RGTM-DSP----------------
#NOTES:
     dance-single:
     RGTM:
     Medium:
     13:
     0.625397,0.674491,0.177778,0.140741,0,591,567,24,19,0,0,0.625397,0.674491,0.177778,0.140741,0,591,567,24,19,0,0:
0000
0000
0000
0000
,
2000
3001
0000
0000
0000
0000
0000
0000
,
0000
0000
0000
0000
,
0000
0000
0000
0000
,
0000
0000
0000
0000
,
0000
0000
0000
0000
0000
0000
0000
0001
,
1000
0000
0000
1100
,
0101
0000
0000
0000
0000
0000
0000
1000
,
0001
0000
0000
0011
,
1010
0000
1000
0000
0001
0000
0001
1000
,
0010
0010
0100
1100
,
0101
0000
0001
0000
1000
0000
1000
0001
,
0010
0010
0100
0110
,
1001
0000
1000
0000
0001
0000
0001
1000
,
0100
0100
0010
1010
,
0011
0000
0001
0000
1000
0000
1000
0001
,
0100
0100
0010
0110
,
1001
1000
0001
0001
,
0010
0000
0010
0000
0001
0010
0100
0000
,
1000
1000
0001
0001
,
0100
0000
0001
0100
0010
0000
0010
0000
,
1000
1000
0001
0001
,
0010
0000
0010
0000
0001
1000
0100
0000
,
0100
0100
1000
0010
,
0100
0000
0001
1000
0001
0000
0010
0000
,
1001
1000
0100
0100
,
0010
0010
0001
0001
,
1000
1000
0010
0010
,
0100
0100
0001
0001
,
1000
0100
1000
0000
0100
0001
0100
0000
,
0001
0010
0001
0000
0010
1000
0010
0000
,
1000
0100
0010
0001
0100
0010
1000
0100
,
0020
0000
0030
0110
,
1000
0001
1000
0000
0100
0010
0100
0000
,
0001
1000
0001
1000
0010
0001
0100
0000
,
0001
1000
0001
0000
0100
0010
0100
0000
,
1000
0001
1000
0100
0001
0000
0010
0100
,
1000
0001
1000
0000
0010
0100
0010
0000
,
0001
1000
0001
1000
0100
0001
1000
0000
,
0001
0000
0001
1000
0001
0000
0010
0000
,
0100
0000
0010
0100
0010
0000
0110
0000
,
0001
1000
0001
1000
0100
0010
0100
0010
,
0001
1000
0001
1000
0010
0100
0001
0000
,
0010
0100
0010
0100
0001
1000
0001
1000
,
0010
0001
1000
0010
0100
0100
0010
0010
,
1000
0001
1000
0001
0100
0010
0100
0010
,
0001
1000
0001
1000
0100
0001
1000
0100
,
0010
0100
0010
0100
1000
0001
1000
0001
,
0100
0010
1000
0100
0010
0001
0100
0000
,
1001
0100
0100
1000
,
0001
0000
0001
0000
0010
0100
1000
0100
,
0010
0001
0001
1000
,
0010
0000
0010
0000
1000
0001
0100
0001
,
0010
0100
0100
1000
,
0001
0000
0001
0000
0010
0100
1000
0001
,
0001
0001
0100
0010
,
0100
0000
0100
0000
0001
0010
0100
1000
,
0001
0001
0100
0100
,
0010
0010
1000
1000
,
0001
0001
0010
0010
,
0100
0100
1000
1000
,
0001
0100
0001
0000
0100
1000
0100
0000
,
1000
0010
1000
0000
0010
0001
0010
0000
,
0001
0100
0010
1000
0100
0010
0001
0100
,
0020
0000
0030
0110
,
1000
0000
0100
0010
0100
0000
1000
0001
,
1000
0000
0010
0100
0010
1000
0100
0010
,
0001
0000
0100
0010
0100
0000
1000
0001
,
1000
0000
0100
0010
1000
0100
0010
0001
,
1000
0000
0010
0100
0010
0000
1000
0001
,
1000
0000
0100
0010
0100
1000
0010
0100
,
0001
0000
0010
0100
0010
0001
1000
0000
,
0010
0000
0010
0000
0001
0010
1000
0001
,
0010
0100
1000
0001
1000
0001
0100
0010
,
1000
0001
1000
0000
0100
0010
0001
1000
,
0010
0100
0001
1000
0001
1000
0100
0010
,
1000
0001
1000
0000
0010
0010
0001
0001
,
0010
0100
1000
0001
1000
0001
0100
0010
,
0001
1000
0001
0000
0010
0100
0001
1000
,
0100
0010
0100
0010
0001
1000
0001
1000
,
0010
0100
0001
0010
0100
1000
0010
0000
,
1001
1000
0100
0100
,
0001
0001
0100
0100
,
1000
1000
0010
0010
,
0001
0001
0010
0010
,
1000
0100
0001
0000
0001
0100
1000
0000
,
0001
0100
1000
0000
1000
0100
0001
0000
,
0010
0100
1000
0010
0100
0001
0010
0100
,
0020
0000
0000
0030
,
0110
0000
1000
0001
1000
0000
0010
0100
,
0010
0200
0300
0110
,
1001
0000
1000
0001
0200
0000
0310
2000
,
0000
3010
1000
0100
0010
0001
1000
0000
,
0001
0000
1000
0001
0020
0000
0130
2000
,
0000
3100
1000
0001
0100
0010
0100
0000
,
1001
0000
0001
1000
0200
0000
0310
0002
,
0000
0013
0001
0100
0010
1000
0001
0001
,
1000
0000
0001
1000
0020
0000
0130
0001
,
0010
0000
0010
0000
0001
1000
0100
0000
,
1001
0000
1000
0100
0020
0000
0031
0200
,
0000
0301
0010
0010
0100
1000
0001
0001
,
1000
0000
0001
0100
0020
0000
1030
0200
,
0000
1300
0010
0100
0100
0010
0000
0000
,
1001
0000
1000
0010
0200
0000
0301
0020
,
0000
0031
0100
0100
0010
1000
0001
0001
,
1000
0001
1000
0001
0010
0100
0010
0100
,
1000
0010
0100
0001
0010
0100
1000
0000
,
0002
1003
0000
0000
0000
0000
0000
0000
;

//---------------dance-single - RGTM-ESP----------------
#NOTES:
     dance-single:
     RGTM:
     Hard:
     16:
     0.772487,0.991898,0.251852,0.133333,0.240741,730,696,34,18,0,0,0.772487,0.991898,0.251852,0.133333,0.240741,730,696,34,18,0,0:
0000
0000
0000
0000
,
1002
0013
0000
0000
0000
0000
0000
0000
,
0000
0000
0000
0000
,
0000
0000
0000
0000
,
0000
0000
0000
0000
,
0000
0000
0000
0000
0000
0000
0000
0001
,
1000
0000
0000
0000
0000
0000
0000
0000
0000
0000
0000
0000
0100
0000
0010
0100
,
0010
0000
0000
0000
0000
0000
0000
0001
,
1000
0000
0000
0000
0000
0000
0000
0000
0000
0000
0000
0000
0010
0000
0100
0010
,
1000
0000
1000
0000
0001
0000
0001
1000
,
0010
0000
0000
0000
0010
0000
0000
0000
0100
0000
0000
0000
0100
0000
0001
1000
,
0001
0000
0001
0000
1000
0000
1000
0001
,
0100
0000
0000
0000
0100
0000
0000
0000
0010
0000
0000
0000
0010
0000
1000
0001
,
1000
0000
1000
0000
0001
0000
0001
1000
,
0100
0000
0000
0000
0100
0000
0000
0000
0010
0000
0000
0000
0010
0000
0001
1000
,
0001
0000
0001
0000
1000
0000
1000
0001
,
0010
0010
0100
0110
,
1001
1000
0001
0001
,
0010
0000
0010
0010
0001
1000
0100
0000
,
1000
1000
0001
0001
,
0100
0000
0001
0100
0010
0000
0010
0000
,
1000
1000
0001
0001
,
0010
0000
0010
0010
0001
1000
0100
0000
,
1000
0000
1000
0001
0100
0000
0010
0000
,
0100
0000
0100
0010
0100
0000
0001
0000
,
1001
1000
0100
0010
,
0001
0010
0100
1000
,
0001
0100
0010
1000
,
0010
0100
0001
1000
,
0100
0010
0100
1000
0001
0100
0001
1000
,
0010
0100
0010
1000
0001
0010
0001
1000
,
0100
1000
0100
1000
0001
1000
0001
1000
0001
0100
0001
0100
0010
0100
0010
0100
,
0020
0000
0030
0110
,
1001
1000
0001
1000
0100
1000
0100
1000
,
0010
0100
0010
0010
0001
0010
1000
0001
,
0010
0001
0010
0001
1000
0001
1000
0001
,
0100
0000
0010
0000
0100
0000
0001
0000
0010
0000
0100
0000
0010
0000
0001
1000
,
0001
1000
0001
1000
0010
1000
0010
1000
,
0100
0010
0100
0100
0001
0100
1000
0001
,
0100
0001
1000
0100
0010
0100
0001
0100
,
1000
0000
0001
0000
0100
0000
0100
0000
0100
0000
0000
0000
0220
0000
0000
0330
,
1001
0001
1000
0001
0100
0001
0100
0001
,
0010
0100
0010
0010
1000
0010
0001
1000
,
0010
1000
0010
1000
0001
1000
0001
1000
,
0100
0000
0010
0000
0100
0000
1000
0000
0010
0000
0110
0000
0100
0000
0001
1000
,
0001
1000
0001
1000
0010
1000
0010
1000
,
0100
0000
0010
0000
0100
0000
0100
0000
0001
0000
0100
0000
1000
0000
0010
0100
,
0010
0000
1000
0000
0100
0000
0010
0000
0001
0010
0001
0010
0100
1000
0100
1000
,
0001
0000
0100
0000
0010
0000
1000
0001
1000
0000
0100
0000
0110
0000
0000
0000
,
1001
0100
0100
0010
,
1000
0000
1000
0000
0001
0010
0100
1000
,
0001
0100
0100
0001
,
0010
0000
0010
0000
0001
1000
0100
1000
,
0010
0100
0100
0001
,
1000
0000
1000
0000
0010
0100
0001
1000
,
1000
1000
0100
0010
,
0100
0000
0100
0000
0010
0001
0100
0010
,
1001
0001
0100
0010
,
1000
0010
0100
0001
,
1000
0100
0010
0001
,
0010
0100
1000
0001
,
0100
0010
0100
0001
1000
0100
1000
0001
,
0010
0100
0010
0001
1000
0010
1000
0001
,
0100
0001
0100
0001
1000
0001
1000
0001
1000
0100
1000
0100
0010
0100
0010
0100
,
0020
0000
0030
0110
,
1001
1000
0100
0010
0100
0010
0001
1000
,
0010
0100
0010
0100
1000
0100
0001
0010
,
1000
0010
0100
0010
0100
0010
0001
1000
,
0010
0000
0100
0000
0010
0000
0100
0000
1000
0000
0001
0000
0010
0000
1000
0001
,
1000
0001
0100
0010
0100
0010
1000
0001
,
0010
0100
0010
0100
0001
0100
1000
0010
,
0010
0100
0010
0100
0001
0100
1000
0100
,
0001
0010
0001
0010
1000
0010
0120
0031
,
1001
1000
0010
0100
0010
0100
0001
1000
,
0100
0010
0100
0010
1000
0010
0001
0100
,
1000
0100
0010
0100
0010
0100
0001
1000
,
0100
0000
0010
0000
0100
0000
0010
0000
0001
0000
1001
0000
1000
0000
0100
0010
,
0100
0010
0001
1000
0001
1000
0010
0100
,
1000
0000
0100
0000
1000
0000
0100
0000
0001
0000
0010
0000
0100
0000
1000
0001
,
1000
0000
0100
0000
0010
0000
0001
0000
1000
0010
1000
0010
0100
0001
0100
0001
,
1000
0000
0100
0000
0010
0000
0001
1000
0001
0000
0100
0000
0110
0000
0000
0000
,
1001
1000
0001
0001
,
0100
0100
0010
0010
,
0100
0100
0001
0001
,
1000
1000
0100
0100
,
0010
0100
1000
0001
0100
0010
1000
0001
,
1000
0100
0010
0001
0100
0010
1000
0001
,
0100
0001
0100
0001
1000
0100
1000
0100
0010
0001
0010
0001
1000
0010
1000
0010
,
0200
0000
0000
0300
,
1001
0000
0000
0000
0110
0000
1000
0001
1000
0000
0000
0000
0110
0000
0001
1000
,
0001
0200
0300
0110
,
1001
0000
0000
0000
1000
0010
1000
0000
0200
0000
0000
0000
0310
0000
0001
0000
,
0010
0000
0100
0000
0100
0000
0100
0000
0010
0000
0001
1000
0002
0000
0000
0000
,
0103
0000
0000
0000
0001
0010
0001
0000
0200
0000
0000
0000
0310
0000
1000
0000
,
0010
0000
0100
0000
0100
0000
0100
0000
0001
1000
0001
1000
0200
0000
0000
0300
,
1001
0000
0000
0000
1000
0010
1000
0000
0200
0000
0000
0000
0310
0000
0100
0000
,
0010
0000
0001
0000
0001
0000
0001
0000
0100
0000
0010
0100
0010
0000
1010
0000
,
1000
0000
0000
0000
0001
0010
0001
0000
0200
0000
0000
0000
0310
0000
0100
0000
,
0010
1000
0100
0010
0001
0100
0110
0000
,
1001
0000
0001
0000
1000
0010
1000
0000
0200
0000
0010
0000
0310
0000
0001
0000
,
0010
0000
0100
0000
0100
0000
0100
0000
0010
0000
0001
1000
0001
0000
0101
0000
,
0100
0000
0001
0000
0010
0100
0010
0000
0200
0000
1000
0000
1300
0000
1001
0000
,
0001
0000
0100
0000
0100
0000
0100
0000
0010
0000
0100
0010
0000
0000
0000
0000
,
1001
0000
1000
0000
0001
0010
0001
0000
0200
0000
0010
0000
0310
0000
1000
0000
,
0010
0000
0100
0000
0100
0000
0100
0000
0010
0000
1000
0001
1000
0000
1100
0000
,
0100
0000
0010
0000
0001
0000
1000
0000
0010
0100
0010
1000
0001
0100
0001
1000
,
0100
0010
0001
0100
1000
0100
0110
0000
,
2001
3010
0000
0000
0000
0000
0000
0000
;

//---------------dance-double - RGTM-EDP----------------
#NOTES:
     dance-double:
     RGTM:
     Hard:
     17:
     0.710053,0.912546,0.162963,0.200000,0.140741,671,649,22,27,0,0,0.710053,0.912546,0.162963,0.200000,0.140741,671,649,22,27,0,0:
00000000
00000000
00000000
00000000
,
00012000
00003010
00000000
00000000
00000000
00000000
00000000
00000000
,
00000000
00000000
00000000
00000000
,
00000000
00000000
00000000
00000000
,
00000000
00000000
00000000
00000000
,
00000000
00000000
00000000
00000000
00000000
00000000
00000000
00000001
,
00001000
00000000
00000000
00000000
00000000
00000000
00000000
00000000
00000000
00000000
00000000
00000000
00000100
00000000
00010000
00001000
,
00010000
00000000
00000000
00000000
00000000
00000000
00000000
00010000
,
10000000
00000000
00000000
00000000
00000000
00000000
00000000
00000000
00000000
00000000
00000000
00000000
01000000
00000000
00010000
00001000
,
00010000
00000000
00010000
00001000
00000010
00000000
00000000
00000010
,
00000100
00000010
00000001
00000100
00001000
00010000
00000000
00000000
,
00100000
01000000
00100000
10000000
01000000
00100000
00001000
00010000
,
00001000
00000000
00000100
00000000
00000001
00000000
00000010
00000000
00000100
00000000
00010000
00000000
00000000
00000000
00001000
00010000
,
00001000
00000000
00001000
00010000
00100000
00000000
00000000
00100000
,
01000000
00100000
10000000
01000000
00010000
00001000
00000000
00000000
,
00000010
00000100
00000010
00000001
00000100
00000010
00010000
00001000
,
00010000
01000000
10000000
00100000
01000000
00001000
00000000
00000000
,
00011000
00010000
00001000
00001000
,
00000010
00000000
00000010
00000010
00000001
00000010
00000100
00000000
,
00010000
00010000
00001000
00001000
,
01000000
00000000
00010000
01000000
10000000
01000000
00010000
00100000
,
00001000
00001000
00010000
00010000
,
00100000
00000000
00100000
00100000
10000000
00100000
01000000
00000000
,
00001000
00000000
00001000
00000100
00000001
00000000
00000010
00000000
,
00000100
00000000
00000001
00000100
00001000
00000000
00000010
00000000
,
00011000
00100000
10000000
00100000
,
00001000
00000010
00000001
00000010
,
00010000
01000000
10000000
01000000
,
00001000
00000100
00000001
00000100
,
00010000
00100000
10000000
00100000
00001000
00000010
00000001
00000010
,
00010000
01000000
10000000
01000000
00001000
00000100
00000001
00000100
,
00001000
00010000
10000000
00010000
00001000
00000001
00001000
00010000
,
00002000
00000000
00003000
01100000
,
10000000
00010000
10000000
00000000
00010000
00001000
00010000
00000000
,
00000001
00001000
00000001
00000001
00000010
00001000
00010000
00000000
,
10000000
00010000
10000000
00000000
00001000
00010000
00001000
00000000
,
00000001
00000000
00000000
00000000
00000010
00000000
00001000
00000000
00100000
00000000
00001000
00000000
00000010
00000000
00000001
00000010
,
00000001
00001000
00000001
00000000
00001000
00010000
00001000
00000000
,
10000000
00010000
10000000
10000000
00100000
00010000
00001000
00000000
,
00000001
00000000
00000001
00001000
00010000
00000000
00001000
00000000
,
00010000
00000000
10000000
00010000
00001000
00000000
02200000
03300000
,
10000000
00010000
10000000
01000000
00010000
00001000
00010000
00000100
,
00000001
00001000
00000001
00000001
00000100
00001000
00010000
01000000
,
10000000
00010000
10000000
00100000
00010000
00001000
00010000
00000010
,
00000001
00000000
00001000
00000000
00000001
00000000
00000010
00000000
00001000
00000000
00010000
00000000
00010000
00000000
00001000
00000010
,
00000001
00001000
00000001
00000100
00001000
00010000
00001000
01000000
,
10000000
00000000
00010000
00000000
10000000
00000000
10000000
00000000
01000000
00000000
00001000
00000000
00010000
00000000
00001000
00010000
,
00001000
00000000
00000010
00000000
00000001
00000000
00000010
00000000
00001000
00010000
00001000
01000000
00001000
00010000
00000100
00010000
,
00001000
00000000
00010000
10000000
00010000
00001000
00000110
00000000
,
00001001
00000100
00000100
00001000
,
00010000
00000000
00010000
00000000
10000000
01000000
00010000
01000000
,
10000000
01000000
01000000
00010000
,
00001000
00000000
00001000
00000000
00000001
00000100
00001000
00000100
,
00000001
00000010
00000010
00001000
,
00010000
00000000
00010000
00000000
10000000
00100000
00010000
00100000
,
10000000
10000000
00010000
00001000
,
00010000
00000000
00010000
00000000
00000010
00000001
00000010
00001000
,
00011000
00000010
00000001
00000010
,
00010000
00100000
10000000
00100000
,
00001000
00000100
00000001
00000100
,
00010000
01000000
10000000
01000000
,
00001000
00000010
00000001
00000010
00010000
00100000
10000000
00100000
,
00001000
00000100
00000001
00000100
00010000
01000000
10000000
01000000
,
00010000
00001000
00000001
00001000
00010000
10000000
00010000
00001000
,
00020000
00000000
00030000
00000110
,
00000001
00000000
00001000
00010000
00001000
00000000
10000000
00010000
,
10000000
00000000
00010000
00001000
00010000
00000010
00000001
00000010
,
00010000
00000000
10000000
00010000
10000000
00000000
00001000
00010000
,
00001000
00000000
00000000
00000000
00000001
00000000
00001000
00000000
00000100
00000000
00010000
00000000
01000000
00000000
10000000
00010000
,
10000000
00000000
00010000
00001000
00010000
00000000
00000001
00001000
,
00000001
00000000
00010000
00001000
00010000
00100000
10000000
00100000
,
00010000
00000000
00001000
00010000
00001000
00000000
00000001
00000000
,
00001000
00000000
00001000
00000000
00010000
00001000
00000220
00000330
,
00000001
00000100
00001000
00010000
00001000
00010000
10000000
01000000
,
00001000
00010000
00001000
00010000
00000001
00001000
00010000
10000000
,
01000000
00010000
00001000
00010000
00001000
00010000
00000100
00000001
,
00001000
00000000
00000001
00000000
00001000
00000000
00000001
00000000
00001000
00000000
00010000
00000000
01000000
00000000
10000000
00010000
,
10000000
00100000
00010000
00001000
00010000
00001000
00000001
00000010
,
00010000
00000000
00001000
00000000
00010000
00000000
00001000
00000000
10000000
00000000
00010000
00000000
00001000
00000000
00000001
00001000
,
00000001
00000000
00000100
00000000
00001000
00000000
00010000
00000000
00001000
00010000
00001000
00100000
00001000
00010000
00000010
00010000
,
00001000
00000000
00001000
00000000
00000001
00001000
00010000
10000000
,
10010000
00100000
00001000
00000010
,
00000001
00000010
00010000
00100000
,
10000000
01000000
00001000
00000100
,
00000001
00000100
00010000
01000000
,
10000000
10000000
00100000
00100000
00001000
00001000
00000010
00000010
,
00000001
00000001
00000010
00000010
00001000
00001000
00100000
00100000
,
10000000
01000000
00001000
00000100
00000001
00000100
00010000
01000000
,
20000000
00000000
00000000
30000000
,
01100000
00000000
00000000
00000000
10000000
00000000
01000000
00010000
00001000
00000000
00000000
00000000
00010000
00000000
00001000
00000100
,
00000001
00000020
00000030
00000110
,
00001001
00000000
00000000
00000000
00000001
00000010
00000100
00000000
00000002
00000000
00000000
00000000
00000103
00000000
00020000
00000000
,
00000000
00000000
00031000
00000000
00001000
00000000
00001000
00000000
00001000
00000000
00010000
00100000
02000000
00000000
00000000
00000000
,
03010000
00000000
00000000
00000000
10000000
00100000
01000000
00000000
20000000
00000000
00000000
00000000
31000000
00000000
00002000
00000000
,
00000000
00000000
00013000
00000000
00010000
00000000
00010000
00000000
00001000
00010000
00001000
00010000
00000200
00000000
00000300
00000000
,
00001001
00000000
00000000
00000000
00000001
00000100
00000010
00000000
00000002
00000000
00000000
00000000
00000013
00000000
00020000
00000000
,
00000000
00000000
00031000
00000000
00001000
00000000
00001000
00000000
00001000
00000000
00010000
01000000
00200000
00000000
00010000
00000000
,
00310000
00000000
00000000
00000000
10000000
01000000
00100000
00000000
20000000
00000000
00000000
00000000
30100000
00000000
00002000
00000000
,
00013000
00000000
00010000
00000000
00010000
00001000
00000110
00000000
,
00001001
00000000
00001000
00000000
00000001
00000010
00000100
00000000
00000002
00000000
00000100
00000000
00000103
00000000
00020000
00000000
,
00031000
00000000
00010000
00000000
00010000
00000000
00010000
00000000
00010000
00000000
00010000
00100000
01000000
00000000
01100000
00000000
,
00100000
00000000
10000000
00000000
10000000
01000000
00100000
00000000
20000000
00000000
00100000
00000000
30100000
00000000
00002000
00000000
,
00013000
00000000
00001000
00000000
00001000
00000000
00001000
00000000
00001000
00010000
00001000
00000100
00000010
00000000
00000000
00000000
,
00001001
00000000
00001000
00000000
00000001
00000100
00000010
00000000
00000002
00000000
00000010
00000000
00000013
00000000
00020000
00000000
,
00031000
00000000
00010000
00000000
00010000
00000000
00010000
00000000
00010000
00000000
00010000
01000000
00100000
00000000
01100000
00000000
,
01000000
00000000
10000000
00000000
00100000
00000000
00010000
00000000
00001000
00010000
00001000
00100000
00001000
00010000
00000100
00010000
,
00001000
00000010
00000001
00000010
00001000
00010000
01100000
00000000
,
00012000
00103000
00000000
00000000
00000000
00000000
00000000
00000000
;

//---------------dance-double - RGTM-DDP----------------
#NOTES:
     dance-double:
     RGTM:
     Medium:
     13:
     0.619048,0.753843,0.703704,0.185185,0,585,490,95,25,0,0,0.619048,0.753843,0.703704,0.185185,0,585,490,95,25,0,0:
00000000
00000000
00000000
00000000
,
00020000
00031000
00000000
00000000
00000000
00000000
00000000
00000000
,
00000000
00000000
00000000
00000000
,
00000000
00000000
00000000
00000000
,
00000000
00000000
00000000
00000000
,
00000000
00000000
00000000
00000000
00000000
00000000
00000000
00001000
,
01000000
00000000
00000000
01010000
,
11000000
00000000
00000000
00000000
00000000
00000000
00000000
10000000
,
00100000
00000000
00000000
00110000
,
00011000
00000000
00010000
00000000
00001000
00000000
00001000
00010000
,
00000010
00000010
00000100
00000101
,
00001100
00000000
00001000
00000000
00000001
00000000
00000001
00000100
,
00000010
00000010
00001000
00001100
,
00011000
00000000
00001000
00000000
00010000
00000000
00010000
00001000
,
00100000
00100000
01000000
11000000
,
01010000
00000000
00010000
00000000
10000000
00000000
10000000
01000000
,
00100000
00100000
00010000
01010000
,
00011000
00010000
00001000
00001000
,
00000010
00000000
00000010
00000000
00000001
00000010
00000001
00000000
,
00000100
00000100
00000010
00000010
,
00001000
00000000
00000100
00001000
00000100
00000000
00010000
00000000
,
00001000
00001000
00010000
00010000
,
00100000
00000000
00100000
00000000
10000000
00100000
10000000
00000000
,
01000000
00000000
00100000
01000000
00100000
00000000
00010000
00000000
,
01000000
00000000
00001000
00010000
00001000
00000000
00010000
00000000
,
00011000
00001000
00000010
00000010
,
00001000
00001000
00000001
00001000
,
00010000
00010000
00100000
00100000
,
00010000
00010000
10000000
00010000
,
00001000
00000010
00000001
00000100
,
00010000
00100000
10000000
01000000
,
00001000
00010000
00000010
00000000
00010000
00001000
00100000
00000000
,
00020000
00000000
00000000
01030000
,
11000000
01010000
00100000
00001000
,
00101000
00000000
00001010
00001000
00000100
00000010
00000001
00000000
,
00000101
00001100
00000010
00010000
,
00010010
00000000
00101000
00001000
01000000
00100000
10000000
00100000
,
10100000
00110000
01000000
00001000
,
01001000
00000000
00001100
00001000
00000010
00000100
00000001
00000000
,
00000011
00000000
00001010
00001000
00000100
00000000
00011000
00000000
,
01010000
00000000
00000000
00000000
01100000
00000000
00100000
00000000
10000000
00000000
00000000
00000000
02000000
00000000
00000000
03000000
,
11000000
00011000
00000010
00000001
,
00000101
00000000
00011000
00001000
00100000
01000000
10000000
00000000
,
10100000
00011000
00000100
00000001
,
00000011
00000000
00011000
00010000
00000100
00000010
00000001
00000100
,
00000101
00011000
00100000
10000000
,
11000000
00000000
00011000
00010000
00000010
00000100
00000001
00000010
,
00000011
00000001
00000100
00000010
00010000
00001000
00010000
00001000
,
00010000
00000000
00100000
01000000
00100000
00000000
01100000
00000000
,
00011000
00010000
00010000
00001000
,
00000010
00000000
00000010
00000000
00000001
00000010
00000100
00001000
,
00000001
00000100
00000100
00001000
,
00010000
00000000
00010000
00000000
00010000
01000000
00100000
01000000
,
00010000
00001000
00001000
00010000
,
00100000
00000000
00100000
00000000
10000000
00100000
01000000
00010000
,
10000000
10000000
01000000
00010000
,
00001000
00000000
00001000
00000000
00010000
00001000
00000010
00001000
,
00011000
00010000
01000000
01000000
,
00010000
00010000
10000000
00010000
,
00001000
00001000
00000100
00000100
,
00001000
00001000
00000001
00001000
,
00010000
01000000
10000000
00100000
,
00001000
00000100
00000001
00000010
,
00010000
00001000
01000000
00000000
00001000
00010000
00000100
00000000
,
00002000
00000000
00000000
00003010
,
00000011
00010100
00000101
00010000
,
00101000
00000000
10100000
00000000
00010000
00100000
01000000
10000000
,
00100000
11000000
01001000
00100000
,
00010010
00000000
00000011
00000000
00001000
00000000
00000010
00000100
,
00000101
00010010
00000011
00010000
,
01001000
00000000
11000000
00000000
00010000
01000000
00100000
10000000
,
01000000
01000000
10100000
00101000
,
00010100
00000000
01010000
00000000
00001000
00010000
00000100
00000010
,
00000011
00010100
01001000
00010000
,
10100000
00000000
00101000
00000000
00001000
00100000
01000000
10000000
,
10100000
01001000
00010100
00001000
,
00000011
00000000
00010010
00000000
00010000
00001000
00000010
00000001
,
00000101
00010010
00101000
00010000
,
11000000
00000000
01001000
00000000
00001000
01000000
00100000
10000000
,
10100000
00100000
01000000
00100000
00010000
00001000
00010000
00001000
,
00010000
00000000
00001000
00000000
00000100
00000010
00000100
00000000
,
00011000
00010000
01000000
01000000
,
10000000
10000000
01000000
00010000
,
00001000
00001000
00000100
00000100
,
00000001
00000001
00000100
00001000
,
00010000
01000000
10000000
00010000
,
00001000
00000010
00000001
00001000
,
00010000
00100000
00010000
00000000
00001000
00000010
00001000
00000000
,
00020000
00000000
00000000
00030000
,
00011000
01100000
00011000
00010000
,
00000110
00012000
00000000
01003000
,
01100000
00000000
10000000
00010000
20000000
00000000
31000000
00200000
,
00000000
00310000
00100000
01000000
00100000
00001000
00020000
00000000
,
00031000
00000000
00000010
00000100
00000020
00000000
00000031
00002000
,
00000000
00003100
00010000
00001000
00010000
00000100
00000010
00000000
,
00000110
00000000
00000001
00001000
00000002
00000000
00000103
00000020
,
00000000
00001030
00000010
00000100
00000010
00010000
00002000
00010000
,
00013000
00000000
00100000
01000000
00200000
00000000
10300000
00020000
,
10030000
10010000
00100000
01100000
,
10010000
00000000
10000000
01000000
00200000
00000000
01300000
00020000
,
00000000
00031000
00010000
00100000
00010000
00001000
00000020
00000100
,
00000130
00000000
00001000
00000010
00000200
00000000
00000301
00000020
,
00000000
00000130
00010000
00001000
00000100
00000100
00000000
00000000
,
00001001
00000000
00000001
00000100
00000020
00000000
00000130
00002000
,
00000000
00013000
00001000
00000010
00001000
00010000
00200000
01000000
,
01300000
00100000
10000000
01000000
00010000
00001000
00010000
00001000
,
00010000
00011000
00001001
00011000
,
00020000
10030000
00000000
00000000
00000000
00000000
00000000
00000000
;

//---------------dance-double - RGTM-BDP----------------
#NOTES:
     dance-double:
     RGTM:
     Easy:
     10:
     0.367196,0.515787,0.133333,0.051852,0,347,329,18,7,0,0,0.367196,0.515787,0.133333,0.051852,0,347,329,18,7,0,0:
// measure 0
00000000
00000000
00000000
00000000
,  // measure 1
00022000
00033000
00000000
00000000
00000000
00000000
00000000
00000000
,  // measure 2
00000000
00000000
00000000
00000000
,  // measure 3
00000000
00000000
00000000
00000000
,  // measure 4
00000000
00000000
00000000
00000000
,  // measure 5
00000000
00000000
00000000
00000000
,  // measure 6
10000000
00000000
00000000
01000000
,  // measure 7
01000000
00000000
00000000
00000000
,  // measure 8
00010000
00000000
00000000
00001000
,  // measure 9
00001000
00000000
00000000
00000000
,  // measure 10
00000100
00000000
00000000
00000001
,  // measure 11
00000001
00000000
00000000
00000000
,  // measure 12
00000010
00000000
00000000
00010000
,  // measure 13
00010000
00000000
00000000
00000000
,  // measure 14
00001000
00000000
00000000
01000000
,  // measure 15
01000000
00000000
00000000
00000000
,  // measure 16
00100000
00000000
00000000
10000000
,  // measure 17
10000000
00000000
01000000
00000000
,  // measure 18
00100000
00000000
00001000
00010000
,  // measure 19
00001000
00000000
00000100
00000000
,  // measure 20
00000010
00000000
00001000
00000001
,  // measure 21
00000001
00000000
00000010
00000000
,  // measure 22
00000100
00000000
00010000
00001000
,  // measure 23
00010000
00000000
00100000
00000000
,  // measure 24
01000000
00010000
10000000
00000000
,  // measure 25
10000000
00000000
01000000
00000000
,  // measure 26
00100000
00000000
00010000
00000000
,  // measure 27
00001000
00000000
00000100
00000000
,  // measure 28
00000010
00000000
00000001
00000000
,  // measure 29
00000001
00000000
00000100
00000000
,  // measure 30
00000010
00000000
00001000
00000000
,  // measure 31
00010000
00010000
01000000
01000000
,  // measure 32
00200000
00000000
00300000
00000000
,  // measure 33
10000000
10000000
01000000
01000000
,  // measure 34
00100000
00000000
00100000
00000000
00001000
00010000
00001000
00000000
,  // measure 35
00010000
00010000
00000010
00000010
,  // measure 36
00000100
00000000
00000001
00001000
00000001
00000000
00001000
00000000
,  // measure 37
00000001
00000001
00000010
00000010
,  // measure 38
00000100
00000000
00000100
00000000
00010000
00001000
00010000
00000000
,  // measure 39
00001000
00001000
01000000
00100000
,  // measure 40
01000000
01000000
00010000
10010000
,  // measure 41
10000000
01000000
00100000
00100000
,  // measure 42
00010000
00000000
01000000
00000000
00001000
00010000
00001000
00000000
,  // measure 43
00010000
00000100
00000010
00000010
,  // measure 44
00000001
00001000
00000010
00001001
,  // measure 45
00000001
00000100
00000010
00000010
,  // measure 46
00001000
00000000
00000100
00000000
00010000
00001000
00010000
00000000
,  // measure 47
00001000
00000000
01000000
00000000
00100000
01000000
00100000
01000000
,  // measure 48
00100000
10000000
01000000
01100000
,  // measure 49
10010000
00000000
00000000
10000000
,  // measure 50
01000000
00000000
00100000
00000000
,  // measure 51
00001000
00000000
00000000
00010000
,  // measure 52
00000100
00000000
00000010
00000000
,  // measure 53
00000001
00000000
00000000
00000001
,  // measure 54
00000100
00000000
00000010
00000000
,  // measure 55
00010000
00000000
00010000
00001000
,  // measure 56
01000000
00000000
00100000
00000000
,  // measure 57
10000000
00000000
00100000
00000000
,  // measure 58
01000000
00000000
00010000
00000000
,  // measure 59
00001000
00000000
00000010
00000000
,  // measure 60
00000100
00000000
00000001
00000000
,  // measure 61
00000001
00000000
00000010
00000000
,  // measure 62
00000100
00000000
00001000
00000000
,  // measure 63
00010000
00010000
00100000
00100000
,  // measure 64
02000000
00000000
03000000
00000000
,  // measure 65
10000000
00100000
00100000
01000000
,  // measure 66
00001000
00000000
00001000
00000000
00010000
00001000
00010000
00000000
,  // measure 67
00001000
00000100
00000100
00000010
,  // measure 68
00001000
00000000
00001000
00000000
00000001
00001000
00000001
00000000
,  // measure 69
00000001
00000010
00000010
00000100
,  // measure 70
00010000
00000000
00010000
00000000
00001000
00010000
00001000
00000000
,  // measure 71
00010000
00010000
01000000
00100000
,  // measure 72
01000000
01000000
10000000
01100000
,  // measure 73
10010000
10000000
01000000
00100000
,  // measure 74
01000000
00000000
01000000
00000000
00010000
00001000
00010000
00000000
,  // measure 75
00001000
00000100
00000100
00000010
,  // measure 76
00001000
00000000
00000100
00000000
00001000
00000001
00001000
00000000
,  // measure 77
00000001
00000100
00000100
00000010
,  // measure 78
00001000
00000000
00000100
00000000
00010000
00001000
00010000
00000000
,  // measure 79
00001000
00000000
01000000
00000000
00100000
01000000
00100000
01000000
,  // measure 80
00100000
10000000
01000000
00100000
,  // measure 81
10010000
00000000
10000000
00000000
,  // measure 82
01000000
00000000
01000000
00000000
,  // measure 83
00010000
00000000
00010000
00000000
,  // measure 84
00001000
00000000
00001000
00000000
,  // measure 85
00000100
00000100
00000010
00000010
,  // measure 86
00001000
00001000
00000001
00000001
,  // measure 87
00000010
00000100
00010000
00001000
,  // measure 88
00020000
00000000
00000000
00030000
,  // measure 89
00011000
00000000
01100000
00000000
,  // measure 90
10010000
00100000
00000000
01100000
,  // measure 91
10010000
10000000
01000000
00100000
,  // measure 92
01000000
10000000
00100000
01000000
,  // measure 93
00001000
00010000
00001000
00000100
,  // measure 94
00000010
00000000
00001000
00000000
00000100
00000010
00000100
00000000
,  // measure 95
00001001
00000001
00000100
00000010
,  // measure 96
00000100
00000001
00000010
00000100
,  // measure 97
00010000
00001000
00010000
01000000
,  // measure 98
00100000
00000000
00100000
00000000
00100000
01000000
00100000
00000000
,  // measure 99
10010000
10000000
01000000
00010000
,  // measure 100
00001000
00000000
01000000
00000000
00100000
00000000
00010000
00001000
,  // measure 101
00010000
00000100
00000010
00000001
,  // measure 102
00000100
00000000
00001000
00000000
00010000
00000100
00000000
00000000
,  // measure 103
00001001
00000001
00000010
00001000
,  // measure 104
00010000
00000000
00000010
00000000
00000100
00000000
00001000
00010000
,  // measure 105
00001000
00000000
01000000
00000000
00100000
01000000
00100000
01000000
,  // measure 106
00100000
10000000
01000000
01100000
,  // measure 107
20020000
30030000
00000000
00000000
00000000
00000000
00000000
00000000
;
