#TITLE:BroGamer;
#ARTIST:USAO;
#BANNER:BroGamer.png;
#BACKGROUND:BroGamer-bg.png;
#MUSIC:BroGamer.ogg;
#OFFSET:1.10942;
#SAMPLESTART:98.456;
#SAMPLELENGTH:15;
#BPMS:0=207;
#BGCHANGES:0.5=BroGamer.avi=1=0=0=0=StretchNoLoop====,99999=-nosongbg-=1=0=0=0 // don't automatically add -songbackground-;

//---------------dance-single - NewbStepper-ESP----------------
#NOTES:
     dance-single:
     NewbStepper:
     Hard:
     17:
     0.886052,1.048986,0.801044,0.114435,0.495884,813,708,105,15,0,0,0.886052,1.048986,0.801044,0.114435,0.495884,813,708,105,15,0,0:
0000
0000
0000
0000
,
0000
0000
0000
0000
,
0000
0000
0000
0000
,
0000
0000
0000
0000
,
0000
0000
0000
0000
,
0000
0000
0000
0000
,
0011
0000
1000
1000
0001
1000
0100
0000
,
0010
0000
0001
0000
0100
0010
0100
0000
1000
0000
0100
0000
0001
0000
0010
0000
,
0001
0000
0000
0001
0100
0000
0010
0000
1000
0010
1000
0010
0100
0010
0100
0010
,
1000
0000
0000
0000
,
0101
0000
0010
1000
0100
0000
0010
0000
,
0200
0000
0001
0000
0310
0000
0011
0001
,
0100
1010
0100
0011
,
0100
0000
0000
0000
1001
0000
0000
0000
0010
0000
1000
0000
0100
0000
0010
0001
,
0010
0000
0100
0000
1000
0000
0010
1000
0001
0000
0100
0000
0100
0000
0001
0010
,
0001
0000
0001
0000
0100
0000
0100
0000
0010
0000
0010
0000
1000
0010
1000
0010
,
0100
0000
0110
0000
1001
0000
0000
0000
0010
0001
0010
0001
0010
0000
1000
0000
,
0001
0000
0001
0000
0100
0000
1000
0100
0010
0000
0001
0000
0101
0000
0000
0000
,
0010
0000
1000
0010
1000
0000
0001
0000
0010
0000
1000
0000
0010
0000
0001
0000
,
0101
0000
0100
0000
1000
0000
0100
0000
0010
0000
1000
0000
0001
1000
0100
1000
,
0001
0000
1000
0100
1000
0000
0001
0100
0001
0000
0100
0000
1000
0000
1000
0000
,
0100
0000
0001
0100
0010
0000
1000
0100
0010
0000
0010
0000
1001
0000
0000
0000
,
0010
0000
0001
0010
0001
0000
1000
0000
0010
0000
0001
0000
0010
0000
1000
0000
,
1100
0000
0100
0000
0001
0000
0100
0000
0010
0000
0001
0000
1000
0001
0100
0001
,
1000
0000
0001
0100
0001
0000
1000
0100
1000
0000
0001
0100
0001
0100
0010
0100
,
0010
1000
0100
0010
0002
0000
0003
0000
,
1010
0100
0001
0010
0110
0000
1100
0010
,
0000
1000
0010
0001
0100
0010
1001
0000
,
0011
0100
1000
0010
0100
0100
0101
0000
,
0010
0000
0001
0010
0001
0000
1000
0010
1000
0000
0010
0000
0010
0000
0000
0000
,
1000
0000
0100
0010
0100
0000
1000
0000
1100
0000
0010
0000
0011
0000
0001
0000
,
0101
0000
0000
0000
0000
0000
0010
0000
0000
1000
0000
0000
0010
0000
0000
0000
0000
0000
0100
0000
0000
0001
0000
0000
0100
0000
0000
0000
0000
0000
0010
0000
0000
0000
0000
0000
1000
0000
0000
0000
0100
0000
0000
0000
0010
0000
0000
0000
,
0100
1000
0100
0010
0001
0000
0100
0000
0010
0000
1000
0000
0001
0010
0100
1000
,
0200
0000
0000
0300
,
1000
0100
0001
0100
2000
0000
3010
0000
,
0100
0100
0001
0010
1000
0010
0001
0000
,
0101
1000
1100
0001
,
0010
0000
0001
0100
1000
0100
0002
0000
,
0013
0000
0000
0000
1000
0000
1000
0000
0010
0000
0001
0100
0010
0000
0010
0000
,
0100
0000
0001
0100
0001
0000
1000
0100
1000
0000
0001
0100
0001
0100
0010
0000
,
1000
0100
0001
1000
0010
0001
0101
0000
,
0220
0000
0000
0330
,
1000
0010
0010
0100
0100
0010
1000
1000
,
0001
0010
1000
0010
0001
0100
0100
0001
,
1000
0010
1000
0010
0100
0001
0100
0001
0010
0100
0010
0100
1000
0001
1000
0001
,
0020
0000
0000
0030
,
0101
0000
0000
0110
0000
0000
1010
0000
0000
1001
0000
0000
0110
0000
0000
0000
,
1100
0000
0000
0110
0000
0000
0011
0000
0000
1001
0000
0000
0110
0000
0000
0000
,
1010
0000
0000
0110
0000
0000
0101
0000
0000
1001
0000
0000
0110
0000
0000
0000
,
0011
0000
0000
0110
0000
0000
1100
0000
1000
0000
0100
0000
0001
0000
0100
0000
,
1000
0000
0000
1100
0000
0000
0110
0000
0000
0011
0000
0000
0110
0000
0000
0000
,
0001
0000
0000
0101
0000
0000
0110
0000
0000
1010
0000
0000
0100
0000
0010
0000
,
0100
0000
0000
1010
0000
0000
0101
0000
0100
0000
0001
0000
0100
0000
0010
0000
,
1000
0000
0001
0100
0000
0010
0100
0000
1000
0100
0000
0001
0100
0000
0000
0000
,
0002
0000
0000
0000
,
0000
0000
0000
0000
,
0203
0000
0000
0000
,
0000
0000
0000
0000
,
0320
0000
0000
0000
,
0000
0000
0000
0000
,
2030
0000
3000
0000
,
1001
0000
0000
0000
,
0011
0100
1000
0010
0001
0000
0010
1000
,
0100
0110
0000
0110
0000
0001
1000
0001
,
0010
1000
0001
0100
1000
0010
1000
0000
,
0001
0100
0010
0000
0110
0000
0000
0000
,
1010
0100
0001
0010
1000
0000
0010
0001
,
0100
0110
0000
0110
0000
1000
0001
1000
,
1010
0000
0101
0000
,
0220
0000
0000
0330
,
1000
0010
0010
0100
0010
0000
0001
0010
,
1000
0100
0000
0110
0000
0001
0100
0000
,
0010
0100
0010
0000
1000
0100
1000
0000
0010
0100
0010
0000
1000
0100
1000
0000
,
0001
0000
1000
0100
1000
0000
0001
0100
0001
0100
0010
0100
0010
0000
0000
0000
,
1010
1000
0100
0010
0011
0000
0101
0100
,
0110
1001
0010
1001
,
0010
0000
0001
0000
0100
0001
0100
0001
0100
0000
0010
0000
1000
0001
1000
0001
,
0100
0000
0000
0000
,
0011
0000
0100
1000
0010
0000
0100
0001
,
0010
0100
0000
1100
0000
0010
0000
0101
,
0010
0000
1000
0100
0001
0100
1000
0010
,
0001
0000
0010
0100
0010
0000
1000
0001
1000
0100
0010
0001
0010
0100
1000
0000
,
1010
0000
0100
0001
0010
0000
0100
1000
,
0010
0100
0000
0001
0010
0010
0010
0000
,
0110
0000
0000
0000
1000
0000
0001
0000
0010
0001
0010
0001
1000
0000
0010
0000
,
1010
0000
0100
0000
0001
0010
0001
0000
1000
0010
1000
0000
0100
0000
0000
0000
,
0010
0000
0001
0010
0001
0000
1000
0000
0010
0000
0001
0000
0010
0000
1000
0000
,
1100
0000
0100
0000
0001
0000
0100
0000
0010
0000
0001
0000
1000
0001
0100
0001
,
1000
0000
0001
0100
0001
0000
1000
0100
1000
0000
0100
0000
0001
0000
0001
0000
,
0100
0000
1000
0100
0010
0000
0001
0100
0010
0000
0010
0000
1001
0000
0000
0000
,
0010
0000
1000
0010
1000
0000
0001
0000
0010
0000
1000
0000
0010
0000
0001
0000
,
0101
0000
0100
0000
1000
0000
0100
0000
0010
0000
1000
0000
0001
1000
0100
1000
,
0001
0000
1000
0100
1000
0000
0001
0100
0001
0000
1000
0100
1000
0100
0010
0100
,
0010
0000
0001
0000
0101
0000
0000
0000
0010
1000
0010
0000
0100
0000
0000
0000
,
1010
0000
0100
0001
0010
0000
0100
1000
,
0010
0100
0000
0101
0000
0010
0000
1100
,
0010
0000
0001
0100
1000
0100
0001
0010
,
1000
0000
0010
0100
0010
0000
0001
1000
0001
0100
0010
1000
0010
0100
0001
0000
,
0011
0000
0100
1000
0010
0000
0100
0001
,
0010
0100
0000
1100
0000
0010
0000
0101
,
0010
0000
0000
0000
0001
0000
1000
0000
0010
1000
0010
1000
0001
0000
0010
0000
,
0011
0000
0100
0000
1000
0010
1000
0000
0001
0010
0001
0000
0100
0000
0000
0000
,
1100
0000
0000
0110
0000
0000
0011
0000
0000
1001
0000
0000
0110
0000
0000
0000
,
0101
0000
0000
0110
0000
0000
1010
0000
0000
1001
0000
0000
0110
0000
0000
0000
,
0011
0000
0000
0110
0000
0000
1100
0000
0000
1001
0000
0000
0110
0000
0000
0000
,
0011
0000
0000
1001
0000
0000
1000
0010
0100
0000
0010
0000
0010
0000
0000
0000
,
1000
1000
0100
0100
,
0010
0010
0001
0001
,
1000
0100
1000
0000
0001
0100
0001
0000
1000
0100
0010
0000
0001
0100
0001
0100
,
0020
0000
0000
0000
0030
0000
0000
0000
0100
0010
0100
0010
0100
0000
0000
0000
,
1001
0000
0000
0000
;

//---------------dance-single - NewbStepper-DSP----------------
#NOTES:
     dance-single:
     NewbStepper:
     Medium:
     14:
     0.675710,0.755270,0.534029,0.129693,0.091548,620,550,70,17,0,0,0.675710,0.755270,0.534029,0.129693,0.091548,620,550,70,17,0,0:
0000
0000
0000
0000
,
0000
0000
0000
0000
,
0000
0000
0000
0000
,
0000
0000
0000
0000
,
0000
0000
0000
0000
,
0000
0000
0000
0000
,
1010
0000
0100
0100
0001
0000
0010
0000
,
0011
0000
0100
0100
1000
0000
0010
0000
,
1000
0100
0010
0001
0100
0010
1000
0100
,
0110
0000
0000
0000
,
0101
0010
0010
0010
,
1100
0000
0010
0000
0001
0000
0100
0010
,
1010
0100
0100
0100
,
0011
0100
1000
0001
,
0100
0010
0001
0000
1000
0100
0001
0010
,
0100
0100
0001
0100
1000
0010
0100
0001
,
0010
1000
0010
0001
0100
0100
1000
0100
,
0001
0010
0100
1000
0010
0100
0001
0000
,
1000
0100
0010
0001
1000
0000
1010
0000
,
0100
0000
0011
0000
0100
0100
0110
0000
,
1000
0100
0001
0100
1000
0010
0100
0001
,
0010
0100
0100
0010
0001
0001
1000
0000
,
0001
0100
0010
1000
0001
0000
0011
0000
,
0100
0000
1010
0000
0100
0100
0110
0000
,
0001
0100
1000
0100
0001
0010
0100
1000
,
0010
0100
0100
0010
2000
0000
3000
0000
,
0001
0100
1000
0100
0001
0000
0010
0001
,
0000
0100
1000
0100
0010
1000
0001
0000
,
1000
0100
0010
0100
1000
0010
0100
0000
,
0001
0010
1000
0010
0001
0100
0110
0000
,
1001
0000
0010
0000
0001
0100
1000
0001
,
0010
1000
0100
0010
0001
0100
0100
0010
,
1000
0100
0001
1000
0010
0001
0100
0000
,
0220
0000
0000
0330
,
1000
0100
0001
0100
2000
0000
3010
0000
,
0110
0000
0001
0100
1000
0100
0001
0000
,
0010
0000
0101
0000
0010
1000
0100
0100
,
0010
0000
0001
0100
1000
0100
0002
0000
,
0013
0000
0100
0100
1000
0010
0010
0100
,
0001
0000
0000
0010
0000
0000
1000
0000
0000
0001
0000
0000
0100
0000
0000
1000
0000
0000
0010
0000
0100
0000
0010
0000
,
0100
0001
1000
0010
0001
0010
1000
0000
,
2002
0000
0000
3003
,
1010
0100
0001
0000
,
0011
0100
1000
0000
,
0001
0100
0010
1000
0100
0001
0100
1000
,
0020
0000
0000
0030
,
1010
0000
0000
0010
0000
0000
0100
0000
0000
0100
0000
0000
0101
0000
0000
0000
,
0011
0000
0000
0010
0000
0000
0100
0000
0000
0100
0000
0000
1100
0000
0000
0000
,
1001
0000
0000
0001
0000
0000
0010
0000
0000
0100
0000
0000
1100
0000
0000
0000
,
1001
0000
0000
1000
0000
0000
0010
0000
0100
0000
0001
0000
0101
0000
0000
0000
,
0010
0000
0000
0011
0000
0000
0100
0000
0000
1100
0000
0000
1001
0000
0000
0000
,
0010
0000
0000
1010
0000
0000
0100
0000
0000
0101
0000
0000
1001
0000
0000
0000
,
1000
0000
0000
1010
0000
0000
0010
0000
0000
0110
0000
0000
0101
0000
0000
0000
,
0010
0001
0100
1000
0001
0010
1000
0000
,
0200
0000
0000
0000
,
0000
0000
0000
0000
,
2300
0000
0000
0000
,
0000
0000
0000
0000
,
3002
0000
0000
0000
,
0000
0000
0000
0000
,
0203
0000
0300
0000
,
1001
0000
0000
0000
,
0011
0000
0100
1000
0100
0000
0010
0001
,
0010
0100
0000
0100
0000
0100
0000
1000
,
0010
0000
0000
1000
0000
0100
0010
0000
,
0001
0100
1000
0000
0110
0000
0000
0000
,
1010
0000
0100
0001
0100
0000
0010
1000
,
0010
0100
0000
0100
0000
0100
0000
0001
,
0011
0000
0000
0100
0000
1000
0000
0000
,
2020
0000
0000
3030
,
0100
0001
0010
0100
0010
0000
1000
0010
,
0001
0100
0000
0100
0000
0100
0000
0100
,
0010
1000
0100
0001
0100
1000
0001
0100
,
1000
0100
0001
0010
0100
1000
1010
0000
,
0110
0000
0001
0000
0110
0000
1010
1000
,
0100
0011
0110
1100
,
0001
0100
0010
1000
0100
0010
0001
0100
,
0110
0000
0000
0000
,
1001
0000
0100
0001
0010
0000
0100
1000
,
0020
0000
0001
0000
0000
0000
0001
0000
0000
0030
0001
0000
0010
0000
1000
0000
,
0100
0000
0011
0000
0001
0100
0010
0000
,
1000
0100
0001
0000
0110
0000
0000
0000
,
1001
0000
0100
1000
0010
0000
0100
0001
,
0020
0000
1000
0000
0000
0000
1000
0000
0000
0030
1000
0000
0010
0000
0001
0000
,
0100
0000
1010
0000
1000
0100
0010
0000
,
0001
0100
1000
0100
0001
0010
0100
0000
,
1000
0100
0010
0100
0001
0100
1000
0010
,
0001
1000
0100
0001
0010
0010
0100
0000
,
0001
0100
1000
0100
0010
0001
0100
1000
,
0001
0010
1000
0000
0010
0010
0110
0000
,
0001
0100
0010
0100
1000
0100
0001
0010
,
1000
0001
0100
1000
0010
0010
0100
0000
,
1000
0100
0001
0100
0010
1000
0100
0001
,
1000
0010
0001
0000
0110
0000
1001
0000
,
0010
0000
1000
0100
0001
0000
1000
0010
,
0001
0010
0100
0001
1000
0010
0001
0100
,
1000
0000
0100
0000
0001
0010
0100
0000
,
1000
0001
0100
0010
1000
0000
1001
0000
,
0010
0000
0001
0100
1000
0000
0001
0010
,
1000
0010
0100
1000
0001
0010
1000
0100
,
0001
0000
0100
0000
1000
0010
0100
0000
,
0001
0001
0100
0100
0010
0010
1000
0000
,
0011
0000
0000
0010
0000
0000
0100
0000
0000
0100
0000
0000
1100
0000
0000
0000
,
1010
0000
0000
0010
0000
0000
0100
0000
0000
0100
0000
0000
0101
0000
0000
0000
,
1001
0000
0000
1000
0000
0000
0010
0000
0000
0100
0000
0000
0101
0000
0000
0000
,
1001
0000
0000
0001
0000
0000
0010
0000
0100
0000
1000
0000
1100
0000
0000
0000
,
0001
0001
0100
0100
,
0010
0010
1000
1000
,
0001
0001
0100
0100
0010
0010
1000
1000
,
0200
0000
0000
0000
0010
0010
0310
0000
,
1001
0000
0000
0000
;

//---------------dance-single - NewbStepper-BSP----------------
#NOTES:
     dance-single:
     NewbStepper:
     Easy:
     10:
     0.450110,0.629391,0.205983,0.137322,0,413,386,27,18,0,0,0.450110,0.629391,0.205983,0.137322,0,413,386,27,18,0,0:
0000
0000
0000
0000
,
0000
0000
0000
0000
,
0000
0000
0000
0000
,
0000
0000
0000
0000
,
0000
0000
0000
0000
,
0000
0000
0000
0000
,
0011
0000
0100
0000
1000
0000
0010
0100
,
0010
1000
0100
0000
,
1010
0000
0100
0000
0001
0100
0010
0000
,
0100
0000
0000
0000
,
0011
0001
0101
0001
,
1010
1000
1100
1000
,
0110
0100
0101
0100
,
1100
0100
0110
0010
,
1000
0100
1000
0000
0001
0100
0001
0000
,
1000
0000
0100
0000
0001
0100
1000
0000
,
0010
1000
0010
0000
0100
0001
0100
0000
,
1000
0100
0001
0000
0020
0000
0030
0000
,
0011
0000
0001
0100
0010
0000
1000
0000
,
0010
0000
0001
0000
0010
1000
0001
1000
,
0000
0010
0100
1000
0000
0100
0010
0000
,
1000
0000
0001
0000
0100
0100
0100
0000
,
1010
0000
1000
0100
0010
0000
0001
0000
,
0010
0000
1000
0000
0010
0001
1000
0001
,
0000
0010
0100
0001
0000
0100
0010
0000
,
0001
0000
1000
0000
0100
0100
0100
0000
,
1000
0000
0010
0000
0001
0000
0010
1000
,
0000
0010
1000
0010
0100
0010
0100
0000
,
0001
0000
0010
0000
0100
0010
0100
0000
,
1000
1100
0010
0101
,
0010
1000
0010
0000
0100
0001
0100
0000
,
0001
0010
0001
0010
0100
0010
0100
0000
,
1000
0010
1000
0000
0001
0010
0001
0000
,
0110
0000
0000
0000
,
1000
1000
0001
0001
,
0100
0000
0001
0100
1000
0100
0001
0000
,
0010
0000
0001
0000
0100
0010
1000
0010
,
0100
0001
0001
1000
,
1000
0000
0100
0000
1000
0100
0001
0100
,
1000
0010
1000
0100
,
0010
0100
0010
0000
0110
0000
1001
0000
,
0022
0000
0000
0033
,
1000
0100
0001
0000
,
1000
0010
0001
0000
,
1000
0010
1000
0010
0100
0010
0100
0001
,
0100
0000
0000
0000
,
0002
0000
0000
0010
0000
0000
0013
0000
,
2000
0000
0000
0010
0000
0000
3010
0000
,
0002
0000
0000
0100
0000
0000
0103
0000
,
2000
0000
0000
0100
0000
0000
3100
0000
,
0010
0001
0100
0000
,
0010
1000
0100
0000
,
0010
0001
0010
0100
1000
0001
0100
0000
,
0020
0000
0000
0030
,
2000
0000
0000
0000
,
0000
0000
0000
3000
,
0002
0000
0000
0000
,
0000
0000
0000
0003
,
0200
0000
0000
0000
,
0000
0000
0000
0300
,
0000
0000
0000
0000
,
0010
0000
0000
0000
,
1000
0100
0010
0000
,
0001
0100
0010
0000
,
1000
0000
0100
0010
0100
0000
0000
0000
,
0001
0100
1000
0000
0010
0000
0000
0000
,
1000
0000
0001
0000
,
0100
0100
0010
0000
,
1000
0000
0000
0010
0000
0010
0000
0000
,
0220
0000
0000
0330
,
1000
0001
0100
0001
,
1000
0100
0000
0100
0000
0100
0000
0000
,
0110
0001
0100
1000
,
0100
0000
0001
0000
0100
0010
0100
0000
,
0001
0000
0100
0000
0101
0000
0010
1000
,
0010
0000
1010
0000
0100
0000
0001
0100
,
0001
0000
0100
0010
0100
0010
0100
0010
,
0100
0000
0000
0000
,
1001
0010
0001
1000
,
0010
0001
0010
1000
,
0010
0000
0000
1000
0000
1000
0001
0000
,
0010
0001
0010
0000
0100
0000
0000
0000
,
1001
0010
1000
0001
,
0010
1000
0010
0001
,
0010
0000
0000
0001
0000
0001
1000
0000
,
0010
1000
0010
0000
0100
0000
0000
0000
,
0001
0100
0001
0100
0010
0000
0000
0000
,
1000
0000
0100
0000
1000
0010
1000
0000
,
0001
0001
1000
1000
,
0100
0100
0110
0000
,
1000
0100
1000
0100
0010
0000
0000
0000
,
0001
0000
0100
0000
0001
0010
0001
0000
,
1000
1000
0001
0001
,
0100
0100
0110
0000
,
0001
0100
1000
0000
,
0001
0010
1000
0000
,
0001
1000
0001
0100
,
0010
1000
0001
0000
,
1000
0100
0001
0000
,
1000
0010
0001
0000
,
1000
0001
1000
0100
,
0010
0001
1000
0000
,
0002
0000
0000
0010
0000
0000
0013
0000
,
2000
0000
0000
0010
0000
0000
3010
0000
,
0002
0000
0000
0100
0000
0000
0103
0000
,
2000
0000
0000
0100
0000
0000
3100
0000
,
0001
0000
0010
0000
,
0100
0000
1000
0000
,
0001
0100
0010
1000
,
0200
0000
0000
0300
,
0110
0000
0000
0000
;

//---------------dance-single - NewbStepper-bSP----------------
#NOTES:
     dance-single:
     NewbStepper:
     Beginner:
     7:
     0.240858,0.377635,0.076290,0.144951,0,221,211,10,19,0,0,0.240858,0.377635,0.076290,0.144951,0,221,211,10,19,0,0:
0000
0000
0000
0000
,
0000
0000
0000
0000
,
0000
0000
0000
0000
,
0000
0000
0000
0000
,
0000
0000
0000
0000
,
0000
0000
0000
0000
,
1000
0000
0000
0000
,
0001
0000
0000
0000
,
1000
0100
0010
0001
,
0010
0000
0000
0000
,
0101
0000
0100
0000
,
0010
1000
0010
1000
,
0100
0000
0100
0000
,
0010
0001
0010
0001
,
0100
0100
0010
0010
,
1000
0001
1000
0000
,
0001
1000
0001
1000
,
0010
0000
0000
0000
,
1000
0100
1000
0000
,
0001
0000
0001
0000
,
0001
0100
0001
0000
,
1000
0000
1000
0000
,
0001
0010
0001
0000
,
1000
0000
1000
0000
,
1000
0010
1000
0000
,
0001
0000
0001
0000
,
0010
0010
0001
0001
,
0000
1000
0100
1000
,
0010
0010
1000
1000
,
0000
0001
0100
0010
,
0110
0000
0000
0000
,
1001
0000
0000
0000
,
1100
0000
0011
0000
,
0110
0000
0000
0000
,
1000
0010
1000
0010
,
1000
0010
0100
0000
,
0001
0010
0001
0010
,
0100
1000
0010
0100
,
0000
0001
0010
0100
,
0000
1100
0000
0101
,
0000
0010
1000
0100
,
0020
0000
0000
0030
,
0001
0000
0000
0000
,
0000
0000
1000
0000
,
0002
0000
0000
0003
,
0000
0000
0000
0000
,
2000
0000
3000
0000
,
0002
0000
0003
0000
,
0200
0000
0300
0000
,
0020
0000
0030
0000
,
2000
0000
3000
0000
,
0200
0000
0300
0000
,
0020
0000
0030
0000
,
0002
0000
0003
0000
,
1000
0000
0000
0000
,
0000
0000
0000
0000
,
0001
0000
0000
0000
,
0000
0000
0000
0000
,
0100
0000
0000
0000
,
0000
0000
0000
0000
,
0010
0000
0000
0000
,
1000
0000
0000
0000
,
0001
0000
0001
0000
,
1000
0000
1000
0000
,
0010
0000
0010
0000
,
0100
0000
0000
0000
,
1000
0000
1000
0000
,
0001
0000
0001
0000
,
0010
0000
0010
0000
,
2002
0000
0000
3003
,
0010
1000
0010
0100
,
0000
0100
0000
0100
,
0001
0010
0100
1000
,
0010
0010
0010
0000
,
1000
0000
0001
0000
,
1000
0000
0001
0000
,
0100
0100
0100
0100
,
0010
0000
0000
0000
,
1000
0100
1000
0000
,
0001
0100
0001
0000
,
0010
0000
0100
0000
,
1000
0001
0100
0000
,
0001
0100
0001
0000
,
1000
0100
1000
0000
,
0010
0000
0100
0000
,
0001
1000
0100
0000
,
1000
0010
0100
0000
,
0001
0000
1000
0000
,
0001
0010
0100
0000
,
1000
0000
0001
0000
,
1000
0100
0010
0000
,
0001
0000
1000
0000
,
0001
0100
0010
0000
,
1000
0000
0001
0000
,
1000
0000
1000
0000
,
0001
0000
0001
0000
,
0100
0000
0100
0000
,
0010
0000
0000
0000
,
0001
0000
0001
0000
,
1000
0000
1000
0000
,
0100
0000
0100
0000
,
0010
0000
0000
0000
,
0002
0000
0003
0000
,
2000
0000
3000
0000
,
0020
0000
0030
0000
,
0200
0000
0300
0000
,
0002
0000
0003
0000
,
0020
0000
0030
0000
,
0200
0000
0300
0000
,
1000
0000
0000
0000
,
1001
0000
0000
0000
;

//---------------dance-double - NewbStepper-EDP----------------
#NOTES:
     dance-double:
     NewbStepper:
     Hard:
     17:
     0.862076,1.048986,0.740012,0.122064,0.453925,791,694,97,16,0,0,0.862076,1.048986,0.740012,0.122064,0.453925,791,694,97,16,0,0:
// measure 0
00000000
00000000
00000000
00000000
,  // measure 1
00000000
00000000
00000000
00000000
,  // measure 2
00000000
00000000
00000000
00000000
,  // measure 3
00000000
00000000
00000000
00000000
,  // measure 4
00000000
00000000
00000000
00000000
,  // measure 5
00000000
00000000
00000000
00000000
,  // measure 6
00010010
00000000
00001000
00000100
00000001
00000001
00000010
00000000
,  // measure 7
00001000
00000010
00000100
00001000
00010000
01000000
10000000
01000000
,  // measure 8
00010000
00000000
00000000
00010000
00100000
00000000
01000000
00000000
00100000
00010000
00100000
00001000
00010000
00001000
00010000
00000010
,  // measure 9
00001000
00000000
00000000
00000000
,  // measure 10
00000101
00000000
00000010
00001000
00000100
00000000
00000010
00000000
,  // measure 11
00002000
00010000
00103000
00110000
,  // measure 12
01000000
10100000
01000000
00110000
,  // measure 13
10000000
01000000
00010000
00011000
,  // measure 14
00000010
00000000
00000001
00000000
00000100
00000000
00001000
00010000
00100000
00000000
00010000
00000000
00010000
00000000
00001000
00100000
,  // measure 15
00010000
00000000
01000000
00000000
00100000
00000000
00010000
00000000
00001000
00000000
00000010
00000000
00001000
00010000
00001000
00100000
,  // measure 16
00010000
00000000
01010000
00000000
01100000
00000000
00000000
00000000
00100000
10000000
00100000
10000000
00100000
00000000
00010000
00000000
,  // measure 17
00001000
00000000
00001000
00000010
00000100
00000000
00010000
00000000
00001000
00000000
00000100
00000000
00000001
00000000
00000000
00000000
,  // measure 18
00000010
00000000
00000001
00000010
00000001
00000000
00001000
00000000
00000010
00000000
00000001
00000000
00000010
00000000
00001000
00000000
,  // measure 19
00010000
00000000
01000000
00000000
00100000
00000000
00010000
00000000
00001000
00000000
00010000
00000000
00100000
01000000
00010000
01000000
,  // measure 20
00100000
00000000
10000000
01000000
10000000
00000000
00010000
01000000
00010000
00000000
01000000
00000000
00100000
00000000
00010000
00000000
,  // measure 21
00001000
00000000
00000010
00000100
00000010
00000000
00001000
00010000
00001000
00000000
01000000
00000000
01100000
00000000
00000000
00000000
,  // measure 22
00100000
00000000
10000000
00100000
10000000
00000000
00010000
00000000
00100000
00000000
10000000
00000000
00100000
00000000
00010000
00000000
,  // measure 23
00001000
00000000
00000100
00000000
00000010
00000000
00001000
00000000
00010000
00000000
00001000
00000000
00000010
00000100
00001000
00000100
,  // measure 24
00000010
00000000
00000001
00000100
00000001
00000000
00001000
00000100
00001000
00000000
00000100
00010000
00000100
00010000
00001000
01000000
,  // measure 25
00001000
00100000
10000000
00100000
00020000
00000000
00030000
00000000
,  // measure 26
10000000
01000000
00010000
00001000
00000100
00000000
00000110
00000001
,  // measure 27
00000000
00000010
00001000
00010000
00000010
00001000
00001010
00000000
,  // measure 28
00000001
00000100
00001000
00010000
01000000
01000000
01100000
00000000
,  // measure 29
10000000
00000000
00100000
01000000
00100000
00000000
10000000
00100000
10000000
00000000
01000000
00000000
00010000
00000000
00000000
00000000
,  // measure 30
00001000
00000000
00100000
00010000
00100000
00000000
00001000
00010000
00001000
00000000
00000010
00000000
00000011
00000000
00000001
00000000
,  // measure 31
00000101
00000000
00000000
00000000
00000000
00000000
00000010
00000000
00000000
00001000
00000000
00000000
00000010
00000000
00000000
00000000
00000000
00000000
00010000
00000000
00000000
00001000
00000000
00000000
00010000
00000000
00000000
00000000
00000000
00000000
00001000
00000000
00000000
00000000
00000000
00000000
00010000
00000000
00000000
00000000
00100000
00000000
00000000
00000000
10000000
00000000
00000000
00000000
,  // measure 32
00010000
00000000
00100000
00001000
00100000
00000000
00010000
01000000
00010000
00000000
10000000
00000000
00100000
00010000
00001000
00000000
,  // measure 33
00000200
00000000
00000000
00000300
,  // measure 34
00000001
00000100
00001000
00000100
00000002
00000000
00000013
00000000
,  // measure 35
00001000
00001000
00010000
00001000
00000010
00001000
00010000
00000000
,  // measure 36
00011000
00000000
00100000
00000000
00001000
00010000
00100000
10000000
,  // measure 37
00010000
00000000
10000000
01000000
00010000
01000000
20000000
00000000
,  // measure 38
30100000
00000000
00000000
00000000
00010000
00000000
00010000
00000000
00001000
00000000
00000010
00000001
00001000
00000000
00001000
00000000
,  // measure 39
00000010
00000000
00000100
00000001
00000100
00000000
00001000
00000100
00001000
00000000
00010000
00001000
00010000
00001000
00100000
00000000
,  // measure 40
00010000
01000000
10000000
00010000
00100000
10000000
11000000
00000000
,  // measure 41
02200000
00000000
00000000
03300000
,  // measure 42
00010000
01000000
01000000
00100000
00100000
00010000
00001000
00001000
,  // measure 43
00000100
00000010
00001000
00000100
00000001
00001000
00001000
00000010
,  // measure 44
00000100
00001000
00000010
00000000
00001000
00000100
00010000
00000000
00001000
00100000
00010000
00100000
00001000
00100000
00010000
00100000
,  // measure 45
02000000
00000000
00000000
03000000
,  // measure 46
11000000
00000000
00000000
10100000
00000000
00000000
01010000
00000000
00000000
11000000
00000000
00000000
01100000
00000000
00000000
00000000
,  // measure 47
00011000
00000000
00000000
00101000
00000000
00000000
00011000
00000000
00000000
00010010
00000000
00000000
00000110
00000000
00000000
00000000
,  // measure 48
00000101
00000000
00000000
00000011
00000000
00000000
00001100
00000000
00000000
00000101
00000000
00000000
00000110
00000000
00000000
00000000
,  // measure 49
00011000
00000000
00000000
00010010
00000000
00000000
00011000
00000000
00001000
00000000
00010000
00000000
00100000
00000000
00000000
00000000
,  // measure 50
10100000
00000000
00000000
11000000
00000000
00000000
01010000
00000000
00000000
00011000
00000000
00000000
00101000
00000000
00000000
00000000
,  // measure 51
00010100
00000000
00000000
00001010
00000000
00000000
00000110
00000000
00000100
00000000
00000001
00000000
00000100
00000000
00000010
00000000
,  // measure 52
00001000
00000000
00000000
00010100
00000000
00000000
00101000
00000000
00010000
00000000
01000000
00000000
00100000
00000000
10000000
00000000
,  // measure 53
01000000
00000000
00010000
00001000
00000000
00100000
00001000
00000000
00010000
00000010
00000000
00010000
00001000
00000000
00000000
00000000
,  // measure 54
00000020
00000000
00000000
00000000
,  // measure 55
00000000
00000000
00000000
00000000
,  // measure 56
00002030
00000000
00000000
00000000
,  // measure 57
00000000
00000000
00000000
00000000
,  // measure 58
00023000
00000000
00000000
00000000
,  // measure 59
00000000
00000000
00000000
00000000
,  // measure 60
00230000
00000000
00300000
00000000
,  // measure 61
10010000
00000000
00000000
00000000
,  // measure 62
00110000
01000000
10000000
00100000
00010000
00000000
00001000
00010000
,  // measure 63
00100000
01100000
00000000
01100000
00000000
00010000
00001000
00000100
,  // measure 64
00000001
00000010
00001000
00010000
00000100
00001000
00000010
00000000
,  // measure 65
00010000
00001000
00000100
00000000
00000110
00000000
00000000
00000000
,  // measure 66
00001010
00000100
00000001
00000010
00001000
00000000
00010000
00001000
,  // measure 67
00000010
00000110
00000000
00000110
00000000
00001000
00010000
01000000
,  // measure 68
11000000
00000000
01010000
00000000
,  // measure 69
00022000
00000000
00000000
00033000
,  // measure 70
00100000
00001000
00010000
00100000
00010000
00000000
00001000
00000010
,  // measure 71
00000001
00000100
00000000
00000110
00000000
00000001
00000100
00000000
,  // measure 72
00000010
00000100
00000010
00000000
00010000
00001000
00010000
00000000
00000010
00000100
00000010
00000000
00001000
00000100
00001000
00000000
,  // measure 73
00000100
00000000
00010000
00001000
01000000
00000000
00010000
00100000
01000000
10000000
00010000
10000000
00100000
00000000
00000000
00000000
,  // measure 74
10100000
00000000
01000000
00000000
00110000
00000000
00101000
00001000
,  // measure 75
00011000
00000000
00000100
00000000
00001010
00000000
00010010
00010000
,  // measure 76
00001000
00000000
00000010
00000000
00000001
00000010
00000001
00000010
00000001
00000000
00000100
00000000
00001000
00010000
00000010
00010000
,  // measure 77
00001000
00000000
00000000
00000000
,  // measure 78
00110000
00000000
01000000
10000000
00100000
00000000
01000000
00100000
,  // measure 79
00010000
00001000
00000000
00011000
00000000
00100000
00000000
00010100
,  // measure 80
00001000
00000000
00000010
00000001
00000100
00001000
00010000
00001000
,  // measure 81
00100000
00000000
00010000
01000000
00010000
00000000
00100000
00010000
00100000
00001000
00010000
00000010
00010000
00000010
00001000
00000000
,  // measure 82
00001010
00000000
00000100
00000001
00000010
00000000
00000100
00000010
,  // measure 83
00001000
00010000
00000000
00011000
00000000
00000010
00000000
01001000
,  // measure 84
00010000
00000000
00100000
10000000
01000000
00010000
00001000
00000100
,  // measure 85
00000101
00000000
00000010
00000000
00001000
00000010
00001000
00000000
00000100
00010000
00000100
00000000
00010000
00000000
00000000
00000000
,  // measure 86
00100000
00000000
10000000
00100000
10000000
00000000
00010000
00000000
00100000
00000000
10000000
00000000
00100000
00000000
00010000
00000000
,  // measure 87
00001000
00000000
00000100
00000000
00000010
00000000
00001000
00000000
00010000
00000000
00001000
00000000
00000010
00000100
00001000
00000100
,  // measure 88
00000010
00000000
00000001
00000100
00000001
00000000
00001000
00000100
00001000
00000000
00000100
00000000
00000010
00000000
00001000
00000000
,  // measure 89
00010000
00000000
00100000
01000000
00100000
00000000
00010000
00001000
00010000
00000000
00000100
00000000
00000110
00000000
00000000
00000000
,  // measure 90
00000010
00000000
00000001
00000010
00000001
00000000
00001000
00000000
00000010
00000000
00000001
00000000
00000010
00000000
00001000
00000000
,  // measure 91
00010000
00000000
01000000
00000000
00100000
00000000
00010000
00000000
00001000
00000000
00010000
00000000
00100000
01000000
00010000
01000000
,  // measure 92
00100000
00000000
10000000
01000000
10000000
00000000
00010000
01000000
00010000
00000000
01000000
00001000
01000000
00001000
00010000
00000100
,  // measure 93
00010000
00000010
00000001
00000010
00002000
00000000
00003000
00000000
,  // measure 94
00001010
00000000
00000100
00000001
00000010
00000000
00000100
00000010
,  // measure 95
00001000
00010000
00000000
00011000
00000000
00000010
00000000
01001000
,  // measure 96
00010000
00000000
00100000
10000000
01000000
00010000
00001000
00010000
,  // measure 97
00000010
00000000
00001000
00000100
00001000
00000000
00000010
00001000
00000010
00010000
00001000
00100000
00001000
00100000
00010000
00000000
,  // measure 98
00110000
00000000
01000000
10000000
00100000
00000000
01000000
00100000
,  // measure 99
00010000
00001000
00000000
00011000
00000000
00100000
00000000
00010100
,  // measure 100
00001000
00000000
00000010
00000001
00000100
00001000
00010000
01000000
,  // measure 101
11000000
00000000
00100000
00000000
00010000
01000000
00010000
00000000
10000000
01000000
10000000
00000000
00100000
00000000
00000000
00000000
,  // measure 102
10100000
00000000
00000000
11000000
00000000
00000000
00110000
00000000
00000000
10100000
00000000
00000000
01100000
00000000
00000000
00000000
,  // measure 103
00011000
00000000
00000000
01001000
00000000
00000000
00011000
00000000
00000000
00010100
00000000
00000000
00000110
00000000
00000000
00000000
,  // measure 104
00000011
00000000
00000000
00000101
00000000
00000000
00001010
00000000
00000000
00000011
00000000
00000000
00000110
00000000
00000000
00000000
,  // measure 105
00011000
00000000
00000000
00010100
00000000
00000000
00011000
00000000
00001000
00000000
00010000
00000000
01000000
00000000
00000000
00000000
,  // measure 106
10000000
01000000
00100000
00010000
,  // measure 107
00001000
00000100
00000010
00000001
,  // measure 108
00001000
00000001
00000100
00000000
00000010
00000100
00001000
00000000
00010000
00001000
00100000
00000000
00010000
00100000
00010000
01000000
,  // measure 109
00200000
00000000
00000000
00000000
00300000
00000000
00000000
00000000
10000000
00010000
10000000
00010000
10000000
00000000
00000000
00000000
,  // measure 110
10010000
00000000
00000000
00000000
;

//---------------dance-double - NewbStepper-DDP----------------
#NOTES:
     dance-double:
     NewbStepper:
     Medium:
     14:
     0.661542,0.755270,0.472997,0.122064,0.083919,607,545,62,16,0,0,0.661542,0.755270,0.472997,0.122064,0.083919,607,545,62,16,0,0:
00000000
00000000
00000000
00000000
,
00000000
00000000
00000000
00000000
,
00000000
00000000
00000000
00000000
,
00000000
00000000
00000000
00000000
,
00000000
00000000
00000000
00000000
,
00000000
00000000
00000000
00000000
,
00011000
00000000
01000000
01000000
10000000
00000000
00100000
00000000
,
00011000
00000000
00000100
00000100
00000001
00000000
00000010
00000000
,
00001000
00010000
00100000
00010000
00001000
00000010
00000001
00000010
,
00000110
00000000
00000000
00000000
,
00000001
00000100
00010000
00000100
,
00000001
00000100
00010000
00000100
,
00000010
00010000
01000000
00010000
,
00000010
00010000
01000000
01000000
,
10000000
00100000
00010000
00000000
10000000
01000000
00010000
00100000
,
01000000
01000000
00010000
00001000
00000010
00001000
00100000
00010000
,
00001000
00000100
00000001
00000100
00001000
00000001
00000010
00001000
,
00010000
00100000
10000000
01000000
00100000
00010000
01000000
00000000
,
00001000
00010000
01000000
00010000
00001000
00000000
00010010
00000000
,
00000100
00000000
00000011
00000000
00000100
00000100
00000110
00000000
,
00000001
00000100
00001000
00000100
00000010
00001000
00010000
01000000
,
00100000
00010000
00001000
00010000
00100000
10000000
01000000
00000000
,
00010000
00001000
00000100
00001000
00010000
00000000
00101000
00000000
,
01000000
00000000
10100000
00000000
01000000
01000000
01100000
00000000
,
10000000
01000000
00010000
01000000
00100000
00010000
00001000
00000100
,
00000010
00001000
00010000
00001000
00000010
00000001
00000100
00000000
,
00000010
00010000
00001000
00000010
00000001
00000000
00000100
00001000
,
00000000
00010000
00100000
00010000
00001000
00010000
01000000
00000000
,
00100000
00001000
00010000
00100000
10000000
10000000
10100000
00000000
,
01010000
00000000
00100000
00000000
00001000
00010000
01100000
00000000
,
00010000
10000000
00100000
00010000
00001000
00001000
00000100
00000010
,
00010000
00001000
00000010
00000001
00000100
00000010
00001000
00000000
,
00000001
00000100
00001000
00010000
00100000
10000000
01000000
00000000
,
02200000
00000000
00000000
03300000
,
00010000
01000000
10000000
01000000
00020000
00000000
00130000
00000000
,
00010000
00001000
00000100
00000010
00000001
00001000
00000010
00000000
,
00000100
00000000
00001001
00000000
00000010
00001000
00010000
00001000
,
00000010
00000000
00001000
00000100
00000001
00000100
00002000
00000000
,
00003010
00000000
00001000
00001000
00010000
01000000
01000000
00100000
,
00010000
00000000
00000000
00001000
00000000
00000000
00000010
00000000
00000000
00001000
00000000
00000000
00010000
00000000
00000000
00100000
00000000
00000000
10000000
00000000
01000000
00000000
00100000
00000000
,
00010000
10000000
01000000
00010000
00001000
00000100
00000001
00000000
,
00002002
00000000
00000000
00003003
,
00001010
00000000
00000000
00000000
,
00110000
00000000
00000000
00000000
,
10000000
01000000
00100000
00010000
00001000
00000100
00000010
00000001
,
00000020
00000000
00000000
00000030
,
00000101
00000000
00000000
00000001
00000000
00000000
00000100
00000000
00000000
00000100
00000000
00000000
00000110
00000000
00000000
00000000
,
00010010
00000000
00000000
00010000
00000000
00000000
00001000
00000000
00000000
00001000
00000000
00000000
00101000
00000000
00000000
00000000
,
10010000
00000000
00000000
10000000
00000000
00000000
00100000
00000000
00000000
01000000
00000000
00000000
01010000
00000000
00000000
00000000
,
10010000
00000000
00000000
10000000
00000000
00000000
01000000
00000000
00010000
00000000
00001000
00000000
00000100
00000000
00000000
00000000
,
00000001
00000000
00000000
00000011
00000000
00000000
00001000
00000000
00000000
00001010
00000000
00000000
00011000
00000000
00000000
00000000
,
10000000
00000000
00000000
10100000
00000000
00000000
00010000
00000000
00000000
00110000
00000000
00000000
00011000
00000000
00000000
00000000
,
00000010
00000000
00000000
00001000
00000000
00000000
00100000
00000000
00000000
00001000
00000000
00000000
00011000
00000000
00000000
00000000
,
00010000
01000000
00100000
01000000
00010000
00001000
00000100
00000000
,
00000020
00000000
00000000
00000000
,
00000000
00000000
00000000
00000000
,
00000230
00000000
00000000
00000000
,
00000000
00000000
00000000
00000000
,
00002300
00000000
00000000
00000000
,
00000000
00000000
00000000
00000000
,
00023000
00000000
00030000
00000000
,
00011000
00000000
00000000
00000000
,
01010000
00000000
00100000
10000000
00100000
00000000
01000000
00010000
,
01000000
00100000
00000000
00100000
00000000
00100000
00000000
00010000
,
00000010
00000000
00000000
00000100
00000000
00000001
00000010
00000000
,
00001000
00010000
00000100
00000000
00000110
00000000
00000000
00000000
,
00001100
00000000
00000010
00000001
00000010
00000000
00000100
00001000
,
00000100
00000010
00000000
00000010
00000000
00000010
00000000
00001000
,
00100000
00000000
00000000
01000000
00000000
10000000
00000000
00000000
,
20200000
00000000
00000000
30300000
,
01000000
00001000
00010000
01000000
00010000
00000000
00001000
00000010
,
00000001
00000100
00000000
00000100
00000000
00000100
00000000
00000100
,
00001000
00010000
01000000
10000000
00100000
00010000
00001000
00100000
,
00010000
10000000
01000000
00100000
00001000
00010000
01000000
00000000
,
11000000
00000000
00100000
00000000
01010000
00000000
10100000
10000000
,
01000000
01010000
00011000
00001100
,
00000001
00000100
00000010
00001000
00010000
01000000
00100000
10000000
,
10010000
00000000
00000000
00000000
,
01100000
00000000
00010000
00001000
00000100
00000000
00000010
00001000
,
00000200
00000001
00000000
00000001
00000000
00000301
00000100
00001000
,
00010000
00000000
01010000
00000000
00100000
10000000
01000000
00000000
,
00010000
00001000
00100000
00010000
00001000
00000100
00000010
00000000
,
00000110
00000000
00001000
00010000
01000000
00000000
00100000
00010000
,
02000000
10000000
00000000
10000000
00000000
13000000
01000000
00010000
,
00001000
00000000
00001100
00000000
00000010
00000001
00000100
00000000
,
00001000
00010000
00000010
00001000
00010000
01000000
00100000
00000000
,
00010000
00001000
00000100
00001000
00010000
00000000
00101000
00000000
,
01000000
00000000
10100000
00000000
01000000
01000000
01100000
00000000
,
10000000
01000000
00010000
01000000
00100000
00010000
00001000
00000100
,
00000010
00001000
00010000
00001000
00000010
00000001
00000100
00000000
,
00001000
00010000
01000000
00010000
00001000
00000000
00010010
00000000
,
00000100
00000000
00000011
00000000
00000100
00000100
00000110
00000000
,
00000001
00000100
00001000
00000100
00000010
00001000
00010000
01000000
,
00100000
00010000
00001000
00010000
00100000
10000000
01000000
00000000
,
00100000
00000000
00010000
01000000
10000000
00000000
00010000
00100000
,
10000000
00100000
01000000
00010000
10000000
00100000
00010000
00001000
,
00000100
00000000
00000001
00000000
00001000
00000010
00000100
00000000
,
00000001
00000010
00000100
00001000
00000001
00000000
00001001
00000000
,
00000010
00000000
00001000
00000100
00000001
00000000
00001000
00000010
,
00000001
00000010
00000100
00001000
00000001
00000010
00001000
00010000
,
01000000
00000000
10000000
00000000
00010000
00100000
01000000
00000000
,
10000000
10000000
00010000
00010000
00100000
00100000
01000000
00000000
,
11000000
00000000
00000000
10000000
00000000
00000000
01000000
00000000
00000000
01000000
00000000
00000000
01100000
00000000
00000000
00000000
,
00101000
00000000
00000000
00001000
00000000
00000000
00010000
00000000
00000000
00010000
00000000
00000000
00010010
00000000
00000000
00000000
,
00001001
00000000
00000000
00000001
00000000
00000000
00000010
00000000
00000000
00000100
00000000
00000000
00001100
00000000
00000000
00000000
,
00001001
00000000
00000000
00000001
00000000
00000000
00000100
00000000
00001000
00000000
00010000
00000000
01000000
00000000
00000000
00000000
,
10000000
10000000
01000000
01000000
,
00100000
00100000
00010000
00010000
,
10000000
01000000
00100000
00010000
00001000
00000100
00000010
00000001
,
00000200
00000000
00000000
00000000
00000010
00000010
00000310
00000000
,
00001001
00000000
00000000
00000000
;

//---------------dance-double - NewbStepper-BDP----------------
#NOTES:
     dance-double:
     NewbStepper:
     Easy:
     10:
     0.432673,0.629391,0.152580,0.122064,0,397,377,20,16,0,0,0.432673,0.629391,0.152580,0.122064,0,397,377,20,16,0,0:
00000000
00000000
00000000
00000000
,
00000000
00000000
00000000
00000000
,
00000000
00000000
00000000
00000000
,
00000000
00000000
00000000
00000000
,
00000000
00000000
00000000
00000000
,
00000000
00000000
00000000
00000000
,
10100000
00000000
01000000
00000000
00010000
00000000
00100000
01000000
,
00100000
00010000
00001000
00000000
,
00000011
00000000
00000100
00000000
00001000
00000100
00000010
00000000
,
00000100
00000000
00000000
00000000
,
00010100
00010000
00011000
00001000
,
00100000
00010000
10000000
00010000
,
01001000
00001000
00011000
00010000
,
00000010
00001000
00000001
00001000
,
00000001
00000100
00000001
00000000
00001000
00000100
00001000
00000000
,
00000001
00000000
00000100
00000000
00001000
00010000
01000000
00000000
,
00100000
00010000
00100000
00000000
01000000
10000000
01000000
00000000
,
10000000
01000000
00010000
00000000
00002000
00000000
00003000
00000000
,
00011000
00000000
00010000
00001000
00000100
00000000
00000010
00000000
,
00001000
00000000
00000001
00000000
00000100
00001000
00010000
00000000
,
00001000
00010000
01000000
10000000
,
00100000
00000000
10000000
00000000
00010000
01000000
00100000
00000000
,
00011000
00000000
00001000
00010000
01000000
00000000
00100000
00000000
,
00010000
00000000
10000000
00000000
01000000
00010000
00001000
00000000
,
00010000
00001000
00000100
00000001
,
00000010
00000000
00000001
00000000
00001000
00000100
00000010
00000000
,
00000001
00000000
00000010
00000000
00001000
00000000
00000010
00000001
,
00000000
00000100
00001000
00010000
00001000
00100000
00010000
00000000
,
10000000
00000000
00100000
00000000
00010000
00001000
00010000
00000000
,
01000000
01010000
00001000
00011000
,
00100000
00010000
00100000
00000000
01000000
10000000
01000000
00000000
,
10000000
00100000
10000000
00100000
01000000
00010000
01000000
00000000
,
00001000
00000010
00000001
00000100
,
00000110
00000000
00000000
00000000
,
00001000
00001000
00000001
00000001
,
00000100
00000000
00001000
00010000
01000000
00000000
00100000
00000000
,
00010000
00000000
01000000
00000000
10000000
00000000
01000000
00010000
,
00100000
00010000
00010000
10000000
,
10000000
00000000
01000000
00000000
00010000
00001000
00000100
00000000
,
00000001
00000010
00000100
00001000
,
00010000
00001000
00010000
00000000
00100000
00000000
01100000
00000000
,
00020000
00000000
00000000
00030000
,
10000000
01000000
00010000
00000000
,
00001000
00000100
00000001
00000000
,
00000001
00000010
00000001
00000100
00000010
00001000
00000100
00010000
,
00001000
00000000
00000000
00000000
,
00200000
00000000
00000000
00010000
00000000
00000000
00310000
00000000
,
00000020
00000000
00000000
00001000
00000000
00000000
00001030
00000000
,
02000000
00000000
00000000
00010000
00000000
00000000
03010000
00000000
,
00000200
00000000
00000000
00001000
00000000
00000000
00001300
00000000
,
00010000
01000000
10000000
00000000
,
10000000
00100000
00010000
00000000
,
00001000
00000000
00000100
00000010
00000100
00000001
00001000
00000000
,
00000010
00000000
00000100
00000000
,
00000002
00000000
00000000
00000000
,
00000000
00000000
00000000
00000003
,
00002000
00000000
00000000
00000000
,
00000000
00000000
00000000
00003000
,
00020000
00000000
00000000
00000000
,
00000000
00000000
00000000
00030000
,
00000000
00000000
00000000
00000000
,
00100000
00000000
00000000
00000000
,
00010000
01000000
00100000
00000000
,
10000000
01000000
00100000
00000000
,
00001000
00000000
00010000
00001000
00010000
00000000
00000000
00000000
,
00001000
00000100
00000001
00000000
00000010
00000000
00000000
00000000
,
00000001
00000000
00001000
00000000
,
00000100
00000100
00000010
00000000
,
00000001
00000000
00000100
00000000
,
00022000
00000000
00000000
00033000
,
01000000
00010000
10000000
01000000
,
00010000
00001000
00000000
00001000
00000000
00001000
00000000
00000000
,
00000110
00000001
00000100
00001000
,
00010000
00000000
01000000
00000000
10000000
00100000
10000000
00000000
,
00010000
00000000
01000000
00000000
01010000
00000000
00100000
01000000
,
00100000
00000000
00010000
00000000
00001000
00000000
00000010
00000100
,
00000010
00000000
00001000
00010000
00001000
00010000
00001000
00010000
,
00001000
00000000
00000000
00000000
,
10010000
00100000
10000000
01000000
,
00010000
00001000
00000100
00000001
,
00000010
00000000
00000000
00000001
00000000
00000001
00001000
00000000
,
00000010
00010000
00001000
00000000
00000100
00000000
00000000
00000000
,
00001001
00000010
00000001
00000100
,
00001000
00010000
01000000
10000000
,
00100000
00000000
00000000
10000000
00000000
10000000
00010000
00000000
,
00100000
00001000
00010000
00000000
01000000
00000000
00000000
00000000
,
10000000
01000000
10000000
01000000
00100000
00000000
00000000
00000000
,
00001000
00000000
00010000
00000000
00001000
00000010
00001000
00000000
,
00010000
00010000
00000100
00000100
,
00001000
00000001
00001001
00000000
,
00000001
00000100
00000001
00000100
00000010
00000000
00000000
00000000
,
00010000
00000000
00001000
00000000
00010000
00100000
00010000
00000000
,
00001000
00001000
01000000
01000000
,
00010000
10000000
10010000
00000000
,
10000000
01000000
00010000
00000000
,
00001000
00000100
00000001
00000000
,
00000001
00000010
00001000
00000000
,
00010000
00100000
10000000
00000000
,
10000000
01000000
00100000
00010000
,
00001000
00000100
00000010
00000001
,
00001000
00000001
00000100
00001000
,
00010000
01000000
10000000
00000000
,
00200000
00000000
00000000
00010000
00000000
00000000
00310000
00000000
,
00000020
00000000
00000000
00001000
00000000
00000000
00001030
00000000
,
02000000
00000000
00000000
00010000
00000000
00000000
03010000
00000000
,
00000200
00000000
00000000
00001000
00000000
00000000
00001300
00000000
,
00010000
00000000
00001000
00000000
,
00100000
00000000
00010000
00000000
,
10000000
01000000
00010000
00001000
,
00000200
00000000
00000000
00000300
,
00000110
00000000
00000000
00000000
;
