#VERSION:0.83;
#TITLE:Better When I'm Dancin';
#ARTIST:Meghan Trainor;
#BANNER:Better When I'm Dancin'.png;
#BACKGROUND:Better When I'm Dancin'-bg.png;
#JACKET:Better When I'm Dancin'-jacket.png;
#MUSIC:Better When I'm Dancin'.ogg;
#OFFSET:1.795;
#SAMPLESTART:52.58;
#SAMPLELENGTH:15;
#BPMS:0=128;
#BGCHANGES:3.25=Better When I'm Dancin'.avi=1=0=0=0=StretchNoLoop====,99999=-nosongbg-=1=0=0=0 // don't automatically add -songbackground-;

//---------------dance-single - NewbStepper-ESP----------------
#NOTEDATA:;
#CHARTNAME:NewbStepper-ESP;
#STEPSTYPE:dance-single;
#DESCRIPTION:NewbStepper-ESP;
#DIFFICULTY:Hard;
#METER:11;
#RADARVALUES:0.444283,0.563426,0.074441,0.165425,0.277086,376,367,9,20,0,0,0,0,0,0.444283,0.563426,0.074441,0.165425,0.277086,376,367,9,20,0,0,0,0,0;
#CREDIT:NewbStepper;
#NOTES:
0000
0000
0000
0000
,
0000
0000
0000
0000
,
0000
0000
0000
0000
,
0000
0000
0000
0000
,
0000
0000
0000
0000
,
0001
0000
0000
0001
0000
0000
1000
0000
0100
0000
1000
0000
0010
0000
0010
0000
,
1000
0000
0000
1000
0000
0000
0000
0000
0001
0000
0100
0000
1000
0000
0100
0000
,
0001
0000
0000
0001
0000
0000
0000
0000
1000
0000
0100
0000
0010
0000
0001
0000
,
0100
0000
0000
0010
0000
0000
1000
0000
0200
0000
0000
0320
0000
0000
0130
0000
,
1000
0000
0000
1000
0000
0000
0001
0000
0100
0000
0001
0000
0010
0000
0010
0000
,
0001
0000
0000
0001
0000
0000
0000
0000
1000
0000
0100
0000
0001
0000
0100
0000
,
1000
0000
0000
1000
0000
0000
0000
0000
0001
0000
0100
0000
0010
0000
1000
0000
,
0100
0000
0000
0010
0000
0000
0001
0000
0200
0000
0000
0320
0000
0000
0130
0000
,
0001
0000
0000
0001
0010
0000
0100
0000
1000
0000
0010
0000
0001
0000
0010
0000
,
1000
0000
0000
1000
0100
0000
0000
0000
0010
0000
0000
0010
0001
0000
0000
0000
,
1000
0000
0000
1000
0010
0000
0100
0000
0001
0000
0010
0000
1000
0000
0010
0000
,
0001
0000
0000
0001
0100
0000
0000
0000
0010
0000
0010
0000
0110
0000
0000
0000
,
1001
0000
0000
1000
0010
0000
0100
0000
0001
0000
0010
0000
0010
0000
0001
0000
,
0100
0000
0000
0001
0010
0000
0100
0000
1000
0000
0010
0000
0010
0000
1000
0000
,
0100
0000
0000
0100
0010
0000
0000
0000
0001
0000
0100
0000
1000
0000
0100
0000
,
0001
0000
0000
0000
,
0010
0000
0000
0010
0000
0000
0001
0000
0000
0000
0100
0000
1000
0000
0100
0000
,
0020
0001
1000
0130
,
0010
0000
0000
0010
0000
0000
1000
0000
0000
0000
0100
0000
0001
0000
0100
0000
,
0020
1000
0001
0130
,
1100
0000
1000
0010
0000
1000
0010
0000
0100
0000
0001
0000
0010
0000
0010
0000
,
0011
0000
0001
0100
0000
0001
0100
0000
0010
0000
1000
0000
0100
0000
0001
0000
,
0100
0000
0000
0100
1000
0000
0000
1000
0010
0000
0100
0000
0001
0000
0010
0000
,
0110
0000
0000
0000
0000
0000
0000
0000
0001
1000
0000
0001
1000
0000
0010
0000
,
1000
0000
0000
0001
0000
0100
0010
0000
1000
0000
0100
0000
0001
0000
0001
0000
,
0100
0000
0000
0100
0010
0000
0000
0000
0001
0000
0001
0000
0100
0000
0010
0000
,
1000
0000
0000
1000
0010
0000
0000
0000
1000
0000
1000
0000
0100
0000
0010
0000
,
0001
0000
0000
0001
0010
0000
0000
0000
0100
0000
1000
0000
0010
0000
0100
0000
,
0001
0000
0000
1000
0000
0100
0010
0000
0001
0000
0100
0000
1000
0000
1000
0000
,
0100
0000
0000
0100
0010
0000
0000
0000
1000
0000
1000
0000
0100
0000
0010
0000
,
0001
0000
0000
0001
0010
0000
0000
0000
0001
0000
0001
0000
0100
0000
0010
0000
,
1000
0000
0000
1000
0010
0000
0000
0000
0100
0000
0001
0000
0010
0000
0100
0000
,
1000
0000
0000
1000
0010
0000
0000
0000
0200
0000
0000
0002
0300
0000
0013
0000
,
0001
0000
0000
0001
0010
0000
0000
0000
0001
0000
0001
0000
1000
0000
1000
0000
,
0010
0000
0000
0010
0100
0000
0000
0000
0002
0000
0000
2003
0000
0000
3100
0000
,
0010
0000
0000
0010
0100
0000
0000
0000
1000
0000
0100
0000
0010
0000
0001
0000
,
0100
0000
0000
0100
0000
0000
0001
0000
1000
0000
0100
0000
0010
0000
0001
0000
,
0100
0000
0000
0100
0000
0000
0000
0000
0002
0000
0000
0000
0000
0000
0000
0000
,
2003
0000
0000
0000
0000
0000
0000
0000
3010
0000
0000
0100
0000
0000
2002
0000
,
0000
0000
3003
0000
,
0020
0000
0000
1000
0000
0000
1000
0000
0000
0000
0000
0000
0000
0000
0100
0000
,
2030
0000
0000
0001
0000
0000
3001
0000
0000
0000
0000
0000
0000
0000
0000
0000
,
0020
0000
0000
0001
0000
0000
0001
0000
0000
0000
0000
0000
0000
0000
0100
0000
,
0032
0000
0000
1000
0000
0000
1003
0000
0000
0000
0000
0000
0000
0000
0000
0000
,
0010
0000
0000
0000
0010
0000
0000
0000
1000
0000
0000
0100
0000
0000
1100
0000
,
0010
0000
0000
0000
0010
0000
0000
0000
0001
0000
0000
0100
0000
0000
0101
0000
,
0010
1000
0100
0010
0001
0010
1000
0010
,
0110
0000
0000
0000
0000
0000
0000
0000
1000
0001
0000
1000
0001
0000
0010
0000
,
0001
0000
0000
1000
0000
0100
0010
0000
0001
0000
0100
0000
1000
0000
1000
0000
,
0100
0000
0000
0100
0010
0000
0000
0000
1000
0000
1000
0000
0100
0000
0010
0000
,
0001
0000
0000
0001
0010
0000
0000
0000
0001
0000
0001
0000
0100
0000
0010
0000
,
1000
0000
0000
1000
0010
0000
0000
0000
0100
0000
0001
0000
0010
0000
0100
0000
,
1000
0000
0000
0001
0000
0100
0010
0000
1000
0000
0100
0000
0001
0000
0001
0000
,
0100
0000
0000
0100
0010
0000
0000
0000
0001
0000
0001
0000
0100
0000
0010
0000
,
1000
0000
0000
1000
0010
0000
0000
0000
1000
0000
1000
0000
0100
0000
0010
0000
,
0001
0000
0000
0001
0010
0000
0000
0000
0001
0000
0100
0000
0010
0000
1000
0000
,
0100
0000
0000
0100
0000
0000
1000
0000
0001
0000
0100
0000
0010
0000
1000
0000
,
0100
0000
0000
0100
0000
0000
0000
0000
2000
0000
0000
0000
0000
0000
0000
0000
,
3002
0000
0000
0000
1003
0100
0010
0001
,
0000
0100
0000
0100
0000
0010
0000
0010
;

//---------------dance-single - NewbStepper-DSP----------------
#NOTEDATA:;
#CHARTNAME:NewbStepper-DSP;
#STEPSTYPE:dance-single;
#DESCRIPTION:NewbStepper-DSP;
#DIFFICULTY:Medium;
#METER:8;
#RADARVALUES:0.330849,0.429277,0.140611,0.248137,0.078577,280,263,17,30,0,0,0,0,0,0.330849,0.429277,0.140611,0.248137,0.078577,280,263,17,30,0,0,0,0,0;
#CREDIT:NewbStepper;
#NOTES:
0000
0000
0000
0000
,
0000
0000
0000
0000
,
0000
0000
0000
0000
,
0000
0000
0000
0000
,
0000
0000
0000
0000
,
1000
0000
0000
1000
0000
0000
0000
0000
0010
0000
0010
0000
0010
0000
0000
0000
,
0001
0000
0000
0001
0000
0000
0000
0000
0010
0000
0010
0000
0010
0000
0000
0000
,
0100
0000
0000
0100
0000
0000
0000
0000
0001
0000
0001
0000
0001
0000
0000
0000
,
1000
0000
0100
0000
0010
0000
0001
1000
,
0001
0000
0000
0001
0000
0000
0000
0000
0010
0000
0010
0000
0010
0000
0000
0000
,
1000
0000
0000
1000
0000
0000
0000
0000
0010
0000
0010
0000
0010
0000
0000
0000
,
0100
0000
0000
0100
0000
0000
0000
0000
1000
0000
1000
0000
1000
0000
0000
0000
,
0001
0000
0100
0000
0010
0000
1000
0001
,
1000
0000
0100
0010
0100
0000
0010
0001
,
2000
0100
0001
3100
,
0001
0000
0100
0010
0100
0000
0010
1000
,
0002
0100
1000
0103
,
0010
0000
1000
0100
0010
0000
0001
0100
,
0001
0000
0001
0100
0010
0000
1000
0100
,
1000
0000
0000
0001
0000
0000
0000
0000
0010
0000
0100
0000
0010
0000
0100
0000
,
1000
0000
0000
0000
,
2000
0100
3020
0100
,
0001
1000
0130
0000
,
0002
0100
0023
0100
,
1000
0001
0130
0000
,
1100
0101
1100
0000
,
0011
1010
0011
0000
,
0110
1001
0110
1001
,
0220
0000
0330
0000
,
0001
0000
1000
0100
0001
0000
0100
0010
,
0001
0000
0000
0002
0000
0000
0003
0000
1000
0000
0010
0000
1000
0000
0010
0000
,
0100
0000
0000
0200
0000
0000
0300
0000
0001
0000
0010
0000
0001
0000
0010
0000
,
0100
0000
0000
0200
0000
0000
0300
0000
0000
0000
1000
0000
0001
0000
1000
0000
,
0000
0000
0001
0100
1000
0000
0100
0010
,
1000
0000
0000
2000
0000
0000
3000
0000
0001
0000
0010
0000
0001
0000
0010
0000
,
0100
0000
0000
0200
0000
0000
0300
0000
1000
0000
0010
0000
1000
0000
0010
0000
,
0100
0000
0000
0200
0000
0000
0300
0000
0000
0000
0001
0000
1000
0000
0001
0000
,
0020
0001
0230
0001
,
0320
0001
0130
1000
,
0020
1000
0230
1000
,
0310
1000
0100
0010
,
0001
0000
0010
0001
0100
0000
0010
1000
,
0200
0000
0000
0000
0010
0010
0310
0000
,
1001
0000
0000
0000
0000
0000
0000
0000
0010
0000
0000
0001
0000
0000
2000
0000
,
0000
0000
0000
3000
0000
0000
0000
0000
,
0001
0000
0100
0000
,
1000
0000
0010
0000
,
0001
0000
0100
0000
,
1000
0000
0010
0000
,
0001
0000
0001
0000
0001
0000
1000
0010
,
1000
0000
1000
0000
1000
0000
0001
0010
,
0001
1001
0110
1001
,
0220
0000
0330
0000
,
1000
0000
0001
0100
1000
0000
0100
0010
,
1000
0000
0000
2000
0000
0000
3000
0000
0001
0000
0010
0000
0001
0000
0010
0000
,
0100
0000
0000
0200
0000
0000
0300
0000
1000
0000
0010
0000
1000
0000
0010
0000
,
0100
0000
0000
0200
0000
0000
0300
0000
0000
0000
0001
0000
1000
0000
0001
0000
,
0000
0000
1000
0100
0001
0000
0100
0010
,
0001
0000
0000
0002
0000
0000
0003
0000
1000
0000
0010
0000
1000
0000
0010
0000
,
0100
0000
0000
0200
0000
0000
0300
0000
0001
0000
0010
0000
0001
0000
0010
0000
,
0100
1000
0100
0010
,
0001
0000
0010
0001
0100
0000
0010
1000
,
0200
0000
0000
0000
0010
0010
0310
0000
,
1001
0000
0000
0000
0001
1000
0001
2000
,
0000
0000
0000
3000
0000
0100
0000
0100
;

//---------------dance-single - NewbStepper-BSP----------------
#NOTEDATA:;
#CHARTNAME:NewbStepper-BSP;
#STEPSTYPE:dance-single;
#DESCRIPTION:NewbStepper-BSP;
#DIFFICULTY:Easy;
#METER:4;
#RADARVALUES:0.197328,0.241468,0.049627,0.248137,0,167,161,6,30,0,0,0,0,0,0.197328,0.241468,0.049627,0.248137,0,167,161,6,30,0,0,0,0,0;
#CREDIT:NewbStepper;
#NOTES:
0000
0000
0000
0000
,
0000
0000
0000
0000
,
0000
0000
0000
0000
,
0000
0000
0000
0000
,
0000
0000
0000
0000
,
0001
0000
0010
0001
,
0010
0000
0100
1000
,
0100
0000
0010
0001
,
1000
0010
0200
0000
,
0310
0000
0010
1000
,
0010
0000
0100
0001
,
0100
0000
0010
1000
,
0001
0010
0200
0000
,
0310
0001
0100
1000
,
0100
0002
0000
0003
,
0000
1000
0100
0001
,
0100
2000
0000
3000
,
0001
0100
0001
0100
,
0010
1000
0010
1000
,
0100
0000
0010
0010
,
0010
0000
0000
0000
,
1001
0000
0110
0000
,
2002
0000
3003
0000
,
1001
0000
0110
0000
,
2002
0000
3003
0000
,
0010
1000
0100
0000
,
0010
0001
0100
0000
,
0001
0100
1000
0100
,
0002
0000
0003
0000
,
1000
0100
0010
0001
,
2000
3000
0001
1000
,
0002
0003
1000
0001
,
2000
3000
0001
1000
,
0001
0100
0010
1000
,
0002
0003
1000
0001
,
2000
3000
0001
1000
,
0002
0003
1000
0001
,
0100
0000
0100
0000
,
0010
0000
0010
0000
,
1000
0000
1000
0000
,
0001
0000
0001
0000
,
0010
0010
0001
0000
,
0010
0010
1000
0000
,
0010
0010
0100
0010
,
0200
0000
0300
0000
,
2000
0000
3000
0000
,
0002
0000
0003
0000
,
2000
0000
3000
0000
,
0002
0000
0003
0000
,
0010
0001
0100
0000
,
0010
1000
0100
0000
,
1000
0100
0001
0100
,
2000
0000
3000
0000
,
0001
0100
0010
1000
,
0002
0003
1000
0001
,
2000
3000
0001
1000
,
0002
0003
1000
0001
,
1000
0100
0010
0001
,
2000
3000
0001
1000
,
0002
0003
1000
0001
,
2000
3000
0001
0100
,
0010
1000
0001
0100
,
0010
2000
3000
0000
,
0002
0003
0100
0200
,
0000
0000
0300
0000
0000
0010
0000
0010
;

//---------------dance-single - NewbStepper-bSP----------------
#NOTEDATA:;
#CHARTNAME:NewbStepper-bSP;
#STEPSTYPE:dance-single;
#DESCRIPTION:NewbStepper-bSP;
#DIFFICULTY:Beginner;
#METER:2;
#RADARVALUES:0.101618,0.158808,0.024814,0.049627,0,86,83,3,6,0,0,0,0,0,0.101618,0.158808,0.024814,0.049627,0,86,83,3,6,0,0,0,0,0;
#CREDIT:NewbStepper;
#NOTES:
0000
0000
0000
0000
,
0000
0000
0000
0000
,
0000
0000
0000
0000
,
0000
0000
0000
0000
,
0000
0000
0000
0000
,
0010
0000
0000
0000
,
1000
0000
0000
0000
,
0001
0000
0000
0000
,
0010
0000
0000
0000
,
0010
0000
0000
0000
,
0001
0000
0000
0000
,
1000
0000
0000
0000
,
0010
0000
0000
0000
,
1000
0000
0000
0000
,
0001
0001
0000
0000
,
0001
0000
0000
0000
,
1000
1000
0000
0000
,
0000
0010
0000
0010
,
0000
0010
0000
0010
,
0000
0100
0000
0100
,
0100
0000
0000
0000
,
0002
0000
0000
0000
,
0000
0000
0003
0000
,
2000
0000
0000
0000
,
0000
0000
3000
0000
,
0010
0000
0010
0000
,
1000
0000
1000
0000
,
0001
0000
0001
0000
,
0200
0000
0300
0000
,
0000
0001
0001
0000
,
1000
1000
0000
0000
,
0100
0100
0000
0000
,
0001
0001
0000
0000
,
0000
1000
1000
0000
,
0001
0001
0000
0000
,
0100
0100
0000
0000
,
1000
1000
0000
0000
,
1001
0000
0000
0000
,
0000
0000
0000
0000
,
1001
0000
0000
0000
,
0000
0000
0000
0000
,
0010
0000
0000
0000
,
0010
0000
0000
0000
,
0100
0000
0000
0000
,
0100
0000
0000
0000
,
2000
0000
0000
0000
,
0000
0000
3000
0000
,
0002
0000
0000
0000
,
0000
0000
0003
0000
,
0010
0000
0010
0000
,
0001
0000
0001
0000
,
1000
0000
1000
0000
,
0200
0000
0300
0000
,
0000
1000
1000
0000
,
0001
0001
0000
0000
,
0100
0100
0000
0000
,
1000
1000
0000
0000
,
0000
0001
0001
0000
,
1000
1000
0000
0000
,
0100
0100
0000
0000
,
0001
0001
0000
0000
,
1000
0000
1000
0000
,
0001
0000
0001
0000
,
1000
0000
0000
0000
,
1001
0000
0000
0000
;

//---------------dance-double - NewbStepper-EDP----------------
#NOTEDATA:;
#CHARTNAME:NewbStepper-EDP;
#STEPSTYPE:dance-double;
#DESCRIPTION:NewbStepper-EDP;
#DIFFICULTY:Hard;
#METER:12;
#RADARVALUES:0.431286,0.482936,0.049627,0.132340,0.256408,365,359,6,16,0,0,0,0,0,0.431286,0.482936,0.049627,0.132340,0.256408,365,359,6,16,0,0,0,0,0;
#CREDIT:NewbStepper;
#NOTES:
// measure 0
00000000
00000000
00000000
00000000
,  // measure 1
00000000
00000000
00000000
00000000
,  // measure 2
00000000
00000000
00000000
00000000
,  // measure 3
00000000
00000000
00000000
00000000
,  // measure 4
00000000
00000000
00000000
00000000
,  // measure 5
10000000
00000000
00000000
10000000
00000000
00000000
01000000
00000000
00010000
00000000
00001000
00000000
00000010
00000000
00000010
00000000
,  // measure 6
00000001
00000000
00000000
00000001
00000000
00000000
00000100
00000000
00001000
00000000
00010000
00000000
00100000
00000000
00100000
00000000
,  // measure 7
10000000
00000000
00000000
10000000
00000000
00000000
00000000
00000000
00010000
00000000
01000000
00000000
00100000
00000000
10000000
00000000
,  // measure 8
01000000
00000000
00000000
00010000
00000000
00000000
00001000
00000000
00200000
00000000
00000000
00302000
00000000
00000000
00003010
00000000
,  // measure 9
00000001
00000000
00000000
00000001
00000000
00000000
00000100
00000000
00001000
00000000
00010000
00000000
00100000
00000000
00100000
00000000
,  // measure 10
10000000
00000000
00000000
10000000
00000000
00000000
01000000
00000000
00010000
00000000
00001000
00000000
00000010
00000000
00000010
00000000
,  // measure 11
00000001
00000000
00000000
00000001
00000000
00000000
00000000
00000000
00001000
00000000
00000100
00000000
00000010
00000000
00000001
00000000
,  // measure 12
00000100
00000000
00000000
00001000
00000000
00000000
00010000
00000000
00000020
00000000
00000000
00020030
00000000
00000000
00130000
00000000
,  // measure 13
10000000
00000000
00000000
10000000
01000000
00000000
00010000
00000000
00001000
00000000
00000010
00000000
00001000
00000000
00010000
00000000
,  // measure 14
00100000
00000000
00000000
00100000
00010000
00000000
00000000
00000000
00000010
00000000
00000000
00000010
00001000
00000000
00000000
00000000
,  // measure 15
00000001
00000000
00000000
00000001
00000100
00000000
00001000
00000000
00010000
00000000
00100000
00000000
00010000
00000000
00001000
00000000
,  // measure 16
00000010
00000000
00000000
00000010
00001000
00000000
00000000
00000000
00100000
00000000
00000000
00100000
00010000
00000000
00001000
00000000
,  // measure 17
00000100
00000000
00000000
00000001
00000000
00000000
00001000
00000000
00000010
00000000
00001000
00000000
00010000
00000000
00100000
00000000
,  // measure 18
00010000
00000000
00000000
10000000
00000000
00000000
00010000
00000000
00100000
00000000
00010000
00000000
00001000
00000000
00000010
00000000
,  // measure 19
00000001
00000000
00000000
00001001
00000000
00000000
00000000
00000000
00001000
00000000
00000100
00000000
00000001
00000000
00000100
00000000
,  // measure 20
00001000
00000000
00000000
00000000
,  // measure 21
00000010
00000000
00000000
00010000
00000000
00000000
00001000
00000000
00000000
00000000
01000000
00000000
00100000
00000000
00010000
00000000
,  // measure 22
00002000
00000010
00000001
00010000
,  // measure 23
00103000
00000000
00000000
00001000
00000000
00000000
00010000
00000000
00000000
00000000
00000100
00000000
00000010
00000000
00001000
00000000
,  // measure 24
00020000
00100000
10000000
00001000
,  // measure 25
00030010
00000000
00001000
00000001
00000000
00000001
00000100
00000000
00001000
00000000
00010000
00000000
01000000
00000000
00000000
10000000
,  // measure 26
00000000
00000000
00010000
10000000
00000000
10000000
01000000
00000000
00010000
00000000
00001000
00000000
00000100
00000000
00000001
00000000
,  // measure 27
00000010
00001000
00010000
00100000
00001000
00000100
00010000
00001000
,  // measure 28
00100000
00000000
00000000
00000000
00000000
00000000
00000000
00000000
00010000
10000000
00000000
00010000
10000000
00000000
01000000
00000000
,  // measure 29
00010000
00000000
00000000
00001000
00000000
00000010
00001000
00000000
00010000
00000000
00001000
00000000
00000100
00000000
00000001
00000000
,  // measure 30
00000010
00000000
00000000
00000011
00000000
00000000
00000000
00000000
00000001
00000000
00000100
00000000
00001000
00000000
00010000
00000000
,  // measure 31
01000000
00000000
00000000
01000000
00000000
00000000
00000000
00000000
10000000
00000000
01000000
00000000
00010000
00000000
00001000
00000000
,  // measure 32
00000100
00000000
00000000
00000100
00000000
00000000
00000000
00000000
00000001
00000000
00001000
00000000
00000010
00000000
00010000
00000000
,  // measure 33
00001000
00000000
00000000
00010000
00000000
00100000
00010000
00000000
00001000
00000000
00010000
00000000
01000000
00000000
10000000
00000000
,  // measure 34
00100000
00000000
00000000
10100000
00000000
00000000
00000000
00000000
10000000
00000000
01000000
00000000
00010000
00000000
00001000
00000000
,  // measure 35
00000100
00000000
00000000
00000100
00000000
00000000
00000000
00000000
00000001
00000000
00000100
00000000
00001000
00000000
00010000
00000000
,  // measure 36
01000000
00000000
00000000
01000000
00000000
00000000
00000000
00000000
10000000
00000000
00010000
00000000
00100000
00000000
00001000
00000000
,  // measure 37
00010000
00000000
00000000
00010000
00000000
00000000
01000000
00000000
00010000
00000000
00000000
00001000
00000000
00000000
00000010
00000000
,  // measure 38
00001000
00000000
00000000
00001000
00000000
00000000
00010000
00000000
00001000
00000000
00000100
00000000
00000001
00000000
00000010
00000000
,  // measure 39
00001000
00000000
00000000
00001000
00000000
00000000
00000100
00000000
00001000
00000000
00000000
00010000
00000000
00000000
00100000
00000000
,  // measure 40
00010000
00000000
00000000
00010000
00000000
00000000
00100000
00000000
10000000
00000000
01000000
00000000
00010000
00000000
00001000
00000000
,  // measure 41
01000000
00000000
00000000
01000000
00000000
00000000
00100000
00000000
10000000
00000000
01000000
00000000
00010000
00000000
00001000
00000000
,  // measure 42
01000000
00000000
00000000
01000000
00000000
00000000
00000000
00000000
00002000
00000000
00000000
00000000
00000000
00000000
00000000
00000000
,  // measure 43
00003020
00000000
00000000
00000000
00000000
00000000
00000000
00000000
00000031
00000000
00000000
00000100
00000000
00000000
00001000
00000000
,  // measure 44
00022000
00000000
00000000
00033000
,  // measure 45
00200000
10000000
01000000
00010000
,  // measure 46
00302000
00000010
00000001
00000100
,  // measure 47
00003020
00000001
00001000
00000100
,  // measure 48
00020030
00001000
00031000
00000000
,  // measure 49
00000010
00000000
00000010
00000000
00000001
00000100
00001000
00010000
,  // measure 50
00100000
00000000
00100000
00000000
10000000
01000000
00010000
00001000
,  // measure 51
00000010
00000001
00000010
00000000
00000001
00000100
00001000
00000100
,  // measure 52
00000001
00000000
00000000
00000000
00000000
00000000
00000000
00000000
00001000
00000001
00000000
00001000
00000001
00000000
00000100
00000000
,  // measure 53
00001000
00000000
00000000
00010000
00000000
00100000
00010000
00000000
00001000
00000000
00010000
00000000
01000000
00000000
10000000
00000000
,  // measure 54
00100000
00000000
00000000
10100000
00000000
00000000
00000000
00000000
10000000
00000000
01000000
00000000
00010000
00000000
00001000
00000000
,  // measure 55
00000100
00000000
00000000
00000100
00000000
00000000
00000000
00000000
00000001
00000000
00000100
00000000
00001000
00000000
00010000
00000000
,  // measure 56
01000000
00000000
00000000
01000000
00000000
00000000
00000000
00000000
10000000
00000000
00010000
00000000
00100000
00000000
00001000
00000000
,  // measure 57
00010000
00000000
00000000
00001000
00000000
00000010
00001000
00000000
00010000
00000000
00001000
00000000
00000100
00000000
00000001
00000000
,  // measure 58
00000010
00000000
00000000
00000011
00000000
00000000
00000000
00000000
00000001
00000000
00000100
00000000
00001000
00000000
00010000
00000000
,  // measure 59
01000000
00000000
00000000
01000000
00000000
00000000
00000000
00000000
10000000
00000000
01000000
00000000
00010000
00000000
00001000
00000000
,  // measure 60
00000100
00000000
00000000
00000100
00000000
00000000
00000000
00000000
00000001
00000000
00000100
00000000
00001000
00000000
00010000
00000000
,  // measure 61
00000100
00000000
00000000
00000100
00000000
00000000
00001000
00000000
00000001
00000000
00000100
00000000
00001000
00000000
00010000
00000000
,  // measure 62
00000100
00000000
00000000
00000100
00000000
00000000
00000000
00000000
00020000
00000000
00000000
00000000
00000000
00000000
00000000
00000000
,  // measure 63
00230000
00000000
00000000
00000000
10300000
01000000
00100000
00010000
,  // measure 64
10000000
00000000
00000000
00100000
00000000
00000000
00010000
00000000
00000000
00000000
00001000
00000000
00010000
00000000
00001000
00000000
;

//---------------dance-double - NewbStepper-DDP----------------
#NOTEDATA:;
#CHARTNAME:NewbStepper-DDP;
#STEPSTYPE:dance-double;
#DESCRIPTION:NewbStepper-DDP;
#DIFFICULTY:Medium;
#METER:8;
#RADARVALUES:0.316670,0.348787,0.049627,0.264679,0.070305,268,262,6,32,0,0,0,0,0,0.316670,0.348787,0.049627,0.264679,0.070305,268,262,6,32,0,0,0,0,0;
#CREDIT:NewbStepper;
#NOTES:
00000000
00000000
00000000
00000000
,
00000000
00000000
00000000
00000000
,
00000000
00000000
00000000
00000000
,
00000000
00000000
00000000
00000000
,
00000000
00000000
00000000
00000000
,
00000001
00000000
00000000
00000001
00000000
00000000
00000000
00000000
00000010
00000000
00000010
00000000
00000010
00000000
00000000
00000000
,
00000001
00000000
00000000
00000001
00000000
00000000
00000000
00000000
00000100
00000000
00000100
00000000
00000100
00000000
00000000
00000000
,
00001000
00010000
00100000
10000000
,
01000000
00100000
01000000
00000000
00010000
00000000
01000000
00000000
,
10000000
00000000
00000000
10000000
00000000
00000000
00000000
00000000
00100000
00000000
00100000
00000000
00100000
00000000
00000000
00000000
,
10000000
00000000
00000000
10000000
00000000
00000000
00000000
00000000
01000000
00000000
01000000
00000000
01000000
00000000
00000000
00000000
,
00010000
00001000
00000010
00000001
,
00000100
00000010
00000100
00000000
00001000
00000000
00000100
00000000
,
00000001
00000000
00001000
00000010
00001000
00000000
00000100
00010000
,
00002000
01000000
00010000
01003000
,
10000000
00000000
00010000
00100000
00010000
00000000
01000000
00001000
,
00020000
00000100
00001000
00030100
,
00000010
00000000
00000001
00000100
00001000
00000000
00010000
00001000
,
00010000
00000000
00001000
00100000
00001000
00000000
00010000
01000000
,
10000000
00000000
00000000
10000000
00000000
00000000
00000000
00000000
00100000
00000000
01000000
00000000
00100000
00000000
01000000
00000000
,
00010000
00000000
00000000
00000000
,
00200000
01000000
00320000
01000000
,
00230000
00010000
00301000
00010000
,
00000020
00000100
00002030
00000100
,
00003020
00001000
00010030
00000000
,
00001000
00010000
00011000
00000000
,
00100000
01000000
01100000
00000000
,
10000000
01000000
00010000
00001000
,
00000220
00000000
00000330
00000000
,
00001000
00000000
00000001
00000100
00001000
00000000
00000100
00000010
,
00010000
00000000
00000000
00020000
00000000
00000000
00030000
00000000
00001000
00000000
00100000
00000000
00001000
00000000
00100000
00000000
,
00010000
00000000
00000000
00020000
00000000
00000000
00030000
00000000
10000000
00000000
00100000
00000000
10000000
00000000
00100000
00000000
,
01000000
00000000
00000000
02000000
00000000
00000000
03000000
00000000
00000000
00000000
00010000
00000000
10000000
00000000
00010000
00000000
,
00000000
00000000
10000000
01000000
00010000
00000000
01000000
00100000
,
00001000
00000000
00000000
00002000
00000000
00000000
00003000
00000000
00010000
00000000
00000010
00000000
00010000
00000000
00000010
00000000
,
00001000
00000000
00000000
00002000
00000000
00000000
00003000
00000000
00000001
00000000
00000010
00000000
00000001
00000000
00000010
00000000
,
00000100
00000000
00000000
00000200
00000000
00000000
00000300
00000000
00000000
00000000
00001000
00000000
00000001
00000000
00001000
00000000
,
00000020
00001000
00020030
00001000
,
00030020
00001000
00010030
00001000
,
00200000
00010000
00302000
00010000
,
00103000
00010000
01000000
00100000
,
10000000
00000000
00100000
01000000
00100000
00000000
00010000
00001000
,
00020000
00000000
00000000
00000000
00000010
00000010
00030010
00000000
,
00001001
00000000
00000000
00000000
00000000
00000000
00000000
00000000
00000010
00000000
00000000
00000001
00000000
00000000
00002000
00000000
,
00000000
00000000
00003000
00000000
,
00000001
00000000
00000100
00000000
,
00001000
00000000
00010000
00000000
,
01000000
00000000
10000000
00000000
,
00100000
00000000
00010000
00000000
,
00001000
00000000
00001000
00000000
00001000
00000000
00010000
00001000
,
00010000
00000000
00010000
00000000
00010000
00000000
00001000
00010000
,
00001000
00000100
00001000
00010000
,
02200000
00000000
00000000
03300000
,
00010000
00000000
10000000
01000000
00010000
00000000
01000000
00100000
,
00001000
00000000
00000000
00002000
00000000
00000000
00003000
00000000
00010000
00000000
00000010
00000000
00010000
00000000
00000010
00000000
,
00001000
00000000
00000000
00002000
00000000
00000000
00003000
00000000
00000001
00000000
00000010
00000000
00000001
00000000
00000010
00000000
,
00000100
00000000
00000000
00000200
00000000
00000000
00000300
00000000
00000000
00000000
00001000
00000000
00000001
00000000
00001000
00000000
,
00000000
00000000
00000001
00000100
00001000
00000000
00000100
00000010
,
00010000
00000000
00000000
00020000
00000000
00000000
00030000
00000000
00001000
00000000
00100000
00000000
00001000
00000000
00100000
00000000
,
00010000
00000000
00000000
00020000
00000000
00000000
00030000
00000000
10000000
00000000
00100000
00000000
10000000
00000000
00100000
00000000
,
01000000
00010000
01000000
00100000
,
10000000
00000000
00100000
01000000
00100000
00000000
00010000
00001000
,
00020000
00000000
00000000
00000000
00000010
00000010
00030010
00000000
,
00001001
00000000
00000000
00000000
00000001
00001000
00000001
00002000
,
00000000
00000000
00000000
00003000
00000000
00000100
00000000
00000100
;

//---------------dance-double - NewbStepper-BDP----------------
#NOTEDATA:;
#CHARTNAME:NewbStepper-BDP;
#STEPSTYPE:dance-double;
#DESCRIPTION:NewbStepper-BDP;
#DIFFICULTY:Easy;
#METER:3;
#RADARVALUES:0.150064,0.214638,0.033085,0.082712,0,127,123,4,10,0,0,0,0,0,0.150064,0.214638,0.033085,0.082712,0,127,123,4,10,0,0,0,0,0;
#CREDIT:NewbStepper;
#NOTES:
00000000
00000000
00000000
00000000
,
00000000
00000000
00000000
00000000
,
00000000
00000000
00000000
00000000
,
00000000
00000000
00000000
00000000
,
00000000
00000000
00000000
00000000
,
10000000
00000000
10000000
00000000
,
00100000
00000000
01000000
00000000
,
01000000
00000000
00010000
00000000
,
00001000
00000100
00000020
00000000
,
00000031
00000000
00000001
00000000
,
00000010
00000000
00000100
00000000
,
00000100
00000000
00001000
00000000
,
00010000
01000000
00200000
00000000
,
10300000
00000000
00010000
00000000
,
10000000
00000000
01000000
01000000
,
00010000
00000000
00001000
00000000
,
00010000
00000000
00000100
00000100
,
00001000
00000000
00001000
00000000
,
00000010
00000000
00000100
00000000
,
00000100
00000000
00000001
00001000
,
00000001
00000000
00000000
00000000
,
00001001
00000000
00000000
00000000
,
00011000
00000000
00000000
00000000
,
10010000
00000000
00000000
00000000
,
00011000
00000000
00000000
00000000
,
00000010
00000000
00000001
00000000
,
00000100
00000000
00000010
00000000
,
00001000
00000000
00000100
00000000
,
00020000
00000000
00030000
00000000
,
00001000
00001000
01000000
00000000
,
00100000
00000000
10000000
00010000
,
10000000
00000000
00100000
01000000
,
00100000
00000000
00010000
00001000
,
00010000
00010000
00000100
00000000
,
00000010
00000000
00000001
00001000
,
00000001
00000000
00000010
00000100
,
00000010
00000000
00001000
00010000
,
00002000
00000000
00003000
00000000
,
02000000
00000000
03000000
00000000
,
00020000
00000000
00030000
00000000
,
00000200
00000000
00000300
00000000
,
00000010
00000000
00000010
00000000
,
00001000
00000000
00001000
00000000
,
00000001
00000000
00000001
00000000
,
00000200
00000000
00000300
00000000
,
00001000
00000000
00000000
00000000
,
01000000
00000000
00000000
00000000
,
10000000
00000000
00000000
00000000
,
00010000
00000000
00000000
00000000
,
00100000
00000000
10000000
00000000
,
01000000
00000000
00100000
00000000
,
00010000
00000000
01000000
00000000
,
00002000
00000000
00003000
00000000
,
00010000
00010000
00000100
00000000
,
00000010
00000000
00000001
00001000
,
00000001
00000000
00000010
00000100
,
00000010
00000000
00001000
00010000
,
00001000
00001000
01000000
00000000
,
00100000
00000000
10000000
00010000
,
10000000
00000000
00100000
01000000
,
00100000
00000000
00010000
00000000
,
00001000
00000000
00010000
00000000
,
00000100
00000000
00000010
00000000
,
00001000
00000000
00010000
00000000
,
02000000
00000000
00000000
00000000
00000000
00000000
00000000
03000000
;
