#TITLE:Best Day of My Life;
#ARTIST:American Authors;
#BANNER:Best Day of My Life.png;
#BACKGROUND:Best Day of My Life-bg.png;
#MUSIC:Best Day of My Life.ogg;
#OFFSET:-0.073;
#SAMPLESTART:48.03;
#SAMPLELENGTH:15;
#BPMS:0=100;
#BGCHANGES:-0.25=Best Day of My Life.avi=1=0=0=0=StretchNoLoop====,99999=-nosongbg-=1=0=0=0 // don't automatically add -songbackground-;

//---------------dance-single - Kowalski-bSP----------------
#NOTES:
     dance-single:
     Kowalski:
     Beginner:
     1:
     0.063790,0.123655,0.042936,0.103046,0,52,47,5,12,0,0,0.063790,0.123655,0.042936,0.103046,0,52,47,5,12,0,0:
0000
0000
0000
0000
,
0000
0000
0000
0000
,
0000
0000
0000
0000
,
0000
0000
0000
0000
,
0001
0000
0000
0000
,
0001
0000
0000
0000
,
0200
0000
0000
0000
,
0300
0000
0000
0000
,
0010
0000
0000
0000
,
1000
0000
0000
0000
,
0002
0000
0000
0000
,
0003
0000
0000
0000
,
0100
0000
0100
0000
,
0001
0000
0001
0000
,
2002
0000
0000
0000
,
3003
0000
0000
0000
,
0001
0000
0000
0000
,
0001
0000
0000
0000
,
1000
0000
0000
0000
,
1000
0000
1000
0000
,
0100
0000
0000
0000
,
0100
0000
0000
0000
,
0010
0000
0000
0000
,
0010
0000
0010
0000
,
0100
0000
0000
0000
,
0100
0000
0000
0000
,
1000
0000
0000
0000
,
0001
0000
0000
0000
,
2000
3000
0000
0000
,
2000
3000
0000
0000
,
0020
0030
0000
0000
,
0010
0000
0010
0000
,
0200
0300
0000
0000
,
0200
0300
0000
0000
,
0002
0003
0000
0000
,
0001
0000
0001
0000
,
1001
0000
0000
0000
,
1001
0000
0000
0000
,
0001
0000
0000
0000
,
1000
0000
0000
0000
,
1001
0000
0000
0000
,
1000
0000
0000
0000
,
0100
0000
0000
0000
,
0010
0000
0000
0000
,
0001
0000
0000
0000
,
1000
0000
0000
0000
,
0010
0000
0000
0000
,
0220
0000
0000
0000
,
0330
0000
0000
0000
;

//---------------dance-single - Kowalski-BSP----------------
#NOTES:
     dance-single:
     Kowalski:
     Easy:
     5:
     0.176650,0.206092,0.111633,0.137394,0,144,131,13,16,0,0,0.176650,0.206092,0.111633,0.137394,0,144,131,13,16,0,0:
0000
0000
0000
0000
,
0000
0000
0000
0000
,
0000
0000
0000
0000
,
0000
0000
0000
0000
,
0001
1000
0001
0100
,
0010
0010
1000
0010
,
2000
0000
0001
3001
,
0020
0000
0100
0130
,
0010
1000
0010
0001
,
0001
0010
1000
0100
,
0002
0000
0100
0103
,
0200
0000
0010
0310
,
0110
0000
0100
1000
,
1001
0000
1000
0010
,
0100
0100
0010
1000
,
0200
0000
0000
0300
,
0010
0001
0010
0000
,
0100
1000
0010
0100
,
0002
0000
0003
0000
,
0100
0010
0100
0010
,
0110
0000
0100
0010
,
1000
0000
1000
0100
,
0020
0000
0000
0030
,
0012
1000
0010
1003
,
0001
0001
0100
0000
,
0001
1000
0100
0000
,
1000
0010
0100
0000
,
0110
0000
0000
0000
,
0100
0100
0020
0030
,
1000
1000
0002
0003
,
0010
0010
0200
0300
,
1100
0000
0101
0000
,
0100
0100
0020
0030
,
0010
0010
0002
0003
,
0001
0001
2000
3000
,
1010
0000
0101
0000
,
0001
0010
0100
0000
,
0010
0001
0100
0000
,
0110
0000
0010
1000
,
1001
0000
0001
0010
,
0100
0000
0100
1000
,
0010
0000
0100
0001
,
0200
0000
0300
0000
,
0001
0010
0100
1000
,
0010
0100
0010
0000
,
1000
0000
0001
0010
,
0100
0000
0010
0100
,
2100
0001
0100
3001
,
1001
0000
0000
0000
;

//---------------dance-single - Kowalski-DSP----------------
#NOTES:
     dance-single:
     Kowalski:
     Medium:
     7:
     0.237987,0.309138,0.042936,0.395009,0,194,189,5,46,0,0,0.237987,0.309138,0.042936,0.395009,0,194,189,5,46,0,0:
0000
0000
0000
0000
,
0000
0000
0000
0000
,
0000
0000
0000
0000
,
0000
0000
0000
0000
,
0200
0000
0301
0000
1000
0100
0010
0000
,
0002
0000
0103
0000
0001
0100
0001
0000
,
0100
0100
0010
0010
1000
1000
0001
0000
,
0010
0010
0001
0001
1000
1000
0010
0000
,
0020
0000
0130
0000
0100
0001
1000
0000
,
2000
0000
3001
0000
1000
0001
0010
0000
,
0001
0001
0100
0100
0010
0010
1000
0000
,
1000
1000
0100
0100
0010
0010
0001
0000
,
1000
0000
0010
0010
0000
0200
0000
0300
,
0001
0010
0001
0000
0000
2000
0000
3000
,
0002
0000
0203
0000
0320
0000
1030
2000
,
0000
0000
3000
0000
,
1000
0000
0001
0000
0010
0000
0001
0010
,
0100
0000
0010
0000
0001
0001
1000
0000
,
2000
0000
0200
3000
0300
0000
0000
0000
,
2000
3200
0320
0032
,
1003
0000
0000
0000
0010
0000
0001
0100
,
1000
0000
0010
0000
0001
1000
1000
0000
,
0200
0000
0020
0300
0030
0000
0000
0000
,
0020
0032
2003
3020
,
0130
0000
0010
1000
0100
0000
0001
0000
,
0100
0000
0010
0001
0100
0000
0010
0000
,
0100
1000
0100
0000
0010
0000
0100
0000
,
0220
0000
0330
0000
,
1000
1000
0020
0031
,
0010
0100
0200
0301
,
0100
0100
0020
0130
,
0220
0030
0002
0303
,
0001
0000
0001
0000
0200
0000
0302
0003
,
1000
0000
1000
0000
0020
0000
2030
3000
,
0001
1000
0020
0130
,
0220
0300
2000
3030
,
0010
1000
0001
0000
0000
0100
0001
0000
,
0001
1000
0100
0000
0000
0001
0100
0000
,
0010
0001
0100
0000
0000
0010
1000
0000
,
0001
0100
0001
0000
0000
0100
0010
0000
,
0010
0000
0000
0000
0100
0100
0001
0000
,
0010
0000
0100
0000
1000
0001
0010
0000
,
0020
0000
0002
0030
0003
0000
0000
0000
,
0001
0011
0100
1100
,
1000
0000
0001
0010
0001
0000
0100
0000
,
0010
0000
1000
0000
1000
0100
0010
0000
,
0002
0000
0200
0003
0300
0000
0100
0000
,
0002
0203
0320
2030
,
3001
0000
0000
0000
;

//---------------dance-single - Kowalski-ESP----------------
#NOTES:
     dance-single:
     Kowalski:
     Hard:
     11:
     0.399916,0.515229,0.437945,0.223266,0.090165,326,275,51,26,0,0,0.399916,0.515229,0.437945,0.223266,0.090165,326,275,51,26,0,0:
// measure 0
0000
0000
0000
0000
,  // measure 1
0000
0000
0000
0000
,  // measure 2
0000
0000
0000
0000
,  // measure 3
0000
0000
0000
0000
,  // measure 4
0010
1000
0100
0010
0001
0100
0010
0000
,  // measure 5
1000
1000
0010
0100
0001
0100
0001
0000
,  // measure 6
1001
1100
0011
0101
1001
0000
0001
0100
,  // measure 7
0101
0110
1010
1100
1001
0001
0100
0000
,  // measure 8
0010
0010
1000
0001
0001
0100
0010
0000
,  // measure 9
1000
0010
1000
0001
0001
1000
0100
0000
,  // measure 10
0110
0011
1001
1010
0110
0010
1000
0000
,  // measure 11
1100
0110
0011
1010
0011
0001
0100
0000
,  // measure 12
0010
1000
0010
0000
0100
0000
0100
0000
0000
0000
0010
0000
0020
0000
0030
0000
,  // measure 13
0100
0001
0100
0000
0001
0000
0001
0000
0000
0000
0010
0000
0020
0000
0031
0000
,  // measure 14
0011
0000
1100
0000
1010
0000
2000
0002
,  // measure 15
0000
0000
0000
3003
,  // measure 16
2000
0000
0000
0000
3100
0000
0000
0000
0100
1000
0100
0000
0010
0000
0001
0000
,  // measure 17
0010
0000
0001
0100
0001
0100
1000
0100
,  // measure 18
0102
0000
0020
0003
0030
0000
0000
0001
,  // measure 19
1001
1100
1001
0011
1100
1001
0001
0010
,  // measure 20
0100
0000
0000
0000
0010
0000
0001
0000
0010
0001
0010
0000
0100
0000
1000
0000
,  // measure 21
1000
0000
0010
0100
0001
1000
1000
0010
,  // measure 22
0210
0000
0002
0003
0300
0000
0100
0010
,  // measure 23
1010
1100
0101
0011
1010
0010
0100
0010
,  // measure 24
0110
0000
0010
1000
0001
0100
0001
0010
,  // measure 25
0100
0000
1000
0010
0100
0001
0001
0000
,  // measure 26
0100
1000
0100
0001
0010
0100
1000
0000
,  // measure 27
2002
0000
0000
3003
,  // measure 28
1000
0100
0000
1000
0100
0000
0000
0000
2000
0000
0000
0000
3100
0000
0000
0000
,  // measure 29
0100
0010
0000
0100
0010
0000
0000
0000
0200
0000
0000
0000
0310
0000
0000
0000
,  // measure 30
0010
0001
0000
0010
0001
0000
0000
0000
0200
0000
0000
0000
0310
0000
0000
0000
,  // measure 31
0120
0000
1030
0010
0021
0000
0130
0010
,  // measure 32
1000
0100
0000
1000
0100
0000
0000
0000
2000
0000
0000
0000
3100
0000
0000
0000
,  // measure 33
0010
0001
0000
0010
0001
0000
0000
0000
0200
0000
0000
0000
0310
0000
0000
0000
,  // measure 34
1000
0001
0000
1000
0001
0000
0000
0000
2000
0000
0000
0000
3001
0000
0000
0000
,  // measure 35
0012
0000
0103
0001
2001
0000
3100
1000
,  // measure 36
0001
0100
0001
0000
0010
0000
0010
0000
0000
0000
1000
0000
0010
0000
0000
0000
,  // measure 37
0100
0010
0100
0000
1000
0000
1000
0000
0000
0000
0010
0000
0100
0000
0000
0000
,  // measure 38
0001
1000
0001
0000
0010
0000
0010
0000
0000
0000
0001
0000
1000
0000
0000
0000
,  // measure 39
0010
1000
0010
0000
1000
0000
1000
0000
0000
0000
0001
0000
0100
0000
0000
0000
,  // measure 40
0101
0000
0001
0010
0100
0000
1000
0100
,  // measure 41
0010
0000
1000
0000
0010
0001
0100
0100
,  // measure 42
0210
0000
0020
0300
0030
0000
0100
0001
,  // measure 43
0010
0000
0010
0000
0100
0000
1000
0000
0100
0010
0100
0000
1000
0000
0002
0000
,  // measure 44
0103
0000
0100
0010
1000
0000
1000
0100
,  // measure 45
0010
0000
1000
0000
0010
0001
0100
0010
,  // measure 46
0120
0000
2000
0030
3000
0000
1000
0010
,  // measure 47
0110
0101
1001
1100
0011
0001
0010
0100
,  // measure 48
0110
0000
0000
0000
;

//---------------dance-double - NewbStepper-EDP----------------
#NOTES:
     dance-double:
     NewbStepper:
     Hard:
     10:
     0.370474,0.391574,0.111633,0.103046,0.094459,302,289,13,12,0,0,0.370474,0.391574,0.111633,0.103046,0.094459,302,289,13,12,0,0:
00000000
00000000
00000000
00000000
,
00000000
00000000
00000000
00000000
,
00000000
00000000
00000000
00000000
,
00000000
00000000
00000000
00000000
,
00100000
10000000
01000000
00100000
00001000
00010000
00000100
00000000
,
00000010
00000001
00000100
00000010
00010000
00001000
01000000
00000000
,
00100000
00010000
00001000
00010000
00100000
00010000
00001000
00000000
,
00000010
00001000
00010000
00001000
00000010
00001000
00010000
00000000
,
01000000
10000000
00100000
01000000
00001000
00010000
00000010
00000000
,
00000100
00000001
00000010
00000100
00010000
00001000
00100000
00000000
,
01000000
00010000
00001000
00010000
01000000
00010000
00001000
00000000
,
00000100
00001000
00010000
00001000
00000100
00001000
00010000
00000000
,
00100000
10000000
00100000
10000000
00100000
00000000
01000000
00000000
00000000
00000000
00001000
00000000
00010000
00000000
00001000
00000000
,
00000010
00000001
00000010
00000001
00000010
00000000
00000100
00000000
00000000
00000000
00010000
00000000
00001000
00000000
00010000
00000000
,
01000000
00000000
10000000
01000000
00010000
00000000
00001000
00010000
,
00022000
00000000
00033000
00000000
,
00000010
00000000
00000000
00000001
00000100
00000000
00000020
00000000
00000000
00000000
00001030
00000000
00000100
00000000
00000010
00000000
,
00000001
00000100
00001000
00010000
01000000
10000000
00100000
01000000
,
01020000
00000000
00200000
00000000
00330000
00000000
00000000
00001000
,
00010000
00100000
00010000
00001000
00000010
00001000
00011000
00000000
,
00100000
00000000
00000000
10000000
01000000
00000000
00200000
00000000
00000000
00000000
00310000
00000000
01000000
00000000
00100000
00000000
,
10000000
01000000
00010000
00001000
00000100
00000001
00000010
00000100
,
00002100
00000000
00000020
00000000
00003030
00000000
00000000
00010000
,
00001000
00000010
00001000
00010000
00100000
00010000
00011000
00000000
,
01000000
00000000
10000000
00000000
01000000
00000000
00010000
00000000
00001000
00000000
00000010
00000001
00000000
00000000
00001000
00000000
,
00000001
00000000
00000010
00000000
00001000
00000000
00010000
00000000
00001000
00000000
00000100
00000010
00000000
00000000
00000000
00000000
,
00000100
00000000
00000001
00000000
00000100
00000000
00001000
00000000
00010000
00000000
01000000
10000000
00000000
00000000
00100000
00000000
,
00020000
00000000
00002000
00033000
,
00011000
00000000
00001000
00000100
00000001
00000000
00000011
00000000
,
00000010
00000001
00000100
00000010
00010000
00000100
00000010
00000000
,
00011000
00000000
00010000
01000000
10000000
00000000
10100000
00000000
,
00010000
00001000
00000000
00000000
00100000
00000000
00000000
00000000
00001000
00010000
00000000
00000000
00000010
00000000
00000000
00000000
,
00000100
00000001
00000010
00001000
00010000
01000000
00010000
00000000
,
01000000
10000000
00100000
00010000
00001000
00000100
00001000
00000000
,
00011000
00000000
00001000
00000100
00000001
00000000
00000011
00000000
,
00001000
00010000
00000000
00000000
00000010
00000000
00000000
00000000
00010000
00001000
00000000
00000000
00100000
00000000
00000000
00000000
,
00010000
10000000
00010000
00000000
00100000
00000000
01000000
00000000
00000000
00000000
10000000
00000000
01000000
00000000
00000000
00000000
,
00010000
00001000
00010000
00000000
00000100
00000000
00001000
00000000
00000000
00000000
00000001
00000000
00000100
00000010
00000000
00000100
,
00000001
00001000
00000001
00000000
00000100
00000000
00001000
00000000
00000000
00000000
00010000
00000000
01000000
00000000
00000000
00000000
,
10000000
00010000
10000000
00000000
01000000
00000000
00010000
00000000
00011000
00000000
00000000
00000000
00000000
00000000
00000000
00000000
,
00100000
10000000
01000000
10000000
01000000
00010000
01000000
00010000
,
00001000
00010000
00000000
00000100
00000010
00000001
00000100
00001000
,
00020000
00002000
00033000
00000000
,
00000100
00000001
00000010
00001000
00010000
00100000
10000000
00000000
,
01000000
00000000
10000000
00000000
01000000
00000000
00010000
00000000
00001000
00000000
00000100
00000001
00000000
00000000
00001000
00000000
,
00000001
00000000
00000010
00000000
00001000
00000000
00010000
00000000
00001000
00000000
00000100
00000010
00000000
00000000
00000000
00000000
,
00000100
00000000
00000001
00000000
00000100
00000000
00001000
00000000
00010000
00000000
01000000
10000000
00000000
00000000
00100000
00000000
,
00010000
00001000
00000010
00001000
00010000
00100000
00010000
00001000
,
00011000
00000000
00000000
00000000
;

//---------------dance-double - NewbStepper-DDP----------------
#NOTES:
     dance-double:
     NewbStepper:
     Medium:
     7:
     0.242894,0.288528,0.017174,0.231853,0,198,196,2,27,0,0,0.242894,0.288528,0.017174,0.231853,0,198,196,2,27,0,0:
00000000
00000000
00000000
00000000
,
00000000
00000000
00000000
00000000
,
00000000
00000000
00000000
00000000
,
00000000
00000000
00000000
00000000
,
00002000
00000000
00013000
00000000
01000000
00010000
00001000
00000000
,
00020000
00000000
00031000
00000000
00000100
00001000
00010000
00000000
,
01000000
00000000
10000000
00000000
00100000
00010000
00001000
00000000
,
00000100
00000000
00000001
00000000
00000010
00001000
00010000
00000000
,
00002000
00000000
00013000
00000000
00100000
00010000
00001000
00000000
,
00020000
00000000
00031000
00000000
00000010
00001000
00010000
00000000
,
00100000
00000000
00000000
00000000
10000000
00000000
01000000
00010000
,
00001000
00000000
00000010
00000000
00000001
00000000
00000100
00001000
,
00010000
00000000
00100000
00100000
00000000
20000000
00000000
30000000
,
00010000
00000000
00100000
00100000
00000000
00002000
00000000
00003000
,
00010000
00001000
00000100
00000001
,
00000010
00000000
00000000
00000000
,
00000001
00000100
00000001
00000000
00000100
00000000
00001000
00000000
,
00010000
00001000
00010000
00000000
00100000
00000000
00100000
00000000
,
20000000
02000000
33000000
00000000
,
20000000
32000000
03200000
00320000
,
10030000
01000000
10000000
00000000
01000000
00000000
00010000
00000000
,
00001000
00010000
00001000
00000000
00000010
00000000
00000010
00000000
,
00000002
00000200
00000303
00000000
,
00002002
00000000
00000000
00003003
,
00000010
00000001
00000100
00000000
00000010
00000000
00001000
00000000
,
00000100
00010000
00001000
00000000
00100000
00000000
00010000
00000000
,
10000000
01000000
00010000
00000000
00001000
00000000
00100000
00000000
,
00020000
00000000
00000000
00030000
,
10000000
00000000
01000000
00010000
01000000
00000000
00010000
00000000
,
00001000
00000000
00000010
00000001
00000010
00000000
00001000
00000000
,
00020000
00000000
01030000
00010000
00001000
00000000
00000100
00000000
,
00002000
00000000
00020000
00033000
,
00100000
10000000
00100000
10000000
01000000
00000000
00010000
00000000
,
00001000
00000010
00001000
00000010
00000001
00000000
00000100
00000000
,
00002000
00000000
00003100
00001000
00010000
00000000
01000000
00000000
,
00020000
00000000
00002000
00033000
,
00200000
00000000
00010000
00000000
00300000
00001000
00010000
00000000
,
00000020
00000000
00001000
00000000
00000030
00010000
00001000
00000000
,
00000100
00000001
00000100
00000001
00000000
00001000
00000100
00000000
,
00010000
00001000
00010000
00001000
00000000
01000000
00100000
00000000
,
10000000
01000000
00010000
00000000
00001000
00010000
00000010
00000000
,
00000100
00000001
00000100
00000000
00001000
00010000
00001000
00000000
,
00200000
00020000
00330000
00000000
,
10000000
01000000
00010000
00000000
00001000
00000100
00000001
00000000
,
00000010
00000001
00000100
00000000
00000010
00000000
00001000
00000000
,
00000100
00010000
00001000
00000000
00100000
00000000
00010000
00000000
,
10000000
01000000
00010000
00000000
00001000
00000000
00100000
00000000
,
00010000
01000000
00001000
00010000
00000100
00001000
00000001
00000000
,
00001001
00000000
00000000
00000000
;

//---------------dance-double - NewbStepper-BDP----------------
#NOTES:
     dance-double:
     NewbStepper:
     Easy:
     5:
     0.152115,0.206092,0.025761,0.111633,0,124,121,3,13,0,0,0.152115,0.206092,0.025761,0.111633,0,124,121,3,13,0,0:
00000000
00000000
00000000
00000000
,
00000000
00000000
00000000
00000000
,
00000000
00000000
00000000
00000000
,
00000000
00000000
00000000
00000000
,
00010000
00000000
00001000
00000000
,
00010000
00000000
00001000
00000000
,
00200000
00000000
00000000
00300000
,
02000000
00000000
00000000
03000000
,
00010000
00001000
00010000
00001000
,
00000100
00000001
00000100
00000001
,
00000020
00000000
00000000
00000030
,
00000200
00000000
00000000
00000300
,
00010000
00010000
00000000
00001000
,
01000000
01000000
00000000
00010000
,
10000000
01000000
00100000
00010000
,
00001000
00000000
00000000
00000000
,
00000001
00000000
00000001
00000100
,
00000010
00001000
00000100
00010000
,
00002000
00000000
00000000
00003000
,
01000000
00010000
01000000
00010000
,
10000000
00000000
10000000
01000000
,
00100000
00010000
01000000
00001000
,
00020000
00000000
00000000
00030000
,
00000100
00001000
00000100
00001000
,
00000001
00000100
00001000
00000000
,
00010000
01000000
10000000
00000000
,
10000000
00100000
00010000
00000000
,
00002000
00000000
00003000
00000000
,
00100000
00100000
00010000
00010000
,
10000000
10000000
01000000
01000000
,
00010000
00001000
00010000
00001000
,
00022000
00000000
00033000
00000000
,
00000010
00000010
00001000
00001000
,
00000001
00000001
00000100
00000100
,
00001000
00010000
00001000
00010000
,
00022000
00000000
00033000
00000000
,
00100000
10000000
00000000
00000000
,
01000000
00010000
00000000
00000000
,
00001000
00000010
00000000
00000000
,
00000001
00000100
00000000
00000000
,
00000001
00000100
00000001
00000100
,
00001000
00010000
00001000
00010000
,
00200000
00000000
00300000
00000000
,
10000000
01000000
00010000
01000000
,
10000000
00000000
10000000
00100000
,
01000000
00010000
00100000
00001000
,
00020000
00000000
00000000
00030000
,
00000010
00001000
00000010
00001000
,
00001001
00000000
00000000
00000000
;

//---------------dance-single - RIME-CSP----------------
#NOTES:
     dance-single:
     RIME:
     Challenge:
     13:
     0.565525,0.597666,0.085872,0.334899,0.575339,461,451,10,39,0,0,0.565525,0.597666,0.085872,0.334899,0.575339,461,451,10,39,0,0:
0000
0000
0000
0000
,
0000
0000
0000
0000
,
0000
0000
0000
0000
,
0000
0000
0000
0000
0000
0000
0000
0010
,
1000
0000
0010
0000
1000
0000
0010
0000
1000
0000
0001
0020
0000
0000
0130
0000
,
0010
0000
0100
0000
0010
0000
0100
0000
0010
0000
0100
2000
0000
0000
3001
0000
,
1000
0000
0010
0000
0001
0000
1000
0000
0100
0000
0001
2000
0000
0000
3100
0000
,
1000
0000
0100
0000
0001
0000
1000
0000
0010
0000
0001
2000
0000
0000
3010
0000
,
1000
0000
0010
0000
1000
0000
0010
0000
1000
0000
0001
0020
0000
0000
0130
0000
,
0010
0000
0100
0000
0010
0000
0100
0000
0010
0000
0100
2000
0000
0000
3001
0000
,
1000
0000
0010
0000
0001
0000
1000
0000
0100
0000
0001
2000
0000
0000
3001
0000
,
1000
0000
0100
0000
0001
0000
1000
0000
0010
0000
0001
2000
0000
0000
3010
0000
,
1000
0100
1000
0100
0010
0000
0001
0000
0100
0000
0010
0100
0010
0000
1000
0000
,
0001
0100
0001
0100
0010
1000
0010
0000
1000
0000
0001
0010
0001
0000
0010
0000
,
0100
0000
0000
1000
0100
0000
0010
0000
0100
0000
1000
0100
0010
0000
0001
0000
,
1000
0010
0100
0002
,
1003
0000
0001
0010
0100
0000
1000
0010
0100
0000
0001
0010
0100
0000
1000
0001
,
0100
0000
0010
0010
1000
0010
0100
0001
1000
0000
0100
0001
0100
0000
0010
0000
,
0001
0000
1000
0010
0100
0000
0001
0010
0100
0000
1000
0010
0100
0000
0001
1000
,
0100
0000
0001
0000
0100
0000
0001
0000
0100
0000
1000
0001
0000
0001
0100
0000
,
0010
0000
1000
0010
0100
0000
0001
0010
0100
0000
1000
0010
0100
0000
0001
1000
,
0100
0000
0010
0010
0100
1000
0001
0100
0010
0000
1000
0100
1000
0000
0001
0000
,
0100
0000
0010
0100
0001
0000
0010
0100
1000
0000
0010
0100
0001
0000
0100
0001
,
1000
0000
0100
0000
1000
0000
0100
0000
1000
0000
0010
0200
0001
0000
0310
0000
,
0100
0000
0001
0000
0010
0000
0100
0000
0010
0000
0001
2000
0000
0000
3010
0000
,
1000
0000
0100
0000
0010
0000
0100
0000
1000
0000
0010
0200
0000
0301
0100
0000
,
0010
0000
1000
0000
0001
0000
1000
0000
0100
0000
0010
0200
0000
0000
1300
0000
,
0100
0000
0000
0000
0000
0000
0010
0000
0000
0000
0000
0000
0001
0000
0000
0000
0000
0000
1000
0000
0000
0000
0000
0000
0010
0000
0000
0000
0000
0000
0100
0000
0000
0002
0000
0000
0000
0000
0000
0000
0000
0000
1003
0000
0001
0000
0100
0000
,
0001
0000
0000
0010
0000
0000
0000
0000
0000
0010
0000
0000
0200
0000
0000
0000
0000
0000
1300
0000
0000
0000
0000
0000
2000
0000
0000
0000
0000
0000
3001
0000
0000
0000
0000
0000
1002
0000
0000
0000
0000
0000
0103
0000
0001
0000
0100
0000
,
0001
0000
0000
0100
0000
0000
0000
0000
0000
0100
0000
0000
0010
0000
0000
0000
0000
0000
0010
0000
0000
0000
0000
0000
2000
0000
0000
0000
0000
0000
3001
0000
0000
0000
0000
0000
0002
0000
0000
0000
0000
0000
0013
0000
0001
0000
0010
0000
,
0001
0000
0000
0100
0000
0000
0000
0000
0000
0100
0000
0000
0020
0000
0000
0000
0000
0000
1030
0000
0000
0000
0000
0000
2000
0000
0000
0000
0000
0000
3100
0000
0000
0000
0000
0000
1200
0000
0000
0000
0000
0000
0310
0000
0100
0000
0010
0000
,
0100
0000
0000
1000
0000
0000
0000
0000
0000
1000
0000
0000
0001
0000
0000
0000
0000
0000
0100
0000
0010
0000
0100
0000
0010
0000
0000
1000
0000
0000
0000
0000
0000
1000
0000
0000
0001
0000
0000
0000
0000
0000
0010
0000
0100
0000
0010
0000
,
0100
0000
0000
1000
0000
0000
0000
0000
0000
1000
0000
0000
0020
0000
0000
0000
0000
0000
0130
0000
0000
0000
0000
0000
0200
0000
0000
0000
0000
0000
0301
0000
0000
0000
0000
0000
0102
0000
0000
0000
0000
0000
1003
0000
0001
0000
1000
0000
,
0001
0000
0000
0010
0000
0000
0000
0000
0000
0010
0000
0000
0100
0000
0000
0000
0000
0000
0100
0000
0000
0000
0000
0000
2000
0000
0000
0000
0000
0000
3010
0000
0000
0000
0000
0000
0020
0000
0000
0000
0000
0000
0130
0000
0010
0000
0100
0000
,
0010
0000
0000
1000
0000
0000
0000
0000
0000
1000
0000
0000
0002
0000
0000
0000
0000
0000
0013
0000
0000
0000
0000
0000
0020
0000
0000
0000
0000
0000
0130
0000
0000
0000
0000
0000
0210
0000
0000
0000
0000
0000
1300
0000
0100
0000
0010
0000
,
0100
0000
0000
1000
0000
0000
0000
0000
0000
1000
0000
0000
0001
0000
0000
0000
0000
0000
0100
0000
1000
0000
0100
0000
1000
0000
0000
0100
0000
0000
0000
0000
0000
0100
0000
0000
0001
0000
0000
0000
0000
0000
0010
0000
0100
0000
1000
0000
,
0001
0000
0000
0010
0000
0000
0100
0000
0000
0100
0000
0000
1000
0000
0000
0000
0000
0000
0001
0000
0000
0000
0000
0000
0000
0000
0000
0000
0000
0000
0100
0000
0000
0000
0000
0000
0001
0000
0000
0000
0000
0000
0010
0000
0100
0000
1000
0000
,
0010
0000
0000
0100
0000
0000
0001
0000
0000
0001
0000
0000
1000
0000
0000
0000
0000
0000
0010
0000
0000
0000
0000
0000
0000
0000
0000
0000
0000
0000
1000
0000
0000
0000
0000
0000
0001
0000
0000
1000
0000
0000
0010
0000
0100
0000
0010
0000
,
0100
0000
0000
0001
0000
0000
0010
0000
0000
0100
0000
0000
0100
0000
0000
0000
0000
0000
2000
0000
0000
0000
0000
0000
0000
0000
0000
0000
0000
0000
0010
0000
0000
0000
0000
0000
0001
0000
0000
0000
0000
0000
3100
0000
1000
0000
0100
0000
,
1000
0000
0000
0010
0000
0000
0100
0000
0000
0001
0000
0000
0001
0000
0000
0000
0000
0000
1000
0000
0001
0000
1000
0000
0001
0000
0000
0000
0000
0000
0011
0000
0000
0000
0000
0000
0010
0000
0000
0100
0000
0000
0000
0000
0000
0100
0000
0000
,
1000
0000
0001
0100
1000
0100
0001
0000
1000
0100
0001
0100
1000
0000
0010
1000
,
0001
0100
0010
0000
1000
0000
0001
0010
0100
0000
1000
0002
0000
0103
0001
0000
,
0010
0000
0100
0000
1000
0000
0010
0000
0100
0000
0001
0020
0000
0000
0130
0000
,
0010
0010
0001
0100
1000
0100
0001
0000
0010
0010
0001
0100
1000
0000
0200
0310
,
0100
0000
0001
0000
0010
0000
0100
0000
1000
0000
0010
2000
0000
0000
3001
0000
,
1000
0000
0100
1000
0010
1000
0001
0010
0001
0000
0200
0310
0100
0000
0001
0000
,
0021
0000
0001
0000
0100
0000
1030
0000
0010
0000
0001
2000
0000
0000
3010
0000
,
1010
0000
1000
0000
1010
0000
0010
0000
1010
0000
1000
0002
0000
0013
0001
0000
,
0011
0000
0000
0000
;

//---------------dance-double - NewbStepper-CDP----------------
#NOTES:
     dance-double:
     NewbStepper:
     Challenge:
     14:
     0.502962,0.556448,0.120220,0.240440,0.425064,410,396,14,28,0,0,0.502962,0.556448,0.120220,0.240440,0.425064,410,396,14,28,0,0:
00000000
00000000
00000000
00000000
,
00000000
00000000
00000000
00000000
,
00000000
00000000
00000000
00000000
,
00000000
00000000
00000000
00000000
00000000
00000000
00000000
00001000
,
00000010
00000000
00000001
00000000
00000100
00000000
00001000
00000000
00010000
00000000
01000000
10000000
00100000
00000000
00010000
00000000
,
00100000
00000000
10000000
00000000
01000000
00000000
00010000
00000000
00001000
00000000
00000100
00000001
00000010
00000000
00001000
00000000
,
00010000
00000000
00001000
00000000
00000010
00000000
00001000
00000000
00010000
00000000
00100000
00020000
00000000
00000000
00031000
00000000
,
00000010
00000000
00001000
00000000
00010000
00000000
00001000
00000000
00000100
00000000
00001000
00020000
00000000
00000000
00130000
00000000
,
10000000
00000000
01000000
00000000
00010000
00000000
00000100
00000000
00000001
00000000
00000100
00002000
00000000
00000000
00013000
00000000
,
10000000
00000000
01000000
00000000
00010000
00000000
00000100
00000000
00000001
00000000
00000100
00002000
00000000
00000000
00013000
00000000
,
10000000
00000000
01000000
00000000
00010000
00000000
01000000
00000000
10000000
00000000
00100000
00010000
00001000
00000000
00000010
00000000
,
00000001
00000000
00000100
00000000
00001000
00000000
00000100
00000000
00000001
00000000
00000010
00001000
00010000
00000000
00100000
00000000
,
10000000
01000000
10000000
01000000
00010000
00000000
00001000
00000000
00000010
00000000
00001000
00000000
00011000
00000000
00000000
00000000
,
00000001
00000100
00000001
00000100
00001000
00000000
00010000
00000000
00100000
00000000
00010000
00000000
00001000
00000000
00000100
00000000
,
00000002
00000000
00002003
00000000
00023000
00000000
10030000
00010000
,
10010000
00000000
00000000
00000000
,
11000000
00000000
10000000
01000000
00010000
00000000
00001000
00100000
00010000
00000000
00001000
00000000
00000100
00000000
00000010
00000000
,
00000011
00000000
00000001
00000100
00001000
00010000
00100000
10000000
00010000
00000000
00001000
00000000
00010000
00000000
10000000
00000000
,
02000000
03020000
00030020
00002030
,
00003001
00000000
00000100
00000000
00010000
00000000
00001000
00000000
00100000
00000000
10000000
01000000
00010000
00000000
00001000
00000000
,
00000101
00000000
00000001
00000100
00001000
00000000
00010000
00000010
00001000
00000000
00010000
00000000
01000000
00000000
00100000
00000000
,
10100000
00000000
10000000
01000000
00010000
00001000
00000010
00000001
00001000
00000000
00010000
00000000
00001000
00000000
00000001
00000000
,
00000200
00002300
00203000
00320000
,
10030000
01000000
00001000
00010000
00000010
00000001
00001001
00000000
,
00000010
00000000
00000001
00000000
00000100
00000000
00001000
00000000
00010000
00000000
00100000
10000000
00100000
00000000
01000000
00000000
,
00100000
00000000
10000000
00000000
01000000
00000000
00010000
00000000
00001000
00000000
00000010
00000001
00000010
00000100
00001000
00000000
,
00000001
00000000
00000100
00000000
00010000
00000000
00001000
00000000
00100000
00000000
10000000
01000000
00010000
00000000
00001000
00000000
,
00021000
00000000
00000000
00000000
00000000
00000000
00000100
00000000
00000000
00000000
00000000
00000000
01000000
00000000
00000000
00000000
00000000
00000000
00031000
00000000
00000000
00010000
00001000
00010000
,
00000100
00000000
00000000
00001000
00000000
00000000
00000000
00000000
00000000
00001000
00000000
00000000
00000001
00000000
00000000
00000000
00000000
00000000
00000100
00000000
00000000
00000000
00000000
00000000
00010000
00000000
00000000
00000000
00000000
00000000
01000000
00000000
00000000
00000000
00000000
00000000
10000000
00000000
00000000
00000000
00000000
00000000
01000000
00000000
00010000
00000000
01000000
00000000
,
00100000
00000000
00000000
10000000
00000000
00000000
00000000
00000000
00000000
10000000
00000000
00000000
01000000
00000000
00000000
00000000
00000000
00000000
00010000
00000000
00000000
00000000
00000000
00000000
00000010
00000000
00000000
00000000
00000000
00000000
00001000
00000000
00000000
00000000
00000000
00000000
00000001
00000000
00000000
00000000
00000000
00000000
00000010
00000000
00000001
00000000
00001000
00000000
,
00000010
00000000
00000000
00000100
00000000
00000000
00000000
00000000
00000000
00001000
00000000
00000000
00010000
00000000
00000000
00000000
00000000
00000000
00100000
00000000
00000000
00000000
00000000
00000000
20000000
00000000
00000000
00000000
00000000
00000000
00000000
00000000
00000000
00000000
00000000
00000000
30010000
00000000
00000000
00000000
00000000
00000000
00100000
00000000
00001000
00000000
00010000
00000000
,
00001000
00000000
00000000
00000100
00000000
00000000
00000000
00000000
00000000
00001000
00000000
00000000
00010000
00000000
00000000
00000000
00000000
00000000
00000010
00000000
00010000
00000000
00001000
00000000
00010000
00000000
00000000
01000000
00000000
00000000
00000000
00000000
00000000
00010000
00000000
00000000
00001000
00000000
00000000
00000000
00000000
00000000
00010000
00000000
00000100
00000000
00010000
00000000
,
00001000
00000000
00000000
00000010
00000000
00000000
00000000
00000000
00000000
00000001
00000000
00000000
00000100
00000000
00000000
00000000
00000000
00000000
00001000
00000000
00000000
00000000
00000000
00000000
00010000
00000000
00000000
00000000
00000000
00000000
01000000
00000000
00000000
00000000
00000000
00000000
00010000
00000000
00000000
00000000
00000000
00000000
00001000
00000000
01000000
00000000
00001000
00000000
,
00010000
00000000
00000000
00100000
00000000
00000000
00000000
00000000
00000000
10000000
00000000
00000000
01000000
00000000
00000000
00000000
00000000
00000000
00010000
00000000
00000000
00000000
00000000
00000000
00001000
00000000
00000000
00000000
00000000
00000000
00000100
00000000
00000000
00000000
00000000
00000000
00001000
00000000
00000000
00000000
00000000
00000000
00010000
00000000
00001000
00000000
00010000
00000000
,
00001000
00000000
00000000
00000010
00000000
00000000
00000000
00000000
00000000
00000000
00000000
00000000
00011000
00000000
00000000
00000000
00000000
00000000
00000000
00000000
00000000
00000000
00000000
00000000
00010000
00000000
00000000
00100000
00000000
00000000
00000000
00000000
00000000
00000000
00000000
00000000
00011000
00000000
00000000
00000000
00000000
00000000
00100000
00000000
10000000
00000000
00100000
00000000
,
01000000
00000000
00000000
00010000
00000000
00000000
00000000
00000000
00000000
00010000
00000000
00000000
00100000
00000000
00000000
00000000
00000000
00000000
00001000
00000000
00010000
00000000
00000010
00000000
00010000
00000000
00000000
00001000
00000000
00000000
00000000
00000000
00000000
00001000
00000000
00000000
00000010
00000000
00000000
00000000
00000000
00000000
00000001
00000000
00000100
00000000
00000001
00000000
,
00001000
00000000
00000000
00000100
00000000
00000000
00010000
00000000
00000000
00000000
00000000
00000000
01000000
00000000
00000000
00000000
00000000
00000000
20000000
00000000
00000000
00000000
00000000
00000000
00000000
00000000
00000000
00000000
00000000
00000000
00100000
00000000
00000000
00000000
00000000
00000000
30010000
00000000
00000000
00000000
00000000
00000000
10000000
00000000
01000000
00000000
10000000
00000000
,
00010000
00000000
00000000
01000000
00000000
00000000
00001000
00000000
00000000
00000000
00000000
00000000
00000100
00000000
00000000
00000000
00000000
00000000
00000002
00000000
00000000
00000000
00000000
00000000
00000000
00000000
00000000
00000000
00000000
00000000
00000010
00000000
00000000
00000000
00000000
00000000
00001003
00000000
00000000
00000000
00000000
00000000
00000001
00000000
00000010
00000000
00000100
00000000
,
00000010
00000000
00000000
00000001
00000000
00000000
00000100
00000000
00000000
00000000
00000000
00000000
00001100
00000000
00000000
00000000
00000000
00000000
00000000
00000000
00000000
00000000
00000000
00000000
00000000
00000000
00000000
00000000
00000000
00000000
00000000
00000000
00000000
00000000
00000000
00000000
00000000
00000000
00000000
00000000
00000000
00000000
00010000
00000000
00001000
00000000
00010000
00000000
,
00001000
00000000
00000000
00010000
00000000
00000000
01000000
00000000
00000000
10000000
00000000
00000000
00100000
00000000
00000000
00000000
00000000
00000000
10000000
00000000
01000000
00000000
00100000
00000000
00020000
00000000
00000000
00000000
00000000
00000000
00000000
00000000
00000000
00000000
00000000
00000000
00030000
00000000
00000000
00000000
00000000
00000000
00000000
00000000
00000000
00000000
00000000
00000000
,
10010000
00000000
10000000
01000000
10000000
01000000
00010000
00000000
01000000
00010000
01000000
00010000
00001000
00000000
00010000
00001000
,
00010000
00001000
00000010
00000000
00000001
00000000
00000100
00000010
00001000
00000000
00000100
00000000
00000001
00000000
00000100
00000000
,
00000020
00002030
02003000
03020000
,
10030000
00100000
00010000
00001000
00000010
00000001
00001000
00000000
00000001
00000100
00001000
00010000
01000000
00000000
10000000
00000000
,
00100000
00000000
10000000
00000000
01000000
00000000
00010000
00000000
00001000
00000000
00000010
00000001
00000010
00000000
00000100
00000000
,
00000011
00000000
00000001
00000100
00001000
00010000
00100000
10000000
00010000
00000000
00001000
00000000
00010000
00000000
10000000
00000000
,
02000000
03020000
00030020
00002030
,
00003001
00000000
00000100
00000000
00010000
00000000
00001000
00000000
00100000
00000000
10000000
01000000
00010000
00000000
00001000
00000000
,
00011000
00000000
00000000
00000000
;
