#TITLE:Believe;
#ARTIST:Pyxll feat. クラブ SODA;
#ARTISTTRANSLIT:Pyxll feat. Kurabu SODA;
#BANNER:Believe.png;
#BACKGROUND:Believe-bg.png;
#MUSIC:Believe.ogg;
#OFFSET:0.699;
#SAMPLESTART:27.439;
#SAMPLELENGTH:15;
#BPMS:0=145,100=72.5,115.5=145,148=72.5,156=145,216=72.5;
#STOPS:115.5=0.207,156=0.414,163=0.414,182=0.414,183=0.414;

//---------------dance-single - Marten-bSP----------------
#NOTES:
     dance-single:
     Marten:
     Beginner:
     4:
     :
0000
0000
0000
0000
,
0000
0000
0000
0000
,
0000
0000
0000
0000
,
0000
0000
0000
0000
,
0000
0000
0000
0000
,
1000
0000
1000
0000
,
0001
0000
0001
0000
,
0010
0000
0010
0000
,
0100
0100
0000
1000
,
1001
0000
0000
0000
,
0110
0000
0000
0000
,
1001
0000
1000
1000
,
2000
3000
0002
0003
,
0100
0000
0100
0000
,
0010
0000
0010
0000
,
1000
0000
0001
0000
,
2002
3003
0220
0330
,
1001
0001
0001
0000
,
0010
0000
0100
0000
,
1000
1000
1000
0000
,
0010
0000
0100
0000
,
0001
0001
0001
0000
,
0100
0000
0010
0000
,
1000
1000
1000
0000
,
0200
0300
0020
0030
,
0002
0003
0020
0030
,
0200
0300
2000
3000
,
0002
0003
0200
0300
,
0020
0030
2000
3000
,
0001
1000
0001
0000
,
0100
0000
0010
0000
,
1000
0001
1000
0000
,
0100
0000
0010
0000
,
0001
0010
0001
0000
,
0100
0000
0010
0000
,
1000
0010
1000
0000
,
1001
0000
0110
0000
,
1000
1000
0010
0010
,
0100
0100
0001
0001
,
1001
0001
0001
2000
,
3000
0200
0300
1001
,
1000
1000
0002
0003
,
0200
0300
0001
0001
,
0010
0000
1000
1000
,
0010
0000
0100
0000
,
0010
0000
0000
0000
0000
0000
0000
0000
0000
0000
0000
0000
0000
0000
0000
0000
2002
3003
0000
0000
0000
0000
0000
0000
2002
3003
0000
0000
0000
0000
0000
0000
,
0000
0100
0001
0000
,
1000
0100
1000
0000
,
0001
0010
0001
0000
,
1000
0010
1000
0000
,
0001
0001
0010
0000
,
1000
1000
0010
0000
,
0001
0001
1000
1000
,
2002
3003
0220
0330
,
0002
0003
0020
0030
,
0200
0300
2000
3000
;

//---------------dance-single - Marten-BSP----------------
#NOTES:
     dance-single:
     Marten:
     Easy:
     8:
     :
0000
0000
0000
0000
,
0000
0000
0000
0000
,
0000
0000
0000
0000
,
0000
0000
0000
0000
,
0000
0000
0000
0000
,
1000
1000
1000
1000
,
0001
0001
0001
0001
,
0010
0010
0100
0100
,
1000
0010
0001
0100
,
1001
0000
0000
0010
,
0110
0000
0000
1000
,
1001
0000
1000
0001
,
1001
0000
0110
0000
,
0010
1010
1000
0001
,
0010
0011
0001
1000
,
0100
1100
1000
0001
,
0202
0303
2200
3300
,
1000
0000
0100
0000
0020
0000
0031
1000
,
0001
0000
0100
0000
0010
0100
0010
0000
,
0110
0000
0100
0010
,
2000
0000
3001
0000
0010
0001
0010
0000
,
0100
1000
0100
0000
0010
0000
0001
0000
,
0100
0000
0100
0000
0010
0100
0010
0000
,
0110
0000
0010
1000
,
2020
3030
0202
0303
,
1002
0000
0023
0000
,
0230
0000
2300
0000
,
3002
0000
0203
0000
,
0320
0000
0000
0000
2030
0000
0000
3001
,
1000
1100
0001
0101
,
0010
0100
1001
0000
,
1000
1010
0001
0011
,
0010
0100
1001
0000
,
1000
1010
1000
1100
,
0010
0100
1001
0000
,
0001
0011
0001
0101
,
1001
0000
0001
1000
0001
0000
1000
0001
,
1000
1000
0010
0010
,
0100
0100
0001
0001
,
2002
3003
0000
0000
0000
0000
0000
0000
2002
0000
0000
0000
0000
0000
0000
0000
3003
0000
0000
0000
0000
0000
0000
0000
0001
0000
0000
0000
0000
0000
0000
0000
,
0100
0000
0000
0000
0000
0000
0000
0000
1000
0000
0000
0000
0000
0000
0000
0000
0100
0000
0000
0000
0000
0000
0000
0000
2002
3003
0000
0000
0000
0000
0000
0000
,
2002
3003
1000
0100
,
0001
0100
1001
1000
,
0020
0000
0030
0000
0100
0010
0100
0000
,
0001
1000
1001
0001
,
0100
0000
0000
0000
0000
0000
0000
0000
0010
0000
0000
0000
0010
0000
0000
0000
2000
3000
0000
0000
0000
0000
0000
0000
0002
0003
0000
0000
0000
0000
0000
0000
,
0001
0000
0100
0000
0020
0000
1030
0001
,
1000
0000
0100
0000
0010
0100
0010
0000
,
0110
0000
0100
0010
,
0002
0000
1003
0000
0010
1000
0010
0000
,
0100
0001
0100
0000
0010
0000
1000
0000
,
0100
0000
0100
0000
0010
0100
0010
0000
,
0110
0000
0010
0001
,
0022
0033
2200
3300
,
2000
0000
3020
0000
,
0230
0000
0302
0000
,
0003
0000
0000
0000
;

//---------------dance-single - Marten-DSP----------------
#NOTES:
     dance-single:
     Marten:
     Medium:
     11:
     :
0000
0000
0000
0000
,
0000
0000
0000
0000
,
0000
0000
0000
0000
,
0000
0000
0000
0000
,
0000
0000
0000
0000
,
1000
0000
1000
0100
0010
0000
0010
0000
,
0001
0100
1000
0100
0001
0000
0020
0000
,
0130
1000
0100
1000
0001
0100
0001
0100
,
0010
1000
0100
0010
0001
0100
1000
0100
,
1001
0000
0000
0000
0000
0000
0000
0000
0010
0000
0000
0010
0000
0000
0010
0000
,
0110
0000
0000
0000
0000
0000
0000
0001
,
1001
0000
0000
0000
1000
0000
0000
0000
0100
0000
0000
0100
0000
0000
0100
0000
,
0120
0000
0130
0000
2001
0000
3001
0100
,
0010
0000
0000
0000
1001
0000
0000
0000
0010
0000
0000
0010
1000
0000
0100
0000
,
0010
0000
0000
0000
0001
0000
1000
0000
0100
0000
0000
0100
1000
0000
0001
0000
,
0100
0000
0000
0000
0110
0000
0000
0000
0010
1000
0000
0010
1000
0000
0001
0000
,
0020
0000
0130
0000
0200
0000
0310
0001
,
0011
0000
0000
0000
1100
0000
0000
0000
0120
0000
0000
0130
0000
0000
1000
0000
,
0001
0000
0100
0000
1000
0000
0100
0000
0001
0000
0000
0001
0000
0000
1000
0000
,
0010
0000
0000
0000
0101
0000
0000
0000
0120
0000
0000
0130
0000
0000
0001
0000
,
1000
0000
0100
0000
0001
0000
0100
0000
1000
0000
0000
1000
0000
0000
0001
0000
,
0010
0000
0010
0000
0020
0000
0000
0000
0130
1000
0000
0100
1000
0000
0001
0000
,
0100
0000
0000
0000
0010
0000
0100
0000
0001
0010
0000
0001
0010
0000
0100
0000
,
1000
0000
0000
0000
1100
0000
0000
0000
1001
0000
0000
0001
0000
0000
0100
0000
,
0020
0000
1030
0001
2000
0100
3100
1000
,
0002
0000
0023
0000
,
0230
0000
2300
0000
,
3010
0000
0000
0000
0010
0000
0000
0000
0100
0000
0000
0100
0000
0000
0100
0000
0002
0000
0000
0000
0000
0000
0000
0000
0000
0000
0000
0000
0000
0000
0000
0000
,
1003
0000
0000
0000
0001
0000
0000
0000
1000
0000
0000
0000
0001
0000
0000
0000
0010
0000
0100
0000
0010
0000
0100
0000
0010
0000
0100
0000
2000
3000
0000
0000
,
0001
0010
2000
0000
3010
0001
0200
0000
,
1300
0000
0100
0000
0001
0000
1000
0000
0010
0000
0000
0100
0000
0000
0001
0000
,
1000
0010
0002
0000
0013
1000
0200
0000
,
0301
0100
1000
0000
2001
0000
3001
0010
,
0001
0100
2000
0000
3100
0001
0020
0000
,
0031
0000
0010
0000
1000
0000
0010
0000
0001
0000
0000
0100
0000
0000
0010
0000
,
1000
0100
0002
0000
0103
1000
0020
0000
,
0230
0000
0301
0010
0200
0000
1300
0001
,
1001
0001
0010
0010
,
0100
0000
0000
0000
0100
0000
0000
0000
1000
0000
0000
0000
1000
0000
0001
1000
,
2002
3003
0000
0000
0000
0000
0000
0000
1000
0000
0000
0000
0000
0000
1000
0000
0000
0000
0000
0000
1000
0000
0000
0000
0001
0000
0000
0000
0010
0000
0000
0000
,
0100
0000
0000
0000
1000
0000
0000
0000
0010
0000
0000
0000
0000
0000
0010
0000
0000
0000
0000
0000
0100
0000
0000
0000
2002
3003
0000
0000
0000
0000
0000
0000
,
0001
0000
0000
0001
0000
0000
0001
0000
1000
0000
0010
0000
0100
0000
0001
0000
,
0010
0000
0000
0010
0000
0000
0100
0000
1001
0000
0000
0000
1001
0000
0000
0000
,
0011
0000
0000
0010
0000
0000
0100
0000
1100
0000
0000
0000
0001
0000
1000
0000
,
0001
0000
0000
0100
0000
0000
0010
0000
1001
0000
0000
0000
0101
0000
0000
0000
,
1010
0000
0000
0000
0000
0000
0010
0000
0000
0000
0000
0000
0100
0000
0000
0000
0202
0303
0000
0000
0000
0000
0000
0000
2200
3300
0000
0000
0000
0000
0000
0000
,
1001
0000
0000
0000
0110
0000
0000
0000
1020
0000
0000
0130
0000
0000
0001
0000
,
1000
0000
0100
0000
0001
0000
0100
0000
1000
0001
0000
0100
0001
0000
1000
0000
,
0100
0000
0000
0000
0110
0000
0000
0000
0021
0000
0000
0130
0000
0000
1000
0000
,
0001
0000
0100
0000
1000
0000
0100
0000
0001
1000
0000
0100
1000
0000
0001
0000
,
0010
0000
0010
0000
0020
0000
0000
0000
0130
1000
0000
0001
0100
0000
0010
0000
,
1000
0000
0001
0000
0010
0000
1000
0000
0010
0001
0000
1000
0100
0000
0010
0000
,
0110
0000
0000
0000
0011
0000
0000
0000
1010
0000
0000
1000
0010
0000
0100
0000
,
0102
0000
0013
0100
2000
0100
3100
1000
,
0002
0000
0203
0000
,
0320
0000
2030
0000
,
3000
0000
0000
0000
;

//---------------dance-single - Marten-ESP----------------
#NOTES:
     dance-single:
     Marten:
     Hard:
     13:
     :
0000
0000
0000
0000
,
0000
0000
0000
0000
,
0000
0000
0000
0000
,
0000
0000
0000
0000
,
0000
0000
0000
0000
,
0001
0000
0001
0100
0010
0000
0010
0000
,
1000
0000
0100
0000
0001
0000
0100
0000
1000
0000
0000
0000
0010
0100
0010
0100
,
0001
0001
1000
1000
0010
0010
0100
0100
,
0001
0010
1000
0010
0001
0100
0010
1000
,
1001
0000
0000
0000
1000
0000
0001
0010
0100
0000
0000
1100
0000
0000
1001
0000
,
0002
0000
0000
0000
0103
0000
0010
0000
1000
0000
0000
1000
0000
0000
0001
0000
,
0011
0000
0000
0000
0010
0000
0000
0000
0110
0000
0000
0110
0000
0000
0110
0000
,
2100
0000
0000
0000
3100
0000
0000
0000
0102
0000
0000
0100
0000
0000
1003
0000
,
1001
0000
0000
0000
1010
0000
0000
0010
0000
1000
0000
0100
0010
0000
0001
0000
,
0010
0000
0000
0000
0011
0000
0000
0010
0000
0001
0000
0100
0010
0000
1000
0000
,
0010
0000
0000
0000
0110
0000
0000
0100
0000
0001
0000
1000
0100
0000
0010
0000
,
0210
0000
0310
0001
2001
0000
3010
0100
,
0110
0000
0000
0000
1010
0000
0000
0000
0011
0000
0000
0001
0010
0000
0100
0000
,
0101
0000
0000
0000
0100
0000
1000
0000
0001
0100
0000
1000
0100
0000
0010
0000
,
1001
0000
0000
0000
0011
0000
0000
0000
1010
0000
0000
1000
0010
0000
0100
0000
,
1100
0000
0000
0000
0100
0000
0001
0000
1000
0100
0000
0001
0100
0000
0010
0000
,
0002
0000
0023
0000
2030
0000
0000
0000
3010
0001
0000
0100
0010
0000
0100
0000
,
0110
0000
0000
0000
0010
0000
1000
0100
0010
0100
0000
1000
0010
0000
0100
0000
,
0101
0000
0000
0000
1001
0000
0000
0000
1010
0000
0000
0010
0100
0000
0001
0000
,
0021
0000
0130
1000
1020
1030
0010
0100
,
0120
0000
2030
0000
,
3002
0000
0203
0000
,
0302
0000
0000
0000
1000
0000
0000
0000
0010
0000
0000
0010
0000
0000
0013
0000
0001
0000
0100
0000
1000
0000
0001
0000
0010
0000
1000
0000
0001
0000
0000
0000
,
1000
0000
0100
0000
0001
0000
1000
0000
0010
0000
0001
0000
1000
0000
0000
0000
0010
0000
1000
0000
0100
0000
0010
0000
0001
0000
0000
0000
0020
0030
0000
0000
,
0011
0001
2000
0000
3010
0110
0020
0000
,
1030
0000
0100
0000
0001
0000
0100
1000
0001
0000
0100
0010
0100
0000
0010
0000
,
1010
0000
1000
0000
0002
0000
0000
0000
0013
1000
0000
1000
0010
0000
0001
0000
,
0102
0100
1003
0000
1020
0000
0130
0001
,
0101
0001
2000
0000
3100
0110
0100
0010
,
0001
0000
0100
0000
1000
0000
0100
0001
1000
0000
0100
0010
0100
0000
1000
0000
,
1100
0000
1000
0000
0002
0000
0000
0000
0103
1000
0000
1000
0100
0000
0001
0000
,
0012
0013
0100
1000
2010
3010
0100
0001
,
1001
1000
0010
0010
,
0100
0000
0000
0000
0100
0000
0000
0000
0001
0000
0000
0000
0001
0000
1000
0001
,
2002
3003
0000
0000
0000
0000
0000
0000
0011
0000
0000
0000
0000
0000
0101
0000
0000
0000
0000
0000
1100
0000
0000
0000
1000
0000
0000
0000
0100
0000
0000
0000
,
0001
0000
0000
0000
0100
0000
0000
0000
1100
0000
0000
0000
0000
0000
0101
0000
0000
0000
0000
0000
0011
0000
0000
0000
2002
3003
0000
0000
0000
0000
0000
0000
,
1010
0000
0000
1100
0000
0000
0101
0000
0001
0000
0100
0000
1000
0000
0100
0000
,
0101
0000
0000
1100
0000
0000
1010
0000
1001
0000
0000
0000
0110
0000
0000
0000
,
1010
0000
0000
0110
0000
0000
0101
0000
1001
0000
1000
0000
1001
0000
0001
0000
,
0011
0000
0000
0110
0000
0000
1100
0000
1001
0000
0000
0000
0110
0000
0000
0000
,
1001
0000
0000
0000
0000
0000
1100
0000
0000
0000
0000
0000
0101
0000
0000
0000
2002
3003
0000
0000
0000
0000
0000
0000
0220
0330
0000
0000
0000
0000
0000
0000
,
1001
0000
0000
0000
0101
0000
0000
0001
1000
0100
0000
0010
0001
0000
0100
0000
,
0110
0000
0000
0000
1001
0000
1000
0100
0010
0100
0000
0001
0100
0000
1000
0000
,
1001
0000
0000
0000
1100
0000
0000
1000
0001
0100
0000
0010
1000
0000
0100
0000
,
0110
0000
0000
0000
1001
0000
0001
0100
0010
0100
0000
1000
0100
0000
0001
0000
,
2000
0000
3020
0000
0032
0000
0000
0000
0013
1000
0000
0100
0010
0000
0001
0000
,
0011
0000
0000
0000
1100
0000
1000
0001
0100
0010
0000
0001
0010
0000
1000
0000
,
1010
0000
0000
0000
0101
0000
0000
0001
0010
0100
0000
1000
0001
0000
0100
0000
,
1020
0000
1030
0100
0012
0010
0103
0001
,
2000
0000
3200
0000
,
0320
0000
0032
0000
,
0003
0000
0000
0000
;

//---------------dance-double - forcednature-BDP----------------
#NOTES:
     dance-double:
     forcednature:
     Easy:
     6:
     :
00000000
00000000
00000000
00000000
,
00000000
00000000
00000000
00000000
,
00000000
00000000
00000000
00000000
,
00000000
00000000
00000000
00000000
,
00000000
00000000
00000000
00000000
,
00001000
00000000
00010000
00000000
,
00001000
00001000
01000000
00020000
,
10030000
01000000
10000000
01000000
,
00100000
00010000
00100000
00000000
,
00011000
00000000
00000010
00001000
,
00002002
00000000
00000000
00003003
00000000
00000000
00000000
00000000
00000000
00000000
00000000
00000000
00000000
00000000
00000000
00000000
,
00011000
00000000
01000000
00010000
,
20020000
30030000
02200000
03300000
,
10000000
00010000
01000000
00010000
,
00100000
00001000
00010000
00000010
,
00001000
00000100
00001000
00000010
,
00002002
00003003
00000220
00000330
,
00000001
00000010
00000100
00001000
,
00000010
00010000
00002000
00003000
,
01000000
00010000
10000000
01000000
,
00200000
00310000
02000000
03010000
,
00100000
00100000
00001000
00010000
,
00000020
00001030
00000100
00000010
,
00000001
00000100
00000010
00010000
,
00002000
00003000
02000000
03000000
,
00020000
00000000
00000000
00030000
20000000
00000000
00000000
30000000
,
02000000
00000000
00000000
03000000
00200000
00000000
00000000
00300000
,
00002000
00000000
00000000
00003000
00020000
00000000
00000000
00030000
,
00000020
00000000
00000000
00000030
00002000
00000000
00000000
00003000
,
00000000
00000001
00000100
00000001
,
00000010
00000100
00000110
00000000
,
00001000
00000001
00001000
00000010
,
00010000
00001000
00011000
00000000
,
01000000
00010000
10000000
00010000
,
00100000
01000000
10010000
00000000
,
00010000
01000000
00010000
00100000
,
00002000
00003000
00020000
00030000
,
00000200
00000000
00000000
00000300
00020000
00000000
00000000
00030000
,
00002000
00000000
00000000
00003000
01000000
00000000
00010000
00000000
,
20020000
30030000
00000000
00000000
00000000
00000000
00000000
00000000
00000000
00000000
00000000
00000000
00000000
00000000
00000000
00000000
00000000
00000000
00000000
00000000
00000000
00000000
00000000
00000000
10000000
00000000
00000000
00000000
00000000
00000000
00000000
00000000
,
01000000
00000000
00000000
00000000
00000000
00000000
00000000
00000000
00010000
00000000
00000000
00000000
00000000
00000000
00000000
00000000
00001000
00000000
00000000
00000000
00000000
00000000
00000000
00000000
00022000
00033000
00000000
00000000
00000000
00000000
00000000
00000000
,
00000000
00000000
00010000
00001000
,
00000100
00000001
00000010
00000001
,
00000100
00000001
00000010
00000100
,
00010000
00001000
01000000
00010000
,
00100000
00000000
00000000
00000000
00000000
00000000
00000000
00000000
00000000
00000000
00000000
00000000
00000000
00000000
00000000
00000000
00020000
00030000
00000000
00000000
00000000
00000000
00000000
00000000
20000000
30000000
00000000
00000000
00000000
00000000
00000000
00000000
,
00000000
01000000
00100000
00001000
,
00010000
00001000
00010000
00000100
,
00001000
00000010
00000100
00000001
,
00000020
00000130
00002000
00003100
,
00010000
00010000
00001000
01000000
,
00020000
10030000
01000000
00100000
,
00010000
01000000
00001000
00100000
,
00002000
00003000
00020000
00030000
,
00000200
00000000
00000000
00000300
00002000
00000000
00000000
00003000
,
00000020
00000000
00000000
00000030
00020000
00000000
00000000
00000000
,
00030000
00000000
00000000
00000000
;

//---------------dance-double - forcednature-DDP----------------
#NOTES:
     dance-double:
     forcednature:
     Medium:
     9:
     :
00000000
00000000
00000000
00000000
,
00000000
00000000
00000000
00000000
,
00000000
00000000
00000000
00000000
,
00000000
00000000
00000000
00000000
,
00000000
00000000
00000000
00000000
,
00001000
00001000
00100000
00100000
,
00010000
01000000
00010000
01000000
00100000
00000000
20000000
00000000
,
31000000
10000000
01000000
00000000
00100000
00010000
00100000
00000000
,
00001000
00010000
00000010
00000000
00001000
00000100
00000010
00000001
,
00000100
00000000
00000000
00000000
00000000
00000000
00000000
00000000
00000010
00000000
00000000
00000010
00000000
00000000
00010000
00000000
,
00022000
00000000
00000000
00033000
00000000
00000000
00000000
00000000
00000000
00000000
00000000
00000000
00000000
00000000
01000000
00000000
,
01010000
00000000
00000000
00000000
10000000
00000000
00000000
00000000
01000000
00000000
00000000
01000000
00000000
00000000
00100000
00000000
,
00102000
00000000
00013000
00000000
00020010
00000000
00031000
00010000
,
00000100
00000000
00000000
00000000
00000110
00000000
00000000
00000000
00000010
00000000
00000000
00000001
00000000
00000000
00000100
00000000
,
00001000
00000000
00000000
00000000
00010000
00000000
00001000
00000000
01000000
00000000
00000000
00010000
00000000
00000000
00100000
00000000
,
01000000
00000000
00000000
00000000
11000000
00000000
00000000
00000000
10000000
00000000
00000000
00010000
00000000
00000000
01000000
00000000
,
02002000
03003000
00020200
00030300
,
00010010
00000000
00000000
00000000
01001000
00000000
00000000
00000000
00001000
00000000
00000000
00010000
00000000
00000000
00000100
00000000
,
00001000
00000000
00000000
00000000
00000010
00000000
00010000
00000000
00001000
00000000
00000000
00001000
00000000
00000000
00100000
00000000
,
00010000
00000000
00000000
00000000
01010000
00000000
00000000
00000000
10000000
00000000
00000000
01000000
00000000
00000000
00010000
00000000
,
00002000
00000000
00000000
00000000
00103000
00000000
00010000
00000000
01000000
00000000
00000000
01000000
00000000
00000000
00001000
00000000
,
00010000
00000000
00010000
00000000
00000200
00000000
00000000
00000000
00000310
00000000
00000000
00000001
00000000
00000000
00000100
00000000
,
00000010
00000000
00000000
00000000
00010000
00000000
00001000
00000000
00100000
00000000
00000000
00100000
00000000
00000000
00010000
00000000
,
01000000
00000000
00000000
00000000
01100000
00000000
00000000
00000000
10000000
00000000
00000000
00010000
00000000
00000000
00100000
00000000
,
00202000
00303000
00020020
00030030
,
00020000
00000000
00032000
00000000
,
02003000
00000000
03020000
00000000
,
10030000
00000000
00000000
00000000
10000000
00000000
00000000
00000000
01000000
00000000
00000000
01000000
00000000
00000000
00000000
00000000
00020000
00000000
00000000
00000000
00000000
00000000
00000000
00000000
00000000
00000000
00000000
00000000
00000000
00000000
00000000
00000000
,
00032000
00000000
00000000
00000000
00000000
00000000
00000000
00000000
00000000
00000000
00000000
00000000
00000000
00000000
00000000
00000000
00003020
00000000
00000000
00000000
00000000
00000000
00000000
00000000
00000000
00000000
00000000
00000000
00000230
00000300
00000000
00000000
,
00001000
00000001
00000200
00000000
00001300
00010000
00000020
00000000
,
00001030
00000100
00010000
00001000
00100000
00000000
01000000
10000000
,
00010000
01000000
00200000
00000000
10300000
01000000
00020000
00000000
,
00031000
00100000
00010000
00000000
20010000
00000000
30100000
00100000
,
01000000
00001000
00020000
00000000
00030100
00001000
00000020
00000000
,
00000130
00000000
00000000
00000000
00001000
00000000
00000100
00000000
00000001
00000000
00000000
00000010
00000000
00000000
00000100
00000000
,
00010000
00001000
00200000
00000000
01300000
10000000
00200000
00000000
,
02300000
00000000
03001000
00001000
00020000
00000000
00030100
00000100
,
00000010
00000001
00000100
00001000
,
00010000
00000000
01000000
00000000
10000000
00000000
00100000
01000000
,
20020000
30030000
00000000
00000000
00000000
00000000
00000000
00000000
10000000
00000000
00000000
00000000
00000000
00000000
10000000
00000000
00000000
00000000
00000000
00000000
10000000
00000000
00000000
00000000
01000000
00000000
00000000
00000000
00000000
00000000
00000000
00000000
,
00010000
00000000
00000000
00000000
00001000
00000000
00000000
00000000
00000100
00000000
00000000
00000000
00000000
00000000
00000100
00000000
00000000
00000000
00000000
00000000
00000001
00000000
00000000
00000000
00002002
00003003
00000000
00000000
00000000
00000000
00000000
00000000
,
00000001
00000000
00000000
00000001
00000000
00000000
00000001
00000000
00000100
00000000
00000000
00000000
00001000
00000000
00010000
00000000
,
01000000
00000000
00000000
01000000
00000000
00000000
10000000
00000000
10010000
00000000
00000000
00000000
10010000
00000000
00000000
00000000
,
10000000
00000000
00000000
00100000
00000000
00000000
00010000
00000000
00011000
00000000
00000000
00000000
00001000
00000000
00010000
00000000
,
00001000
00000000
00000000
00000010
00000000
00000000
00000001
00000000
00001001
00000000
00000000
00000000
00001001
00000000
00000000
00000000
,
00000001
00000000
00000000
00000000
00000000
00000000
00000010
00000000
00000000
00000000
00000000
00000000
00001000
00000000
00000000
00000000
00020000
00030000
00000000
00000000
00000000
00000000
00000000
00000000
00022000
00033000
00000000
00000000
00000000
00000000
00000000
00000000
,
01001000
00000000
00000000
00000000
01010000
00000000
00000000
00000000
10000000
00000000
00000000
00100000
00000000
00000000
10000000
00000000
,
01000000
00000000
00000000
00000000
00010000
00000000
00001000
00000000
00010000
00000000
00000000
00000100
00000000
00000000
00001000
00000000
,
00000010
00000000
00000000
00000000
00000110
00000000
00000000
00000000
00000100
00000000
00000000
00000001
00000000
00000000
00000010
00000000
,
00000200
00000000
00000000
00000000
00010300
00000000
00001000
00000000
01000000
00000000
00000000
00010000
00000000
00000000
00100000
00000000
,
01000000
00000000
10000000
00000000
02000000
00000000
00000000
00000000
03100000
00000000
00000000
00001000
00000000
00000000
00010000
00000000
,
00000020
00000000
00000000
00000000
00001030
00000000
00000100
00000000
00000010
00000000
00000000
00000001
00000000
00000000
00000100
00000000
,
00000010
00000000
00000000
00000000
00000110
00000000
00000000
00000000
00000100
00000000
00000000
00001000
00000000
00000000
00010000
00000000
,
00012000
00000000
00103000
00010000
20000000
00000000
30000000
00000000
,
00020000
00000000
02030000
00000000
,
03002000
00000000
00023000
00000000
,
00030000
00000000
00000000
00000000
;

//---------------dance-double - forcednature-EDP----------------
#NOTES:
     dance-double:
     forcednature:
     Hard:
     13:
     :
00000000
00000000
00000000
00000000
,
00000000
00000000
00000000
00000000
,
00000000
00000000
00000000
00000000
,
00000000
00000000
00000000
00000000
,
00000000
00000000
00000000
00000000
,
00001000
00000000
00001000
00010000
00000100
00000000
00000100
00000000
,
00001000
00000000
00000010
00000000
00000001
00000000
00000010
00000000
00001000
00000000
00000000
00000000
00000100
00000010
00000100
00000010
,
00000001
00000001
00001000
00001000
00000100
00000100
00010000
00010000
,
00001000
00100000
01000000
00100000
00010000
10000000
00100000
01000000
,
01100000
00000000
00000000
00000000
00100000
00000000
10000000
00010000
00100000
00000000
00000000
00101000
00000000
00000000
00011000
00000000
,
00020000
00000000
00000000
00000000
00030100
00000000
00001000
00000000
00000010
00000000
00000000
00000010
00000000
00000000
00000100
00000000
,
00000101
00000000
00000000
00000000
00001000
00000000
00000000
00000000
00010100
00000000
00000000
00011000
00000000
00000000
00100000
00000000
,
00120000
00000000
00000000
00000000
01030000
00000000
00000000
00000000
20100000
00000000
00000000
00010000
00000000
00000000
31000000
00000000
,
01100000
00000000
00000000
00000000
00101000
00000000
00000000
00001000
00000000
00010000
00000000
00000010
00001000
00000000
00000100
00000000
,
00001000
00000000
00000000
00000000
00000011
00000000
00000000
00001000
00000000
00000010
00000000
00010000
00001000
00000000
00100000
00000000
,
00010000
00000000
00000000
00000000
01010000
00000000
00000000
01000000
00000000
00100000
00000000
10000000
01000000
00000000
00100000
00000000
,
00120000
00000000
01030000
00001000
00021000
00000000
00030100
00001000
,
00001010
00000000
00000000
00000000
00000101
00000000
00000000
00000000
00000011
00000000
00000000
00000010
00000100
00000000
00010000
00000000
,
00011000
00000000
00000000
00000000
00001000
00000000
01000000
00000000
00100000
10000000
00000000
01000000
10000000
00000000
00100000
00000000
,
01100000
00000000
00000000
00000000
01001000
00000000
00000000
00000000
00010100
00000000
00000000
00000100
00001000
00000000
00000010
00000000
,
00000110
00000000
00000000
00000000
00000100
00000000
00000001
00000000
00000010
00000100
00000000
00001000
00000100
00000000
00010000
00000000
,
00000020
00000000
00000230
00000000
00002300
00000000
00000000
00000000
00013000
00000100
00000000
00010000
00001000
00000000
01000000
00000000
,
01010000
00000000
00000000
00000000
00010000
00000000
00100000
00000000
01000000
10000000
00000000
00100000
10000000
00000000
00010000
00000000
,
00110000
00000000
00000000
00000000
00011000
00000000
00000000
00000000
00001010
00000000
00000000
00000010
00000100
00000000
00000001
00000000
,
00000021
00000000
00000130
00010000
00012000
00000000
01003000
00010000
,
00200000
00000000
02300000
00000000
,
03020000
00000000
00032000
00000000
,
00003200
00000000
00000000
00000000
00000010
00000000
00000000
00000000
00000001
00000000
00000000
00000001
00000000
00000000
00000301
00000000
00000100
00000000
00001000
00000000
00010000
00000000
01000000
00000000
00100000
00000000
00010000
00000000
10000000
00000000
00000000
00000000
,
01000000
00000000
00010000
00000000
00001000
00000000
00000100
00000000
00000010
00000000
00001000
00000000
00000001
00000000
00000000
00000000
00000100
00000000
00001000
00000000
00010000
00000000
00001000
00000000
00100000
00000000
00000000
00000000
02000000
03000000
00000000
00000000
,
01100000
00100000
00020000
00000000
01030000
00001000
00020000
00000000
,
00030100
00000000
00001000
00000000
00000010
00000000
00000100
00000001
00001000
00000000
00000100
00000010
00000100
00000000
00010000
00000000
,
00011000
00000000
00001000
00000000
02000000
00000000
00000000
00000000
03100000
10000000
00000000
10000000
01000000
00000000
00000000
00000000
,
01200000
00010000
00301000
00000000
00010020
00000000
00000130
00000001
,
00000011
00000010
00000200
00000000
00010300
00001000
00000200
00000000
,
00001300
00000000
00010000
00000000
00100000
00000000
01000000
00010000
10000000
00000000
01000000
00100000
01000000
00000000
10000000
00000000
,
10100000
00000000
00100000
00000000
02000000
00000000
00000000
00000000
03001000
00010000
00000000
00010000
00000100
00000000
00000010
00000000
,
00000012
00000000
00000103
00001000
00021000
00000000
00130000
01000000
,
10010000
10000000
01000000
00010000
,
00001000
00000000
00000000
00000000
00000000
00000000
00000000
00000000
00000000
00000000
00000000
00000000
00000100
00000000
00000000
00000000
00000000
00000000
00000000
00000000
00000000
00000000
00000000
00000000
00000001
00000000
00000000
00000000
00000000
00000000
00000000
00000000
00000001
00000000
00000000
00000000
00000010
00000000
00000000
00000000
00000000
00000000
00000100
00000000
00000000
00010000
00000000
00000000
,
00022000
00033000
00000000
00000000
00000000
00000000
00000000
00000000
00101000
00000000
00000000
00000000
00000000
00000000
01001000
00000000
00000000
00000000
00000000
00000000
00010000
00000000
00000000
00000000
00001000
00000000
00000000
00000000
00010000
00000000
00000000
00000000
,
00000100
00000000
00000000
00000000
00010000
00000000
00000000
00000000
00010010
00000000
00000000
00000000
00000000
00000000
00010100
00000000
00000000
00000000
00000000
00000000
00001000
00000000
00000000
00000000
00202000
00303000
00000000
00000000
00000000
00000000
00000000
00000000
,
01100000
00000000
00000000
01010000
00000000
00000000
00010000
00000000
00001000
00000000
00000100
00000000
00000001
00000000
00000100
00000000
,
00000110
00000000
00000000
00001100
00000000
00000000
00001000
00000000
00021000
00000000
00000000
00000000
00130000
00000000
00000000
00000000
,
01001000
00000000
00000000
00101000
00000000
00000000
01000000
00000000
00010000
00000000
00100000
00000000
01000000
00000000
00010000
00000000
,
00010100
00000000
00000000
00001010
00000000
00000000
00010000
00000000
00012000
00000000
00000000
00000000
00003010
00000000
00000000
00000000
,
00010100
00000000
00000000
00000000
00000000
00000000
00010010
00000000
00000000
00000000
00000000
00000000
00001000
00000000
00000000
00000000
00020000
00030000
00000000
00000000
00000000
00000000
00000000
00000000
02200000
03300000
00000000
00000000
00000000
00000000
00000000
00000000
,
10010000
00000000
00000000
00000000
10000000
00000000
00000000
01000000
00100000
01000000
00000000
00100000
00010000
00000000
01000000
00000000
,
01001000
00000000
00000000
00000000
00001000
00000000
00010000
00000010
00001000
00000010
00000000
00000100
00000001
00000000
00000010
00000000
,
00000110
00000000
00000000
00000000
00000100
00000000
00000000
00001000
00000010
00010000
00000000
00001000
00100000
00000000
01000000
00000000
,
02100000
00000000
00000000
00000000
03100000
00000000
00010000
10000000
00100000
10000000
00000000
00010000
00100000
00000000
01000000
00000000
,
00020000
00000000
00032000
00000000
00003020
00000000
00000000
00000000
00001030
00010000
00000000
00000100
00010000
00000000
00001000
00000000
,
00101000
00000000
00000000
00000000
01000000
00000000
00010000
10000000
00010000
00100000
00000000
01000000
00100000
00000000
00001000
00000000
,
00011000
00000000
00000000
00000000
00010000
00000000
00000000
00000010
00001000
00000001
00000000
00000010
00000001
00000000
00000100
00000000
,
00000120
00000000
00010030
00001000
00201000
00000000
01300000
10000000
,
00020000
00000000
02030000
00000000
,
03002000
00000000
00023000
00000000
,
00030000
00000000
00000000
00000000
;
