#VERSION:0.83;
#TITLE:Be My Baby;
#ARTIST:nagomu tamaki;
#BANNER:Be My Baby.png;
#BACKGROUND:Be My Baby-bg.png;
#JACKET:Be My Baby-jacket.png;
#MUSIC:Be My Baby.ogg;
#OFFSET:0.952;
#SAMPLESTART:31.429;
#SAMPLELENGTH:15;
#BPMS:0=126;

//---------------dance-single - Talkion-bSP----------------
#NOTEDATA:;
#CHARTNAME:Talkion-bSP;
#STEPSTYPE:dance-single;
#DESCRIPTION:Talkion-bSP;
#DIFFICULTY:Beginner;
#METER:2;
#RADARVALUES:0.132875,0.176337,0.010335,0.062008,0,90,89,1,6,0,0,0,0,0,0.132875,0.176337,0.010335,0.062008,0,90,89,1,6,0,0,0,0,0;
#CREDIT:Talkion;
#NOTES:
// measure 0
0000
0000
0000
0000
,  // measure 1
0000
0000
0000
0000
,  // measure 2
0000
0000
0000
0000
,  // measure 3
0000
0000
0000
0000
,  // measure 4
0000
0000
0000
0000
,  // measure 5
0000
0001
0000
0001
,  // measure 6
0000
0001
0000
0001
,  // measure 7
0000
1000
0000
1000
,  // measure 8
0000
2000
3000
0000
,  // measure 9
0001
0000
0001
0000
,  // measure 10
1000
0000
1000
0000
,  // measure 11
0001
0000
0001
0000
,  // measure 12
1000
0000
1000
0000
,  // measure 13
0001
0001
0001
0000
,  // measure 14
1000
1000
1000
0000
,  // measure 15
0001
0000
0001
0000
,  // measure 16
0200
0000
0300
0110
,  // measure 17
0000
1000
0000
1000
,  // measure 18
0000
0001
0000
0001
,  // measure 19
0000
1000
0000
1000
,  // measure 20
0000
0010
0000
0010
,  // measure 21
0000
1000
0000
1000
,  // measure 22
0000
0001
0000
0001
,  // measure 23
0000
0010
0000
0020
,  // measure 24
0000
0030
0010
0010
,  // measure 25
0000
0001
0000
0001
,  // measure 26
0000
0100
0000
0100
,  // measure 27
0000
0001
0000
0001
,  // measure 28
0000
0010
0010
0000
,  // measure 29
0000
0100
0000
0100
,  // measure 30
0000
1000
0000
1000
,  // measure 31
0000
0010
0000
0020
,  // measure 32
0000
0000
0000
0030
,  // measure 33
0000
1000
0000
1000
,  // measure 34
0000
0001
0000
0010
,  // measure 35
0000
0001
0000
0001
,  // measure 36
0000
1000
0000
0010
,  // measure 37
0000
1000
0000
1000
,  // measure 38
0000
0001
0000
0010
,  // measure 39
0000
0001
0000
0001
,  // measure 40
0000
0100
0200
0300
,  // measure 41
0001
0000
0000
0001
0000
0000
0000
0000
,  // measure 42
1000
0000
0000
1000
0000
0000
0000
0000
,  // measure 43
0001
0000
0000
0001
0000
0000
0000
0000
,  // measure 44
1000
0000
0000
1000
0000
0000
0000
0000
,  // measure 45
0001
0001
0001
0000
,  // measure 46
1000
1000
1000
0000
,  // measure 47
0001
0000
0001
0000
,  // measure 48
0200
0000
0000
0310
;

//---------------dance-single - Talkion-BSP----------------
#NOTEDATA:;
#CHARTNAME:Talkion-BSP;
#STEPSTYPE:dance-single;
#DESCRIPTION:Talkion-BSP;
#DIFFICULTY:Easy;
#METER:7;
#RADARVALUES:0.276085,0.277100,0.041339,0.082678,0.056841,187,183,4,8,0,0,0,0,0,0.276085,0.277100,0.041339,0.082678,0.056841,187,183,4,8,0,0,0,0,0;
#CREDIT:Talkion;
#NOTES:
0000
0000
0000
0000
,
0000
0000
0000
0000
,
0000
0000
0000
0000
,
0000
0000
0000
0000
,
0000
0000
0000
0000
,
0000
0001
0000
0001
,
0000
1000
0000
1000
,
0000
0001
0000
0001
,
0000
1000
0000
1000
,
0010
0010
0010
0100
,
0001
0001
0001
0010
,
0100
0100
0100
1000
,
0010
0010
0010
0100
,
0001
0000
0000
0000
0000
0000
1000
0000
0000
0000
0000
0000
0001
0000
0000
0000
0000
0001
0000
0000
0000
0001
0000
0000
,
1000
0000
0000
0000
0000
0000
0001
0000
0000
0000
0000
0000
1000
0000
0000
0000
0000
1000
0000
0000
0000
1000
0000
0000
,
0001
0100
0010
1000
,
0200
0000
0310
0110
,
0001
1000
0010
0001
,
0010
0000
1000
0000
0001
1000
0100
0000
,
1000
0001
0100
1000
,
0100
0000
0001
0000
1000
0001
0010
0000
,
0001
0100
0010
1000
,
0100
0000
0010
0000
0001
1000
0010
0000
,
1000
0010
0100
0001
,
2000
0000
0100
0000
3100
0100
1000
0000
,
0001
1001
1000
0010
,
0001
0000
0010
0000
1000
0100
0010
0000
,
0001
1000
0001
0100
,
1000
0000
0000
0000
0000
0000
0100
0000
0000
0000
0000
0000
0001
0000
0000
0000
0000
1000
0000
0000
0000
0100
0000
0000
,
0100
0110
0001
0100
,
0010
0000
1000
0000
0001
0010
0100
0000
,
1000
0001
0100
0010
,
2000
0001
0010
3001
,
1000
0100
0001
0100
,
2000
0000
3001
0000
1000
0010
0001
0000
,
0010
1000
0100
1000
,
0020
0000
0130
0000
0010
1000
0001
0000
,
1000
0100
0001
0100
,
2000
0000
3001
0000
1000
0010
0001
0000
,
0010
1000
0100
0010
,
0001
1000
0002
0103
,
0010
0000
0000
0000
0000
0010
0000
0000
0000
0010
0000
0000
0000
0000
0010
0000
0000
0000
0010
0000
0000
0000
0000
0000
,
0100
0000
0000
0000
0000
0100
0000
0000
0000
0100
0000
0000
0000
0000
0100
0000
0000
0000
0100
0000
0000
0000
0000
0000
,
0010
0000
0000
0000
0000
0010
0000
0000
0000
0010
0000
0000
0000
0000
0010
0000
0000
0000
0010
0000
0000
0000
0000
0000
,
0100
0000
0000
0000
0000
0100
0000
0000
0000
0100
0000
0000
0000
0000
0100
0000
0000
0000
0100
0000
0000
0000
0000
0000
,
0001
0100
1000
0100
,
0001
0100
1000
0100
,
0001
0001
1000
1000
,
0200
0001
1300
1001
;

//---------------dance-single - Talkion-DSP----------------
#NOTEDATA:;
#CHARTNAME:Talkion-DSP;
#STEPSTYPE:dance-single;
#DESCRIPTION:Talkion-DSP;
#DIFFICULTY:Medium;
#METER:10;
#RADARVALUES:0.408961,0.428246,0.289373,0.196360,0.082678,277,249,28,19,0,0,0,0,0,0.408961,0.428246,0.289373,0.196360,0.082678,277,249,28,19,0,0,0,0,0;
#CREDIT:Talkion;
#NOTES:
0000
0000
0000
0000
,
0000
0000
0000
0000
,
0000
0000
0000
0000
,
0000
0000
0000
0000
,
0000
0000
0000
0000
,
2000
0000
0000
0000
0000
0000
0001
0000
0000
0000
0000
0000
3100
0000
0000
0000
0000
0000
1000
0000
0000
0000
0000
0002
,
0000
0000
0100
0000
1003
0001
0010
0001
,
0200
0000
0000
0000
0000
0000
1000
0000
0000
0000
0000
0000
0310
0000
0000
0000
0000
0000
1000
0000
0000
0000
0000
0200
,
0000
0001
0320
0032
,
1003
1000
0010
0010
,
0001
0001
0100
0100
,
1000
1000
0010
0010
,
0001
0001
0100
0100
,
1000
0001
0100
0000
1000
0100
0001
0000
,
1000
0001
0010
0000
1000
0010
0001
0000
,
1000
0010
1000
0010
1000
0010
1000
0010
,
0001
0010
1000
0100
0010
0000
1001
0000
,
0101
0000
1100
0000
1000
0100
0001
0100
,
1000
0000
1000
0000
0010
0100
0001
0000
,
0011
0000
1010
0000
1000
0010
0001
0010
,
1000
0000
1000
0000
0001
0010
0100
1000
,
1001
0000
0110
0000
0001
1000
0100
0010
,
1000
0000
1000
0000
0010
0001
1000
0000
,
1001
0000
0110
0000
1000
0001
0010
0100
,
0002
0203
2300
0000
0001
3001
0200
0000
,
0310
0000
0101
0000
0001
1000
0100
0001
,
1000
0010
0100
1000
0001
0100
0010
1000
,
0001
0000
1010
0000
0001
0010
0100
1000
,
0001
0000
0000
0100
0000
0000
1000
0000
0000
0100
0000
0000
0020
0000
0000
0000
0000
2030
0000
0000
0000
3001
0000
0000
,
0010
0000
1100
0000
1000
0001
0100
1000
,
0001
0010
0100
0001
1000
0100
0010
0001
,
1000
0000
0011
0000
1000
0010
0100
0001
,
1000
0000
0000
1000
0000
0000
0001
0000
1000
0000
0000
0000
0002
0000
0000
0000
0000
0203
0000
0000
0000
0310
0000
0000
,
1000
0000
0000
0000
0000
0000
1001
0000
0000
0000
0000
0000
0101
0000
0000
0100
0000
0000
1010
0000
0000
0000
0000
2001
,
0000
0100
0010
0100
,
3001
0000
0000
0000
0000
0000
1001
0000
0000
0000
0000
0000
1010
0000
0000
0010
0000
0000
0101
0000
0000
0000
0000
1002
,
0000
0010
0100
0010
,
1003
0000
0000
0000
0000
0000
1001
0000
0000
0000
0000
0000
0011
0000
0000
0100
0000
0000
1010
0000
0000
0000
0000
0021
,
0000
1000
0001
1000
,
0031
0000
1001
0000
1010
0010
0100
0001
,
2000
0000
3002
0000
0013
0100
1000
0010
,
0100
0000
0000
0000
0000
0100
0000
0000
0000
0100
0000
0000
0000
0000
0100
0000
0000
0000
0010
0000
0000
1000
0000
0000
,
0100
0000
0000
0000
0000
0100
0000
0000
0000
0100
0000
0000
0000
0000
0100
0000
0000
0000
0100
0000
0000
0010
0000
0000
,
0001
0000
0000
0000
0000
0001
0000
0000
0000
0001
0000
0000
0000
0000
0001
0000
0000
0000
0001
0000
0000
1000
0000
0000
,
0010
0000
0000
0000
0000
0010
0000
0000
0000
0010
0000
0000
0000
0000
0010
0000
0000
0000
0010
0000
0000
0100
0000
0000
,
0001
1000
0100
0000
0001
1000
0010
0000
,
0001
1000
0100
0000
0001
1000
0010
0000
,
0001
0100
0010
0100
0001
0100
0010
0100
,
0001
0100
1000
0010
0001
0000
1001
0000
;

//---------------dance-single - Talkion-ESP----------------
#NOTEDATA:;
#CHARTNAME:Talkion-ESP;
#STEPSTYPE:dance-single;
#DESCRIPTION:Talkion-ESP;
#DIFFICULTY:Hard;
#METER:14;
#RADARVALUES:0.628943,0.780919,0.516737,0.341046,0.630419,426,376,50,33,0,0,0,0,0,0.628943,0.780919,0.516737,0.341046,0.630419,426,376,50,33,0,0,0,0,0;
#CREDIT:Talkion;
#NOTES:
0000
0000
0000
0000
,
0000
0000
0000
0000
,
0000
0000
0000
0000
,
0000
0000
0000
0000
,
0000
0000
0000
0000
,
1000
0000
0001
1000
0200
0000
0301
0000
,
0100
0000
0000
1000
0000
0000
0001
0000
0200
0000
0000
0000
0320
0000
0000
0000
0000
0000
0031
0000
0000
0010
0000
0000
,
0200
0000
0000
0000
0000
0000
0301
0000
0000
0000
0000
0000
1000
0000
0000
0001
0000
0000
0010
0000
0200
0000
0000
0000
,
2300
0000
0000
0000
0000
0000
3001
0000
0000
1000
0000
0010
0000
0000
0100
0000
0000
0100
0000
0000
0010
1000
0000
0000
,
1001
1001
0011
0011
,
1010
1010
0110
0110
,
1001
1001
1100
1100
,
0101
0101
0110
0110
,
0010
0000
0000
1000
0000
0000
0010
0000
1000
0000
0000
0100
1000
0000
0000
0001
0000
0100
0000
0000
1000
0100
0000
0010
,
0100
0000
0000
0001
0000
0000
0100
0000
0001
0000
0000
0010
0001
0000
0000
1000
0000
0010
0000
0000
0001
0010
0000
0100
,
0010
0000
1000
0010
0000
1000
0010
0000
1000
0010
0000
0100
0001
0000
1000
0001
0000
1000
0001
0000
1000
0001
0000
1000
,
0200
0000
0000
0000
0001
0000
0000
0000
1300
0100
0001
0000
0110
0000
0000
0000
,
1001
0000
0000
0000
0000
0000
0101
0000
0000
0000
0000
0000
0010
0000
1000
0000
0000
0001
0000
0000
1000
0100
0000
0002
,
0000
0000
0000
0103
0000
0000
1000
0000
0010
0000
0000
0100
0001
0000
0000
1000
0000
0000
0100
0000
0010
0100
0000
1000
,
0001
0000
0000
0000
0000
0000
0101
0000
0000
0000
0000
0000
0010
0000
0000
1000
0000
0000
0001
0000
0010
0000
0000
2000
,
0000
0000
0000
3010
0000
0000
0001
0000
0200
0000
0000
0000
0310
0000
0100
0010
0000
1000
0001
0000
0001
1000
0000
1000
,
0200
0000
0000
1300
0000
0000
1010
0000
0000
0000
0000
0000
0100
0000
0001
0000
0000
1000
0000
0000
0001
0010
0000
2000
,
0000
0000
0000
3010
0000
0000
0001
0000
0100
0000
0000
0010
1000
0000
0000
0001
0000
0000
0010
0000
0100
0010
0000
0001
,
1000
0000
0000
0000
0000
0000
1010
0000
0000
0000
0000
0000
0100
0000
0000
0001
0000
0000
1000
0000
0100
0000
0000
0010
,
0002
1003
0010
0002
1003
1000
0200
0000
,
0301
0000
0000
0000
0000
0000
1001
0000
0000
0001
0000
0000
0010
0000
0100
1000
0000
1000
0001
0000
0001
0100
0000
0010
,
1000
0000
0000
0001
0000
0000
1000
0000
0100
0010
0000
0010
0001
0000
0000
1000
0000
0000
0010
0000
0100
0010
0000
1000
,
0001
0000
0000
0000
0000
0000
1001
0000
0000
0001
0000
0000
0010
0000
0000
0100
0000
0000
1000
0000
0001
0100
0000
0100
,
0010
0000
0000
1000
0000
0000
0001
0000
0001
1000
0000
0000
2200
0000
0000
3300
0000
0202
0000
0303
0000
1002
0000
0000
,
0103
0000
0000
0001
0000
0000
1001
0000
0000
1000
0000
0000
0100
0000
0010
0001
0000
0001
1000
0000
1000
0010
0000
0100
,
0001
0000
0000
1000
0000
0000
0001
0000
0010
0100
0000
0100
1000
0000
0000
0001
0000
0000
0100
0000
0010
0100
0000
0001
,
1000
0001
1001
1000
1100
0100
0101
0001
,
1000
0000
0000
1000
0000
0000
0010
0000
0100
0010
0000
0010
0100
0000
0100
0001
0000
0001
2000
0000
0000
0000
0000
0000
,
3100
0021
1000
0001
,
1030
0000
0000
0002
0000
0000
0203
0000
0000
1300
0000
0010
0100
0000
0010
0001
0000
0010
0200
0000
0000
0000
0000
0000
,
0301
1200
0001
1000
,
0301
0000
0000
1000
0000
0010
0200
0000
0000
1300
0000
0010
0100
0000
0001
1000
0000
0010
0200
0000
0000
0302
0000
0000
,
1003
0012
0100
0010
,
0103
0000
0000
0010
0000
0000
0001
0000
0000
1000
0000
0100
0010
0000
0100
0001
0000
0100
0020
0000
0000
0000
0000
0000
,
1030
0001
0010
0001
1000
0001
0100
0001
,
1000
0000
1000
0100
0000
0100
0001
0000
0001
0100
0000
0100
2000
0000
0000
0000
0000
0000
0001
0000
0000
0000
0000
0000
,
3010
0000
0000
0000
0000
0101
0000
0000
0000
0011
0000
0000
0000
0000
1010
0000
0000
0000
1001
0000
0000
1000
0000
0001
,
0100
0000
0000
0000
0000
1010
0000
0000
0000
1100
0000
0000
0000
0000
0101
0000
0000
0000
1001
0000
0000
0001
0000
1000
,
0010
0000
0000
0000
0000
0101
0000
0000
0000
0011
0000
0000
0000
0000
1010
0000
0000
0000
1001
0000
0000
1000
0000
0100
,
0001
0000
0000
0000
0000
0110
0000
0000
0000
1001
0000
0000
0000
0000
0101
0000
0000
0000
0100
0000
0000
0010
0000
1000
,
0001
0000
0000
1000
0000
0000
0001
0000
0010
0000
0000
0001
0100
0000
0000
1000
0000
0100
0000
0000
0001
0010
0000
0100
,
1000
0000
0000
0001
0000
0000
1000
0000
0100
0000
0000
1000
0010
0000
0000
0001
0000
0010
0000
0000
1000
0100
0000
0010
,
0001
0000
1000
0010
0000
1000
0010
0000
1000
0010
0000
0100
0001
0000
1000
0001
0000
1000
0001
0000
1000
0001
0000
1000
,
0100
0000
0100
0001
0000
0001
1000
0000
1000
0010
0000
0010
0002
0000
0000
0003
0000
0000
1001
0000
0000
0000
0000
0000
;

//---------------dance-double - Talkion-BDP----------------
#NOTEDATA:;
#CHARTNAME:Talkion-BDP;
#STEPSTYPE:dance-double;
#DESCRIPTION:Talkion-BDP;
#DIFFICULTY:Easy;
#METER:7;
#RADARVALUES:0.279038,0.302291,0.082678,0.093013,0.067176,189,181,8,9,0,0,0,0,0,0.279038,0.302291,0.082678,0.093013,0.067176,189,181,8,9,0,0,0,0,0;
#CREDIT:Talkion;
#NOTES:
00000000
00000000
00000000
00000000
,
00000000
00000000
00000000
00000000
,
00000000
00000000
00000000
00000000
,
00000000
00000000
00000000
00000000
,
00000000
00000000
00000000
00000000
,
00000000
00001000
00000000
00001000
,
00000000
00010000
00000000
00010000
,
00000000
00000100
00000000
00000100
,
00000000
00001000
00000000
00001000
,
00000001
00000001
00000100
00000010
,
00010000
00010000
00001000
01000000
,
00100000
00100000
10000000
00010000
,
00100000
00100000
00001000
00010000
,
00000010
00000000
00000000
00000000
00000000
00000000
00000100
00000000
00000000
00000000
00000000
00000000
00000010
00000000
00000000
00000000
00000000
00000010
00000000
00000000
00000000
00000010
00000000
00000000
,
00010000
00000000
00000000
00000000
00000000
00000000
00001000
00000000
00000000
00000000
00000000
00000000
00100000
00000000
00000000
00000000
00000000
00100000
00000000
00000000
00000000
00100000
00000000
00000000
,
00010000
10000000
00100000
01000000
,
00002000
00000000
00013000
00011000
,
00001000
00000010
00000001
00000010
,
00001000
00010000
00100000
10000000
,
00010000
10000000
01000000
00010000
,
00001000
00000100
00000001
00001000
,
00000200
00010300
00001000
01000000
,
00100000
01000000
00001000
00010000
,
00000100
00000010
00000100
00010000
,
00002000
00000000
01000000
00000000
01003000
01000000
00010000
00000000
,
10000000
10010000
00010000
00100000
,
00001000
00000000
00010000
00000000
00000010
00000100
00000001
00000000
,
00001000
00001001
00000001
00000010
,
00000100
00000000
00000000
00000000
00000000
00000000
00010000
00000000
00000000
00000000
00000000
00000000
00001000
00000000
00000000
00000000
00000000
01000000
00000000
00000000
00000000
00010000
00000000
00000000
,
00010000
10010000
10000000
01000000
,
00100000
00000000
00001000
00000000
00010000
00000010
00001000
00000000
,
00000001
00001000
00000100
00010000
,
00002000
00100000
01000000
00100000
,
01003000
01010000
00010000
10000000
,
02000000
00000000
03010000
00000000
00001000
00010000
00001000
00000000
,
00000010
00000011
00000001
00001000
,
00000200
00000000
00010300
00000000
00001000
01000000
00001000
00000000
,
00100000
00110000
00010000
10000000
,
00200000
00000000
00310000
00000000
00001000
00010000
00001000
00000000
,
00000100
00000001
00000010
00001000
,
00020000
00001000
02030000
00000000
,
13000000
00000000
00000000
00000000
00000000
00010000
00000000
00000000
00000000
10000000
00000000
00000000
00000000
00000000
00010000
00000000
00000000
00000000
00100000
00000000
00000000
00000000
00000000
00000000
,
00001000
00000000
00000000
00000000
00000000
00010000
00000000
00000000
00000000
00001000
00000000
00000000
00000000
00000000
00010000
00000000
00000000
00000000
00000100
00000000
00000000
00000000
00000000
00000000
,
00001000
00000000
00000000
00000000
00000000
00000001
00000000
00000000
00000000
00001000
00000000
00000000
00000000
00000000
00000001
00000000
00000000
00000000
00000100
00000000
00000000
00000000
00000000
00000000
,
00000010
00000000
00000000
00000000
00000000
00010000
00000000
00000000
00000000
00000010
00000000
00000000
00000000
00000000
00010000
00000000
00000000
00000000
00001000
00000000
00000000
00000000
00000000
00000000
,
00100000
00000000
00000000
00000000
00000000
00000000
00010000
00000000
00000000
00000000
00000000
00000000
10000000
00000000
00000000
00000000
00000000
10000000
00000000
00000000
00000000
10000000
00000000
00000000
,
00010000
00000000
00000000
00000000
00000000
00000000
01000000
00000000
00000000
00000000
00000000
00000000
00001000
00000000
00000000
00000000
00000000
00001000
00000000
00000000
00000000
00001000
00000000
00000000
,
00010000
00000100
00000010
00000001
,
00001000
00000100
00010000
00011000
;

//---------------dance-double - Talkion-DDP----------------
#NOTEDATA:;
#CHARTNAME:Talkion-DDP;
#STEPSTYPE:dance-double;
#DESCRIPTION:Talkion-DDP;
#DIFFICULTY:Medium;
#METER:10;
#RADARVALUES:0.376480,0.403055,0.113682,0.196360,0.082678,255,244,11,19,0,0,0,0,0,0.376480,0.403055,0.113682,0.196360,0.082678,255,244,11,19,0,0,0,0,0;
#CREDIT:Talkion;
#NOTES:
00000000
00000000
00000000
00000000
,
00000000
00000000
00000000
00000000
,
00000000
00000000
00000000
00000000
,
00000000
00000000
00000000
00000000
,
00000000
00000000
00000000
00000000
,
00020000
00000000
00000000
00000000
00000000
00000000
00001000
00000000
00000000
00000000
00000000
00000000
00130000
00000000
00000000
00000000
00000000
00000000
00010000
00000000
00000000
00000000
00000000
00002000
,
00000000
00000000
00000010
00000000
00013000
00000100
00001000
00000001
,
00000200
00000000
00000000
00000000
00000000
00000000
00001000
00000000
00000000
00000000
00000000
00000000
00000310
00000000
00000000
00000000
00000000
00000000
00010000
00000000
00000000
00000000
00000000
00002000
,
00000000
00000010
00023000
02030000
,
13000000
00100000
00010000
00001000
,
00000010
00000001
00000100
00001000
,
00010000
01000000
10000000
00100000
,
00010000
00001000
00000010
00000001
,
00001000
00000100
00010000
00000000
00001000
00000100
00000010
00000000
,
00001000
00000010
00010000
00000000
00001000
00000010
00000100
00000000
,
00010000
00001000
00010000
00001000
00010000
00001000
00010000
00001000
,
02000000
10000000
03001000
00011000
,
00000100
00000000
00001001
00000000
00000001
00000100
00001000
00000000
,
00010000
00000000
00001000
00000000
00000010
00001000
00010000
00000000
,
01000000
00000000
10010000
00000000
10000000
01000000
00010000
00000000
,
00001000
00000000
00000010
00000000
00000001
00001000
00000100
00010000
,
00001000
01000000
00010000
00000000
10000000
00100000
00010000
00000000
,
00001000
00000000
00010000
00000000
01000000
00010000
00001000
00000000
,
00000010
00000000
00001001
00000000
00000001
00000010
00001000
00000000
,
00020000
02030000
23000000
00000000
00010000
30010000
02000000
00000000
,
03001000
00000000
00010010
00000000
00000010
00000100
00000001
00001000
,
00000100
00000010
00001000
00010000
00000010
00001000
00000100
00000000
,
00010000
00000000
00101000
00000000
00100000
01000000
10000000
00010000
,
01000000
00000000
00000000
00100000
00000000
00000000
00010000
00000000
00000000
00001000
00000000
00000000
00000020
00000000
00000000
00000000
00000000
00000032
00000000
00000000
00000000
00001003
00000000
00000000
,
00000100
00010000
00001000
00000000
01000000
00100000
10000000
00010000
,
00100000
01000000
00010000
00001000
01000000
00010000
00100000
00000000
,
00001000
00000000
00010100
00000000
00000100
00000010
00000001
00001000
,
00000100
00000000
00000000
00000100
00000000
00000000
00010000
00000000
00001000
00000000
00000000
00000000
02000000
00000000
00000000
00000000
00000000
03020000
00000000
00000000
00000000
10030000
00000000
00000000
,
00010000
00000000
00000000
00000000
00000000
00000000
01001000
00000000
00000000
00000000
00000000
00000000
00001000
00000000
00000000
00010000
00000000
00000000
00000100
00000000
00000000
00000000
00000000
00000002
,
00000000
00000103
00000010
00000001
,
00001000
00000000
00000000
00000000
00000000
00000000
00010100
00000000
00000000
00000000
00000000
00000000
00010000
00000000
00000000
00001000
00000000
00000000
01000000
00000000
00000000
00000000
00000000
20000000
,
00000000
31000000
00100000
10000000
,
00010000
00000000
00000000
00000000
00000000
00000000
00101000
00000000
00000000
00000000
00000000
00000000
00001000
00000000
00000000
00010000
00000000
00000000
00000010
00000000
00000000
00000000
00000000
00000200
,
00000000
00010300
01000000
00001000
,
00010000
00000100
00001000
00000100
00010000
00000100
00001000
00000001
,
00000100
00000010
00010000
00001000
02000000
00000000
00000000
00000000
,
03100000
00000000
00000000
00000000
00000000
10000000
00000000
00000000
00000000
01000000
00000000
00000000
00000000
00000000
00010000
00000000
00000000
00000000
00001000
00000000
00000000
00001000
00000000
00000000
,
00000010
00000000
00000000
00000000
00000000
00000001
00000000
00000000
00000000
00000100
00000000
00000000
00000000
00000000
00001000
00000000
00000000
00000000
00010000
00000000
00000000
00010000
00000000
00000000
,
00100000
00000000
00000000
00000000
00000000
10000000
00000000
00000000
00000000
01000000
00000000
00000000
00000000
00000000
00010000
00000000
00000000
00000000
00001000
00000000
00000000
00001000
00000000
00000000
,
00000010
00000000
00000000
00000000
00000000
00000001
00000000
00000000
00000000
00000100
00000000
00000000
00000000
00000000
00001000
00000000
00000000
00000000
00010000
00000000
00000000
00010000
00000000
00000000
,
00100000
01000000
00001000
00000000
00010000
00001000
00100000
00000000
,
01000000
00100000
00001000
00000000
00010000
00001000
01000000
00000000
,
00010000
10000000
01000000
00010000
00001000
00000010
00000001
00001000
,
00000001
00000100
00000010
00001000
00010000
00000000
01100000
00000000
;

//---------------dance-double - Talkion-EDP----------------
#NOTEDATA:;
#CHARTNAME:Talkion-EDP;
#STEPSTYPE:dance-double;
#DESCRIPTION:Talkion-EDP;
#DIFFICULTY:Hard;
#METER:14;
#RADARVALUES:0.589080,0.705346,0.330712,0.434059,0.578746,399,367,32,42,0,0,0,0,0,0.589080,0.705346,0.330712,0.434059,0.578746,399,367,32,42,0,0,0,0,0;
#CREDIT:Talkion;
#NOTES:
00000000
00000000
00000000
00000000
,
00000000
00000000
00000000
00000000
,
00000000
00000000
00000000
00000000
,
00000000
00000000
00000000
00000000
,
00000000
00000000
00000000
00000000
,
00010000
00000000
00001000
01000000
00200000
00000000
00310000
00000000
,
00100000
00000000
00000000
01000000
00000000
00000000
00001000
00000000
00020000
00000000
00000000
00000000
00030200
00000000
00000000
00000000
00000000
00000000
00000310
00000000
00000000
00000100
00000000
00000000
,
00020000
00000000
00000000
00000000
00000000
00000000
00030010
00000000
00000000
00000000
00000000
00000000
00000100
00000000
00000000
00000010
00000000
00000000
00010000
00000000
00002000
00000000
00000000
00000000
,
00203000
00000000
00000000
00000000
00000000
00000000
01300000
00000000
00000000
10000000
00000000
00010000
00000000
00000000
01000000
00000000
00000000
01000000
00000000
00000000
00001000
00010000
00000000
00000000
,
00011000
00001100
00000101
00000011
,
00001010
00011000
00110000
10100000
,
11000000
01010000
00011000
00001100
,
00000101
00000011
00001010
00011000
,
00100000
00000000
00000000
00001000
00000000
00000000
00100000
00000000
00010000
00000000
00000000
10000000
00010000
00000000
00000000
01000000
00000000
00100000
00000000
00000000
00010000
00001000
00000000
00000000
,
00010000
00000000
00000000
00000100
00000000
00000000
00001000
00000000
00000001
00000000
00000000
00000100
00000010
00000000
00000000
00000100
00000000
00001000
00000000
00000000
00010000
00001000
00000000
00010000
,
00001000
00000000
00100000
00010000
00000000
00100000
00010000
00000000
00100000
00010000
00000000
10000000
00100000
00000000
01000000
00010000
00000000
01000000
00010000
00000000
01000000
00010000
00000000
01000000
,
00002000
00003200
00000302
00000023
00001030
00000000
00101000
00000000
,
10010000
00000000
00000000
00000000
00000000
00000000
10100000
00000000
00000000
00000000
00000000
00000000
00100000
00000000
01000000
00000000
00000000
00001000
00000000
00000000
00010000
00100000
00000000
02000000
,
00000000
00000000
00000000
03001000
00000000
00000000
00010000
00000000
00000100
00000000
00000000
00000010
00001000
00000000
00000000
00010000
00000000
00000000
00000100
00000000
00001000
00000000
00000000
00000001
,
00000100
00000000
00000000
00000000
00000000
00000000
00000110
00000000
00000000
00000000
00000000
00000000
00000010
00000000
00000000
00001000
00000000
00000000
00000001
00000000
00000010
00000000
00000000
00002000
,
00000000
00000000
00000000
00010000
00000000
00000000
00000000
00000000
01000000
00000000
00000000
00000000
00103000
00000000
00001000
00010000
00000000
00001000
01000000
00000000
01000000
00010000
00000000
00010000
,
20000000
00000000
00000000
31000000
00000000
00000000
11000000
00000000
00000000
00000000
00000000
00000000
01000000
00000000
00100000
00000000
00000000
00001000
00000000
00000000
00010000
01000000
00000000
00200000
,
00000000
00000000
00000000
00301000
00000000
00000000
00010000
00000000
00000010
00000000
00000000
00000100
00001000
00000000
00000000
00010000
00000000
00000000
00000010
00000000
00001000
00000000
00000000
00000001
,
00000010
00000000
00000000
00000000
00000000
00000000
00000110
00000000
00000000
00000000
00000000
00000000
00000100
00000000
00000000
00001000
00000000
00000000
00000001
00000000
00000100
00000000
00000000
00000010
,
00020000
00031000
00010000
02000000
13000000
10000000
00020000
00000000
,
01030000
00000000
00000000
00000000
00000000
00000000
00011000
00000000
00000000
00010000
00000000
00000000
00000100
00000000
00001000
00000001
00000000
00000001
00000100
00000000
00000100
00000010
00000000
00001000
,
00000001
00000000
00000000
00000010
00000000
00000000
00000100
00000000
00010000
00001000
00000000
00001000
01000000
00000000
00000000
00100000
00000000
00000000
01000000
00000000
00010000
10000000
00000000
00010000
,
00100000
00000000
00000000
00000000
00000000
00000000
01100000
00000000
00000000
00100000
00000000
00000000
01000000
00000000
00000000
00010000
00000000
00000000
00001000
00000000
00010000
00000100
00000000
00000100
,
00001000
00000000
00000000
00000001
00000000
00000000
00000100
00000000
00000010
00010000
00000000
00000000
00022000
00000000
00000000
00033000
00000000
00202000
00000000
00303000
00000000
10020000
00000000
00000000
,
02030000
00000000
00000000
03001000
00000000
00000000
00011000
00000000
00000000
00010000
00000000
00000000
00000010
00000000
00001000
00000001
00000000
00000001
00000010
00000000
00000010
00000100
00000000
00001000
,
00000001
00000000
00000000
00000100
00000000
00000000
00000010
00000000
00010000
00001000
00000000
00001000
00100000
00000000
00000000
01000000
00000000
00000000
00100000
00000000
00010000
10000000
00000000
00010000
,
01000000
00001000
00000100
00001000
01000000
00001000
00000100
00000010
,
00010000
00000000
00000000
00010000
00000000
00000000
00001000
00000000
01000000
00000000
00000000
00100000
01000000
00000000
01000000
00001000
00000000
00010000
00002000
00000000
00000000
00000000
00000000
00000000
,
00003010
00000120
00000001
00001000
,
00000031
00000000
00000000
00000200
00000000
00000000
00002300
00000000
00000000
00013000
00000000
00001000
00100000
00000000
00010000
10000000
00000000
00100000
01000000
00000000
00000000
00010000
00000000
00000000
,
10020000
00100000
01000000
00100000
,
10030000
00000000
00000000
00010000
00000000
00100000
00002000
00000000
00000000
00013000
00000000
00000100
00001000
00000000
00000001
00000010
00000000
00000100
00002000
00000000
00000000
00003002
00000000
00000000
,
00000103
00000210
00000001
00001000
,
00000301
00000000
00000000
00000020
00000000
00000000
00002030
00000000
00000000
00013000
00000000
00001000
01000000
00000000
00010000
10000000
00000000
01000000
00100000
00000000
00000000
00010000
00000000
00000000
,
01000000
00001000
00000100
00001000
01000000
00001000
00000100
00001000
,
00010000
00000000
00000000
00000100
00000000
00001000
00000001
00000000
00000000
00000100
00000000
00000000
00002000
00000000
00000000
00023000
00000000
00000000
00230000
00000000
00000000
20300000
00000000
00000000
,
30010000
00000000
00000000
00000000
00000000
00100000
00000000
00000000
00000000
00001000
00000000
00000000
00000000
00000000
00000010
00000000
00000000
00000000
00000001
00000000
00000000
00001000
00000000
00000001
,
00000100
00000000
00000000
00000000
00000000
00010000
00000000
00000000
00000000
01000000
00000000
00000000
00000000
00000000
00001000
00000000
00000000
00000000
00100000
00000000
00000000
01000000
00000000
10000000
,
00010000
00000000
00000000
00000000
00000000
01000000
00000000
00000000
00000000
00001000
00000000
00000000
00000000
00000000
00000100
00000000
00000000
00000000
00000001
00000000
00000000
00001000
00000000
00000001
,
00000010
00000000
00000000
00000000
00000000
00010000
00000000
00000000
00000000
00100000
00000000
00000000
00000000
00000000
00001000
00000000
00000000
00000000
01000000
00000000
00000000
00010000
00000000
10000000
,
01000000
00000000
00000000
00010000
00000000
00000000
00001000
00000000
00100000
00000000
00000000
00010000
00100000
00000000
00000000
01000000
00000000
00010000
00000000
00000000
00001000
00010000
00000000
00000000
,
00000010
00000000
00000000
00000100
00000000
00000000
00001000
00000000
00010000
00000000
00000000
00000100
00000010
00000000
00000000
00000001
00000000
00001000
00000000
00000000
00000010
00010000
00000000
00000010
,
00010000
00000000
00001000
00100000
00000000
00001000
00100000
00000000
00001000
00100000
00000000
00010000
10000000
00000000
00100000
10000000
00000000
00100000
10000000
00000000
00100000
10000000
00000000
00010000
,
00200000
00302000
00003020
00000032
00000103
00000000
00011000
00000000
;
