#TITLE:BURN OUT;
#ARTIST:leeium;
#BANNER:BURN OUT.png;
#BACKGROUND:BURN OUT-bg.png;
#MUSIC:BURN OUT.ogg;
#OFFSET:1.161;
#SAMPLESTART:19.223;
#SAMPLELENGTH:15;
#BPMS:0=200,67=400,190=100,221=200,253=100,269=200,301=400,491=200;
#STOPS:50=0.3,131=0.45,159=0.3,197.75=0.6,363=0.15,396=0.15;

//---------------dance-single - Marten-bSP----------------
#NOTES:
     dance-single:
     Marten:
     Beginner:
     8:
     :
0000
0000
0000
0000
,
0000
0000
0000
0000
,
0000
0000
0000
0000
,
0000
0000
0000
0000
,
0000
0000
0000
0000
,
1001
0000
0000
1001
0000
0000
0000
0000
,
0001
1000
0001
0000
,
0110
0000
0000
0110
0000
0000
0220
0000
,
0000
0000
0330
0000
,
1001
0000
0010
0100
,
0110
0000
0001
1000
,
1001
0000
0010
0100
,
0110
0000
0010
0001
,
0001
1000
1000
0010
,
0010
0010
0010
1000
,
0000
0001
0000
0010
,
0100
0010
0000
2001
,
3000
0001
0000
1000
,
0000
1000
0000
0010
,
0000
0100
0000
0010
,
0000
0010
0000
2000
,
3000
1000
0000
0100
,
0000
0100
0000
0010
,
0000
0001
0000
0200
,
0300
0020
0030
2000
,
3000
0001
0000
0010
,
0000
0010
0000
0100
,
0000
0010
0000
0001
,
0000
0100
0000
0002
,
0003
1000
0000
0100
,
0000
0100
0000
0010
,
0000
0000
0220
0330
,
0000
0110
0000
0000
,
0000
0000
0001
0000
,
0100
0000
0001
0000
,
0100
0000
0100
0000
,
0020
0030
1000
0000
,
0100
0000
1000
0000
,
0001
0000
1000
2000
,
3000
0020
0030
0000
,
1002
0003
1000
0000
,
0100
0000
0010
0000
,
0001
0000
0100
0000
,
0100
0000
0020
0030
,
1000
0000
0100
0000
,
0010
0020
0000
0000
,
0000
0000
0000
0000
,
0030
0000
0000
0000
2001
3000
0001
1000
,
0000
1000
0001
0000
1002
0003
1000
0001
,
0000
0001
1000
0000
0110
0010
0000
0010
,
0100
0000
1001
0000
0001
0200
0000
0300
,
0100
0000
0000
0000
2001
3001
0000
0010
,
0110
0000
1002
0003
1000
1000
0000
0010
,
0100
0100
0000
0000
1002
1003
0000
0010
,
0110
0000
2001
3000
0001
0020
0000
0000
,
0030
0000
1001
0000
0000
1001
0000
0000
,
0001
1000
0100
0100
,
0000
1000
0010
0110
,
0000
0100
0001
1001
,
0000
0000
1001
0000
0000
1001
0000
0000
,
1000
0001
0100
0100
,
0000
0000
0110
0000
0000
1001
0000
0000
,
0220
0000
0000
0000
,
0330
0200
0000
0000
,
0300
0002
0000
0000
,
0003
2000
0000
0000
,
3000
0020
0000
0000
,
0030
1001
0000
0001
,
0010
0110
0000
0100
,
1000
1001
0000
1000
,
0010
0110
0000
0020
,
0030
1000
1000
0001
,
0001
0010
0010
0100
,
0100
1000
0001
1000
,
0001
0020
0000
0000
,
0030
1002
0003
1000
,
0000
0100
0000
0010
,
0000
0001
0000
0001
,
0000
1000
0000
1000
,
0000
2001
3000
0001
,
0000
0100
0000
0010
,
0000
1000
0000
1000
,
0000
0002
0003
2000
,
3000
0020
0030
0100
,
0000
0001
0000
0001
,
0000
1000
0000
0100
,
0000
0010
0000
0001
,
0000
2000
3000
0010
,
0000
0100
0000
0001
,
0000
2002
3003
0000
,
0220
0000
0000
0330
,
0020
0030
1000
0000
,
0100
0000
1000
0000
,
0001
0000
0001
0000
,
1000
0000
1000
0000
,
0200
0300
0010
0000
,
0001
0000
0100
0000
,
0001
0000
0001
0000
,
2000
3000
0002
0003
,
0000
0100
0000
0010
,
0000
0010
0000
1000
,
0000
0100
0000
0010
,
0000
0001
0000
1001
,
0000
0000
1001
0000
,
0000
0000
0110
0000
,
0000
0110
0000
0000
,
0000
0020
0030
1000
,
0000
1001
0000
0001
,
0000
1001
0000
0001
,
0000
1001
0000
0001
,
0000
1001
0000
0010
,
0000
0110
0000
0010
,
0000
0110
0000
0010
,
0000
0110
0000
0010
,
0000
0110
0000
1000
,
0000
1001
0000
1000
,
0000
1001
0000
1000
,
0000
1001
0000
1000
,
0000
1001
0000
0100
,
0000
0010
0000
0001
,
0000
1001
0000
1000
,
0000
0001
0000
0100
,
0000
0010
0000
0110
,
0000
0110
0000
0000
0010
0000
1000
0000
,
0100
1000
0000
1001
,
0000
1001
0000
0000
0001
0000
1000
0000
,
1001
1001
0000
0110
,
0000
0110
0000
0000
0010
0000
0001
0000
,
0100
0001
0000
1001
,
0000
0110
0000
0000
2002
0000
0000
0000
,
0000
0000
3003
0000
;

//---------------dance-single - Marten-BSP----------------
#NOTES:
     dance-single:
     Marten:
     Easy:
     11:
     :
0000
0000
0000
0000
,
0000
0000
0000
0000
,
0000
0000
0000
0000
,
0000
0000
0000
0000
,
0000
0000
0000
0000
,
2200
3300
0000
0202
0303
0000
0001
0000
,
1000
0000
0010
0000
0010
0000
0000
0110
0000
0000
0110
0000
0000
0000
0000
0000
,
1001
0000
0000
0001
0000
0000
0001
0000
0000
0000
1000
0000
0001
0000
0020
0000
,
0000
0000
0000
0030
,
0022
0033
0001
0100
,
2020
0000
3030
0000
1000
0100
1000
0000
,
2200
3300
0010
0001
,
0202
0303
0010
1010
,
1000
0000
0011
0000
0001
0000
1000
0001
,
1000
0001
0100
0010
0100
0010
1000
0000
,
0100
0000
0010
0001
0010
0000
0100
0000
,
1000
0001
1000
0000
1001
0000
0202
0000
,
0303
0100
0000
0001
,
0000
0010
0000
0100
,
1000
0001
0000
0100
,
0001
1000
0000
2200
,
3300
0100
0000
1000
,
0000
0010
0000
0100
,
0001
0100
0001
0020
,
0030
0002
0003
2002
,
3003
0001
0000
1000
,
0010
1000
0000
0001
,
0100
0010
0000
1000
,
0001
1000
0100
0020
,
0030
0001
0000
0100
,
0010
0100
0000
0001
,
0000
1000
0000
0000
2001
0000
0000
0000
,
0000
3020
0000
0130
,
0001
0000
0101
0000
,
1000
0000
1100
0000
,
0010
0000
1001
0000
,
0200
0300
0110
0000
,
0001
0000
0011
0000
,
1000
0000
1010
0020
,
0030
0200
0300
0110
,
2002
3003
0001
1000
,
0010
0000
1000
0001
,
0010
0000
0100
0010
,
0100
0000
2200
3300
,
1000
0001
0100
0000
,
0010
0200
0000
0000
,
0000
0300
0010
1000
,
0200
0000
0300
0000
0220
0330
1001
0100
,
0000
0000
0010
0000
1001
0000
0000
0000
0220
0000
0330
1000
1001
0000
0100
0000
,
0000
0000
0010
0000
1001
0000
0001
1000
2001
0000
3100
0000
0000
0000
0010
0000
,
1001
0000
0000
0000
0220
0000
0330
0001
1000
0000
0010
0200
0000
0000
0000
0000
,
0010
0300
0002
0003
0012
0103
0000
0010
,
1001
0000
2020
3030
1001
0100
0000
0010
,
1001
0000
0001
1000
0000
0000
0000
0000
1002
0000
0103
0000
0000
0000
0010
0000
,
1001
0000
0000
0000
0102
0000
0003
0000
1000
0000
0100
0020
0000
0000
0000
0000
,
0000
0030
0022
0033
0000
2020
3030
0000
,
1000
0000
0000
0000
0001
0000
0010
0000
0100
0000
0000
0110
0000
0000
0110
0000
,
0000
0000
0100
0000
1000
0000
0000
0010
0000
0000
0100
0000
0100
0000
0000
0000
,
0001
0000
0010
0100
1000
0000
2002
0000
,
3003
0000
2020
3030
0000
0022
0033
0000
,
0001
0000
0000
0000
1000
0000
0010
0000
0100
0000
0000
0110
0000
0000
0110
0000
,
0000
0000
0100
0000
0001
0000
0000
0010
0000
0000
0100
0000
0100
0000
0000
0000
,
1000
2002
0000
0000
0000
0000
3003
0000
,
0000
0002
0000
0000
,
0003
2000
0000
0000
,
3000
0020
0000
0000
,
0030
0000
0000
0000
0100
0000
0000
0100
0000
0000
0200
0000
0000
0000
0000
0000
,
0302
0003
0022
0000
0033
0000
0001
0000
,
0100
0000
2020
0000
3030
0000
0001
0100
,
0001
0202
0303
0001
,
0010
0000
2200
0000
3300
0000
0001
2000
,
0000
3000
1001
0000
0001
0000
0110
0000
,
0010
1001
1000
0110
,
0100
0000
1001
0000
0001
0000
1000
0001
,
1000
0001
0200
0000
0000
0000
0300
0000
,
0110
2020
3030
0010
,
0000
1000
0000
0100
,
0000
1000
0010
1000
,
0010
0100
0001
1000
,
0000
0022
0033
0001
,
0000
0010
0000
0100
,
0000
0010
0001
0010
,
0000
0200
0300
2000
,
3000
2200
3300
0010
,
0000
1000
0000
0001
,
0000
0100
0001
0100
,
0001
0010
0001
1000
,
0000
0202
0303
0002
,
0003
1000
0010
0100
,
0000
0202
0000
0303
,
2200
0000
0000
3300
,
2000
3000
0010
1000
,
0001
0000
1001
0000
,
0001
0010
0001
0000
,
1000
0010
1000
0000
,
0002
0003
0010
0001
,
1000
0000
1001
0000
,
0001
0100
0001
0000
,
2000
3000
0200
0000
,
0310
0001
1000
0001
,
0000
1001
0000
0001
,
1000
0100
0000
1000
,
0001
0100
0000
1001
,
0000
0001
0000
0000
0001
0000
0000
0001
,
0000
0000
0001
0000
1001
0000
0000
1000
,
0000
0000
1000
0000
0000
1000
0000
0000
,
1000
0020
0000
1030
,
0100
1000
0002
0000
,
0000
0100
0000
0000
,
0000
1000
0000
0000
,
0000
0013
0000
0001
,
0100
0001
0020
0000
,
0000
0001
0000
0000
,
0000
1000
0000
0000
,
0000
0130
0000
0100
,
1000
0001
2000
0000
,
0000
0010
0000
0000
,
0000
0001
0000
0000
,
0000
3100
0000
1000
,
0010
0100
0010
0000
,
1000
0200
0000
0000
,
0000
0310
0000
0001
,
1000
0000
1001
0000
0000
0000
0022
0033
,
0000
2200
3300
0000
1000
0000
0010
1000
,
0100
0000
0000
0110
0000
0000
0110
0000
0000
0000
0000
0000
0001
0000
0000
1000
,
0000
1001
0000
0001
0100
0001
0000
0011
,
0000
0100
0200
0000
1300
0000
2020
3030
,
0000
0202
0303
0000
0001
0000
0010
0001
,
0100
0000
0000
0110
0000
0000
0110
0000
0000
0000
0000
0000
1000
0000
0000
0001
,
0000
1001
0000
0001
1000
0200
0000
0000
,
0000
0000
0300
0000
;

//---------------dance-single - Marten-ESP----------------
#NOTES:
     dance-single:
     Marten:
     Medium:
     15:
     :
0000
0000
0000
0000
,
0000
0000
0000
0000
,
0000
0000
0000
0000
,
0000
0000
0000
0000
,
0000
0000
0000
0000
,
0102
0000
1003
2100
0000
3001
1000
0001
,
0010
0000
0100
0000
0110
0000
0000
0011
0000
0000
2100
0000
0000
0000
3010
0000
,
0110
0000
0000
0101
0000
0000
1001
0000
0001
0000
0010
0000
1000
0000
0020
0000
,
0000
0000
0000
0030
,
0012
0000
0103
0000
0001
0100
0001
1000
,
2010
0000
3100
0000
1000
0100
0110
0000
,
1002
0000
0013
0000
0001
0100
0010
0100
,
2001
3010
0100
0011
,
0001
0000
1010
0000
1000
0000
0001
0010
,
1000
0010
0001
1000
0010
0100
0001
1000
,
0100
0000
1000
0001
0100
0000
0010
0000
,
0010
0100
0001
0000
1001
0000
2020
0000
,
3030
1000
0100
0010
,
0001
0100
0100
0001
,
0100
0010
0010
1000
,
0001
0010
0000
0022
,
0033
0001
0100
0010
,
0100
0001
0001
1000
,
0100
0001
0100
2000
,
3000
0002
0003
2002
,
3003
0001
0100
0010
,
0001
0010
1000
0100
,
0001
0100
1000
0001
,
0100
0010
0000
2002
,
3003
0001
0010
1000
,
0010
0001
1000
1010
,
0000
1001
0000
0000
0201
0000
0000
0000
,
0000
0310
0000
0110
,
0010
1000
1100
0000
,
0010
0001
0101
0000
,
0010
0100
1001
0001
,
0020
0030
0110
0000
,
0100
1000
1010
0000
,
0100
0001
0011
0020
,
0030
0002
0003
0100
,
2002
3003
0001
0010
,
0100
0100
1000
0010
,
0001
1000
0100
0010
,
1000
0001
2002
3003
,
0001
0010
0100
0010
,
0001
0200
0000
0010
,
0010
0010
0010
0310
,
0110
0000
0000
0000
0000
0000
0000
0000
2001
0000
0000
3010
1010
0000
0100
0000
,
0000
0000
0100
0000
1010
0000
0000
0000
1002
0000
0000
0013
0011
0100
0100
0000
,
0000
0000
0000
0100
0010
0000
0010
0000
0011
0000
0001
0000
1000
0000
0010
0000
1002
0000
0000
0000
0103
0000
0000
0000
0000
0000
0000
0000
0100
0000
0000
0000
,
1001
0000
0000
0000
2001
0000
0000
3100
0110
0010
0001
0200
0000
0310
1000
0010
,
0100
0001
0100
0010
0000
0000
0000
0000
0102
0000
0013
0000
0000
0000
0010
0000
,
1001
0000
0000
0000
0000
0000
0000
0000
2100
0000
0000
0000
0000
0000
3010
0000
1010
0000
0000
0000
0010
0000
0000
0000
0000
0000
0000
0100
0010
0000
0010
0000
,
1010
0000
1000
0000
0001
0000
0010
0000
0000
0001
0000
1000
0000
0001
0100
0000
0120
0000
0000
0000
1030
0000
0000
0000
0000
0000
0000
0000
0001
0000
0000
0000
,
1001
0000
0000
0000
0001
0010
0100
0001
0100
1000
0001
0200
0000
0010
0010
0010
,
0010
0010
0310
0000
0210
0000
0000
0000
0301
0000
0011
0000
0010
0000
0100
0000
,
1000
0000
0010
0000
0100
0000
0010
0000
1010
0000
0000
0110
0000
0000
0201
0000
,
0000
0000
0301
0000
0011
0000
0000
0110
0000
0000
1100
0000
1000
0000
0100
0000
,
0001
0100
1000
0001
0100
0110
2002
0000
,
3003
0000
0210
0000
1300
1010
0010
0100
,
0001
0000
0010
0000
0100
0000
0010
0000
0011
0000
0000
0110
0000
0000
1200
0000
,
0000
0000
1300
0000
1010
0000
0000
0110
0000
0000
0101
0000
0001
0000
0100
0000
,
1000
0200
0000
0000
0000
0000
0000
0000
,
0300
0000
0000
0000
0001
0000
0000
0002
0000
0000
0000
0000
0000
0000
0000
0000
,
0003
0000
0000
0000
1000
0000
0000
2000
0000
0000
0000
0000
0000
0000
0000
0000
,
3000
0000
0000
0000
0010
0000
0000
0020
0000
0000
0000
0000
0000
0000
0000
0000
,
0030
0000
0000
0000
0100
0000
0000
0100
0000
0000
0200
0000
0000
0000
0000
0000
,
0302
0003
1002
0000
0013
0000
0001
0100
,
1000
0100
0120
0000
1030
0000
0100
1000
,
0001
1000
2001
0000
3010
0000
1000
0100
,
0001
0100
0120
0000
0031
0000
1000
0020
,
0000
0030
1010
0000
1010
0000
0011
0000
,
0011
1100
0101
0110
,
1001
0000
0001
0010
1000
0010
0001
0100
,
1000
0100
0002
0000
0000
0000
0003
0000
,
1001
2200
3300
1000
,
0010
0100
0010
1000
,
0001
0010
0010
0100
,
0100
0001
0100
1000
,
0001
0202
0303
0001
,
0100
0010
0100
0001
,
0001
1000
0010
0001
,
0010
2000
3000
0002
,
0003
0220
0330
0100
,
1000
0001
0100
1000
,
0100
0001
0010
0100
,
1000
0001
0010
1000
,
0010
0022
0033
0002
,
0000
1003
0010
1010
,
0000
0102
0000
0013
,
2100
0000
0000
3001
,
0022
0033
0001
0100
,
0010
0100
0001
0001
,
1000
0010
0100
1000
,
0100
0010
1000
0010
,
2020
3030
1000
0100
,
0010
0100
1000
1000
,
0001
0010
0100
0001
,
0200
0000
2300
0000
,
3010
1000
0010
0001
,
0010
1000
0001
0010
,
1000
0010
0001
0100
,
1000
0100
0001
1001
,
0000
0101
0000
0000
0110
0000
0000
1010
,
0000
0000
1001
0000
1000
0000
0000
1100
,
0000
0000
0110
0000
0000
0011
0000
0000
,
0001
0020
0000
0130
,
1000
0010
2000
0100
,
0000
0001
0000
0100
,
0000
0001
0000
0010
,
0000
3001
0000
0001
,
0100
0010
0200
0001
,
0000
0010
0000
0001
,
0000
0010
0000
1000
,
0000
0310
0000
0010
,
1000
0001
0020
0100
,
0000
1000
0000
0100
,
0000
1000
0000
0100
,
0000
0031
0000
0001
,
0010
1000
0010
0001
,
0100
0002
0000
0100
,
0000
1003
0010
1000
,
0100
0010
0001
0102
,
1003
2100
0000
3010
1000
0001
0010
0001
,
0101
0000
0000
1001
0000
0000
1100
0000
0000
0000
1000
0000
1010
0000
0000
0110
,
0000
0101
0000
0001
0010
0100
0000
0001
,
0100
1000
1002
0000
1003
0010
2010
0000
,
3001
0012
0000
0103
0001
1000
0100
1000
,
1100
0000
0000
1001
0000
0000
0101
0000
0000
0000
0001
0000
0011
0000
0000
0110
,
0000
1100
1000
0010
0001
0021
0000
0000
,
0000
0000
0030
0000
;

//---------------dance-single - Marten-ESP----------------
#NOTES:
     dance-single:
     Marten:
     Hard:
     17:
     :
0000
0000
0000
0000
,
0000
0000
0000
0000
,
0000
0000
0000
0000
,
0000
0000
0000
0000
,
0000
0000
0000
0000
,
2100
0000
0000
0000
3001
0000
0201
0000
0000
0000
0301
0000
1000
0100
0010
0001
,
1000
0000
0010
0000
0110
0000
0000
0110
0000
0000
0110
0000
0000
0000
0100
0000
,
0101
0000
0000
0100
0000
0000
0001
0000
1000
0000
0100
0000
0001
0000
0200
0000
,
0000
0000
0000
0300
,
2001
0000
3100
0000
1000
0010
0001
0010
,
1020
0000
0130
0000
0001
0010
0200
0300
,
1002
0000
0103
0000
0001
0010
1000
0010
,
0021
0130
1000
1010
,
0100
0000
0000
0000
0011
0000
0000
0000
0100
0000
0000
0000
1000
0100
1000
0100
,
1000
0001
1000
0001
1000
0010
1000
0010
0100
0010
0100
0001
0100
0000
0001
0000
,
1000
0000
0100
1000
0001
0000
0100
0000
,
0100
0010
0100
0000
1001
0000
0022
0000
,
0033
0000
0001
0000
0100
0000
0010
1000
,
0000
0100
0000
1000
0001
0000
0010
0001
,
0000
0100
0000
0001
1000
0000
0010
0100
,
0000
0010
0000
1000
0001
0000
2200
0000
,
3300
0001
1000
0010
,
0100
0000
0001
0100
0001
1000
0001
0000
,
0010
0000
0100
1000
0001
1000
0200
0000
,
0300
0220
0330
2002
,
3003
0000
0001
0000
1000
0000
0001
0010
,
0001
0010
0100
0000
1000
0000
0010
1000
,
0010
0000
1000
0001
1000
0000
0100
0010
,
0000
0001
0000
1000
0001
0000
0202
0000
,
0303
0000
0001
0000
1000
0000
0100
1000
,
0000
0001
0000
1000
0010
1000
0010
0000
,
0000
0110
0000
0000
0202
0000
0000
0000
,
0303
1001
0000
0110
,
0010
1000
1100
0010
,
0001
0100
0101
0010
,
0100
0010
0110
0001
,
2002
3003
0101
0001
,
1000
0100
0000
1000
0000
0010
0100
0001
,
0100
0000
0010
0000
1000
0100
2000
0000
,
3000
2002
3003
0110
,
2002
3003
0001
0100
,
0001
0010
0001
0100
0001
0000
0100
0000
,
0010
1000
0100
0000
0010
0001
0000
1000
,
0000
0001
0100
0001
2000
0000
3000
0000
,
0010
1000
0001
1000
0100
0010
0000
0001
,
1000
0000
2200
0000
0300
0000
3001
0100
,
0001
0100
0010
0100
0010
0100
0001
0010
,
0200
0000
0000
0000
0300
0000
0000
0000
2200
0000
3300
1000
1010
0000
0110
0000
,
0000
0000
0101
0000
0110
0000
0000
0000
2002
0000
3003
0001
0011
0010
0110
0000
,
0000
0000
0000
1000
0100
0000
0010
0000
0110
0000
0000
0000
0001
0000
1000
0000
2002
0000
3003
0000
1010
0000
0000
0000
0000
0000
0000
0000
0110
0000
0000
0000
,
1010
0000
0000
0000
0202
0000
0303
0001
1001
1000
1010
0210
0000
0301
1000
0001
,
0010
0100
1000
0001
0000
0000
0000
0000
2002
3003
0011
0000
0000
0000
0101
0000
,
0011
0000
0000
0000
0000
0000
0000
0000
0220
0000
0000
0000
0330
0000
0100
0000
1100
0000
0000
0000
1001
0000
0000
0000
0000
0000
0000
0001
0100
0000
0010
0000
,
0110
0000
0000
0000
0010
0000
1000
0000
0000
0001
0000
1000
0000
0001
0010
0100
2000
0000
3000
0000
1100
0000
0000
0000
0000
0000
0000
0000
0011
0000
0000
0000
,
1100
0000
0000
0000
2002
3003
0001
0100
1000
0100
0002
2000
0000
0000
0000
0000
,
0000
3003
2001
0000
3010
1010
0010
0100
,
0001
0100
0010
0100
0001
0000
1000
0000
0100
0000
0000
1100
0000
0000
1100
0000
,
0000
0000
0100
0000
1100
0000
0000
1001
0000
0000
0011
0000
0001
0010
0100
0010
,
0001
1000
1000
0100
0001
0100
1100
0000
,
0000
0000
1002
0000
0013
0011
0010
0100
,
1000
0100
0010
0100
1000
0000
0001
0000
0100
0000
0000
0101
0000
0000
0101
0000
,
0000
0000
0100
0000
0101
0000
0000
1001
0000
0000
1010
0000
1000
0010
0100
0010
,
1000
2002
0000
0000
0000
0000
0000
0000
,
3003
0000
0000
0000
0001
0000
0000
0020
0000
0000
0000
0000
0000
0000
0000
0000
,
0000
0000
0030
0000
0100
0000
0000
2000
0000
0000
0000
0000
0000
0000
0000
0000
,
0000
0010
3000
0000
0100
0000
0000
0002
0000
0003
0000
0000
0000
0000
0000
0000
,
0000
0000
0000
0000
1000
0000
0000
0001
0000
0000
2000
0000
0000
0000
3000
0000
,
0001
0010
0100
1000
1002
0000
0000
0000
0103
0000
0000
0000
0001
0000
0100
0000
,
1000
0100
0210
0000
0301
0000
1000
0010
,
0010
0100
1002
0000
0103
0000
0001
0010
,
1000
0010
0120
0000
0031
0010
0100
2000
,
0000
3000
1010
0000
1000
0000
1001
0000
,
0001
0011
0010
0110
,
0100
0000
1000
0010
0001
0010
1000
0100
,
0001
0100
2000
0000
0000
0000
3000
0000
,
1001
0202
0303
0001
,
1000
0000
0100
1000
0000
0001
0000
1000
,
0100
0000
0010
0001
0000
0100
0000
0001
,
0010
0100
0010
0001
0000
1000
0000
0010
,
1000
2200
3300
1000
,
0001
0000
0100
0001
0000
1000
0000
0001
,
0100
0001
0100
0000
0010
0000
1000
0100
,
1000
0100
0020
0000
0030
0000
0022
0000
,
0033
0000
2002
0000
3003
0000
0001
0100
,
0010
0000
1000
0100
0000
1000
0000
0001
,
0100
0001
0000
1000
0010
1000
0000
0001
,
0010
0001
0000
1000
0000
0100
0000
1000
,
0010
1000
0020
0000
0000
0000
0130
0001
,
0100
0000
0001
0010
0100
0000
1000
0010
,
0100
0102
0000
1003
,
2100
0000
0000
3010
,
2002
3003
0001
0100
,
0010
0100
0000
0001
0100
0001
0100
0001
,
1000
0100
0000
1000
0100
1000
0100
1000
,
0100
0010
0000
0100
0010
0100
0010
0100
,
0020
0030
0001
1000
,
0010
1000
0000
0010
1000
0010
1000
0010
,
1000
0000
0001
0000
1000
0001
0100
0001
,
2000
3000
2020
3030
,
0000
0000
0100
0001
0100
0001
1000
0100
,
0000
0010
0000
0100
1000
0001
0000
1000
,
0010
0100
0000
0001
0010
0100
0010
0001
,
0000
1000
0000
0010
0100
0000
0101
0000
,
0000
1100
0000
0000
0101
0000
0000
1100
,
0000
0000
1001
0000
0011
0000
0000
1010
,
0000
0000
0011
0000
0000
1010
0000
0000
,
0100
0020
0000
1030
,
0100
0011
0002
0100
,
0000
1000
0000
0010
,
0000
1000
0000
0100
,
0000
1000
0003
0001
,
0100
1010
2000
0010
,
0000
0001
0000
0100
,
0000
0001
0000
0010
,
0000
0001
3000
0001
,
1000
1100
0020
0100
,
0000
1000
0000
0100
,
0000
0001
0000
0100
,
0000
1000
0030
0010
,
0001
0101
0100
0010
,
0100
1002
0000
2003
,
0000
3001
1000
0010
,
0001
1000
0100
0102
,
1003
0000
1200
0000
0000
0000
0310
0000
0001
0100
0010
0100
0001
0000
1000
0000
,
1100
0000
0000
0110
0000
0000
2100
0000
0000
0000
3001
0000
0101
0000
0000
0110
,
0000
0000
1010
0000
0010
0100
0010
0100
0001
0000
1000
0000
0100
0000
0210
0000
,
0310
0000
0011
0000
1002
0000
0000
0000
1003
0010
0100
0001
2000
0000
0000
0000
,
3010
0000
0210
0000
0000
0000
0310
0000
0100
0001
0010
0001
1000
0000
0001
0000
,
0101
0000
0000
0110
0000
0000
0201
0000
0301
0000
1000
0000
1001
0000
0000
1010
,
0000
0000
0101
0000
0001
0010
0100
1000
0100
0000
2200
0000
0000
0000
0000
0000
,
0000
0000
3300
0000
;

//---------------dance-single - Marten & Nitrospan-CSP----------------
#NOTES:
     dance-single:
     Marten & Nitrospan:
     Challenge:
     19:
     :
0000
0000
0000
0000
,
0000
0000
0000
0000
,
0000
0000
0000
0000
,
0000
0000
0000
0000
,
0000
0000
0000
0000
,
2010
0000
0000
0000
3100
0000
0012
0000
0000
0000
0003
1000
0000
0001
0100
0010
,
1000
0000
0100
0000
0110
0000
0000
1100
0000
0000
0011
0000
0100
0000
0010
0000
,
1001
0000
0000
1010
0000
0000
0101
0000
1000
0100
0010
0001
0100
0000
2002
0000
,
0000
0000
0000
0000
0000
0000
3003
0000
0001
1000
0100
0010
0001
1000
0010
0100
,
1001
0100
0010
0100
2000
0010
3002
0100
,
1003
0010
0100
0010
2000
0100
0002
3003
,
0110
0001
1000
0001
0200
1000
0320
0001
,
0130
0000
0000
0000
0000
0000
0001
0000
0000
0000
0000
0000
1000
0000
0000
0000
0000
0000
0010
0000
0100
0000
0010
0000
0200
0000
0000
0300
0000
0000
0000
0000
0000
0000
0000
0000
1010
0000
0000
0000
0000
0000
0000
0000
0000
0000
0000
0000
,
0011
0000
0000
0000
0101
0000
0000
0000
1100
0000
0000
0000
1000
0010
0100
0010
,
1000
0001
0010
0001
0100
0010
0100
0001
1000
0100
0010
0100
1000
0000
1000
0000
,
0001
0000
1000
0100
0000
0010
0001
0000
0100
0000
0010
0000
1000
0100
0000
0100
,
0001
1000
0100
0000
0010
0000
0000
0000
0110
0000
0000
0000
2002
0000
0000
0000
,
3000
0000
1003
0000
0010
0000
0200
0001
,
0000
0010
1300
0100
0010
0001
2000
0100
,
0000
0001
3100
0010
1000
0100
0020
0001
,
0000
0100
1030
0001
0010
0000
2002
0000
,
0003
0000
3010
0000
0100
0000
0002
0010
,
0000
1000
0103
0010
0001
0100
0020
0000
,
1000
0000
0130
0001
0010
0100
2200
0000
,
3300
0022
0033
0220
,
0300
0000
0130
0000
1000
0000
0001
0100
,
1000
0100
0001
0000
1000
0000
0001
0100
,
0010
0100
0001
0010
1000
0010
0002
0100
,
0000
1000
0013
0100
0001
0000
2002
0000
,
0003
0000
3010
0000
0100
0000
0002
0100
,
0000
1000
0013
0100
0001
0010
1100
0000
,
0000
0011
0000
0000
2002
0000
0000
0000
,
3003
0000
0220
0000
0330
0000
MMMM
0010
,
1000
0100
0000
0010
0001
0100
0010
1000
,
0001
0100
0000
0100
1000
0010
0100
0001
,
1000
0010
0000
0010
0001
0100
0010
0000
,
2002
3003
0100
0010
,
1000
0100
0000
0100
0001
1000
0100
0010
,
0001
0100
0010
0202
,
0303
2020
3030
1001
,
0220
0000
0330
0000
0001
0010
0100
1000
,
0100
0010
0001
0000
1000
0010
0100
0001
,
0100
0010
1000
0000
0001
0010
0100
1000
,
0010
0100
0001
0000
1000
0100
0010
0001
,
0100
0010
1000
0001
0010
0100
1000
0001
,
0100
0010
2002
0000
3003
0000
1000
0100
,
0001
0100
1000
0001
0010
1000
0010
0001
,
0100
0000
0000
0000
0000
0000
0000
0000
MMMM
0000
0000
0000
0000
0000
0000
0000
0202
0000
0303
0000
0000
0000
0001
0000
0010
0100
0001
0100
0010
0100
1000
0100
,
0000
0000
0000
0000
0000
0000
0000
0000
0000
0000
0000
0000
0010
0000
0000
1000
0000
0000
0010
0000
0000
0100
0000
0000
0010
0000
0000
0001
0000
0000
0010
0000
0000
0100
0000
0000
1000
0000
0100
0000
1000
0000
0100
0000
0000
0000
0000
0000
2200
0000
0000
0000
0000
0000
3300
0000
0000
0000
0000
0000
0000
0000
0000
0000
0000
0000
1000
0000
0000
0000
0000
0000
0010
0000
0000
0100
0000
0000
0001
0000
0000
0100
0000
0000
0010
0000
0000
0100
0000
0000
1000
0000
0000
0100
0000
0000
,
0010
0100
0001
0100
0000
0001
0010
0000
0110
0000
0100
0000
1000
0000
0001
0000
0022
0000
0033
0000
0001
0100
0001
0010
0000
0000
0000
0000
0100
1000
0100
0010
,
0001
0000
0000
1000
0000
0000
0010
0000
0000
0100
0000
0000
0010
0000
1000
0000
0010
0000
1000
0000
0000
0000
0000
0000
2020
0000
0000
0000
0000
0000
3030
0000
0000
0000
0000
0000
0000
0000
0000
0000
0000
0000
1000
0000
0000
0000
0000
0000
1100
0000
0000
0000
0000
0000
0001
0000
0000
0000
0000
0000
0101
0000
0000
0000
0000
0000
1002
0000
0000
0000
0000
0000
0000
0000
0000
0000
0000
0000
0103
0000
0000
0010
0000
0000
1000
0000
0000
0010
0000
0000
0100
0000
0000
0001
0000
0000
,
0100
0010
0001
0010
0100
1000
0100
0010
0000
0000
0000
0000
0000
0000
0000
0000
2020
0000
3030
0000
1000
0100
0001
0100
0000
0000
0000
0000
1000
0010
0001
0010
,
1000
0000
0000
0100
0000
0000
0010
0000
0000
0001
0000
0000
1000
0000
0001
0000
1000
0000
0001
0000
0000
0000
0000
0000
0022
0000
0000
0000
0000
0000
0033
0000
0000
0000
0000
0000
0000
0000
0000
0000
0000
0000
0010
0000
0000
0000
0000
0000
0001
0000
0000
0100
0000
0000
1000
0000
0000
0100
0000
0000
0001
0000
0000
1000
0000
0000
0100
0000
0000
0001
0000
0000
0100
0000
0000
1000
0000
0000
0010
0000
0000
0100
0000
0000
0001
0000
0000
0000
0000
0000
0010
0000
0000
0000
0000
0000
,
0110
0000
0100
0000
1000
0000
0001
0000
0000
0010
0000
1000
0000
0001
0100
1000
0002
0000
0003
0000
0001
0100
1000
0100
0000
0000
0000
0000
0001
0010
1000
0010
,
0001
0000
0000
0100
0000
0000
0010
0000
0000
1000
0000
0000
0001
0000
1000
0000
0001
0000
1000
0000
0000
0000
0000
0000
2200
0000
0000
0000
0000
0000
3300
0000
0000
0000
0000
0000
1000
0000
0000
0000
0000
0000
0010
0000
0000
0000
0000
0000
0110
0000
0000
0000
0000
0000
0100
0000
0000
0000
0000
0000
1001
0000
0000
0000
0000
0000
2000
0000
0000
0000
0000
0000
0000
0000
0000
0000
0000
0000
3100
0000
0000
0010
0000
0000
0001
0000
0000
0010
0000
0000
0100
0000
0000
1000
0000
0000
,
0100
0010
1000
0010
0100
0001
0100
0010
0002
0000
0000
0000
0000
0000
0000
0000
0103
0000
0000
0000
2010
0000
0000
0000
0100
0000
0000
0000
3001
0000
0000
0000
,
0010
0001
0100
0010
1000
0000
1100
0000
1001
0000
0000
1010
0000
0000
0201
0000
,
0000
0000
0310
0000
1000
0100
0000
0100
0001
0000
0001
0010
0100
1000
0010
0100
,
0001
0000
0100
0010
1000
0000
1100
0000
0010
0000
0011
0000
2002
0000
0000
0000
,
3003
0000
2010
0000
3100
0012
0100
1003
,
0010
1000
0100
0010
0001
0000
0101
0000
1001
0000
0000
0011
0000
0000
1200
0000
,
0000
0000
0310
0000
0001
0100
0000
0100
1000
0000
1000
0010
0100
0001
0010
0100
,
1000
2002
0000
0000
0000
0000
0000
0000
,
3003
0000
0000
0000
0001
0100
0000
0020
0000
0000
0000
0000
0000
0000
0000
0000
,
0000
0000
0000
0000
1030
0100
0000
0020
0000
0000
0000
0000
0000
0000
0000
0000
,
0000
1000
0000
0000
0031
0100
0001
0020
0000
0030
0000
0000
0000
0000
0000
0000
,
0000
0000
0000
0100
0200
0000
0000
2300
0000
0000
3002
0000
0000
0000
0000
1003
,
0001
0010
0100
1000
1001
0000
0100
0000
0010
0000
0100
0000
0002
0000
0010
0000
,
2003
0100
3001
0010
0100
0010
0002
0100
,
1003
0010
0110
1000
0001
1000
0200
0001
,
0320
1000
0130
1000
0001
0010
0200
2000
,
3300
1010
0011
1010
,
0011
1100
0101
0110
,
1001
0000
0001
0100
1000
0010
0001
0010
,
1000
0100
0002
0000
0000
0000
0000
0000
,
1003
2002
3000
0013
,
0001
0000
1000
0100
0000
0010
0001
0010
,
0100
1000
0001
0100
0001
0010
0000
0100
,
1000
0001
1000
0100
0000
0010
0001
0100
,
0010
1000
2020
0000
3030
0001
0000
1000
,
0100
0010
0001
0100
0010
1000
0000
0010
,
0100
0001
1000
0100
0010
0001
0000
1000
,
0100
0010
2002
0000
3003
0000
0022
0000
,
0033
0000
0010
0001
0100
1000
0000
1000
,
0010
0100
0010
1000
0001
0010
0000
0010
,
1000
0100
0010
0001
0100
0010
0000
0010
,
0001
0100
0010
1000
0001
0100
0000
0100
,
1000
0010
0100
0001
1000
0100
0010
0001
,
0100
0010
1000
0001
0010
0100
1000
0100
,
0010
0001
2100
0000
0000
0000
3010
0000
,
0102
0000
1003
MMMM
,
1000
0100
0010
0100
1000
0000
0010
0000
,
0100
0001
1000
0100
0000
0100
0001
0010
,
0100
1000
0001
0100
0001
0000
1000
0000
,
0010
1000
0100
0001
0000
0001
0010
0100
,
1000
0010
0100
0001
0010
0000
0100
0000
,
0010
0001
1000
0010
0000
0010
0001
1000
,
0010
0100
0001
1000
0100
0000
0010
0000
,
2200
3300
0022
0033
,
MMMM
0000
1000
0010
0100
0001
1000
0100
,
0010
0100
1000
0100
0001
0100
1000
0001
,
0010
0001
1000
0010
0100
0001
1000
0010
,
0001
0010
1000
0001
0010
0100
1001
0000
,
0000
1100
0000
0000
0011
0000
0000
0101
,
0000
0000
1010
0000
0110
0000
0000
0101
,
0000
0000
1001
0000
0000
0110
0000
1000
,
0001
0010
0100
1000
0010
0000
1001
0000
,
0100
0000
1001
0000
1000
0100
0010
0001
,
0010
0000
MMMM
0000
1000
0100
0001
0100
,
1000
0000
MMMM
0000
1000
0010
0001
0010
,
1000
MMMM
1000
1001
,
0010
0000
1001
0000
0001
0100
0010
1000
,
0010
0000
MMMM
0000
0001
0100
1000
0100
,
0001
0000
MMMM
0000
0001
0010
1000
0010
,
0001
MMMM
0001
1001
,
0100
0000
1001
0000
1000
0100
0010
0001
,
0100
0000
MMMM
0000
1000
0100
0100
0001
,
1000
0000
MMMM
0000
1000
0010
0010
0001
,
1000
0000
MMMM
0000
1000
0000
0010
1000
,
0100
0000
0100
0001
0010
0000
0100
1000
,
0010
0000
0010
0001
0100
0000
0001
0010
,
0100
0001
1000
0010
0100
1000
0010
0100
,
1000
0001
0010
0100
0001
0010
2100
0000
,
3010
0000
0102
0000
0000
0000
0013
1000
0010
0001
1000
0010
0001
0000
0011
0000
,
1010
0000
1000
0100
0000
0001
0200
0000
0000
0000
0310
0000
0011
0000
0001
0010
,
0000
1000
0010
0000
0001
0100
0010
0100
0001
0010
0100
1000
0100
0000
1100
0000
,
0001
0000
0011
0000
2001
0000
0000
0000
3001
0100
0010
1000
0102
0000
0000
0000
,
0013
0000
2100
0000
0000
0000
3010
0001
0010
1000
0001
0010
1000
0000
1010
0000
,
0011
0000
0001
0100
0000
1000
0100
0000
0010
0000
1000
0000
0001
0010
1000
0001
,
0100
1000
0001
0100
1000
0001
0010
1000
0001
0000
0220
0000
0000
0000
0000
0000
,
0000
0000
0330
0000
;

//---------------dance-double - Talkion-BDP----------------
#NOTES:
     dance-double:
     Talkion:
     Easy:
     11:
     :
00000000
00000000
00000000
00000000
,
00000000
00000000
00000000
00000000
,
00000000
00000000
00000000
00000000
,
00000000
00000000
00000000
00000000
,
00000000
00000000
00000000
00000000
,
00011000
00000000
00000000
01001000
00000000
00000000
00000000
00000000
,
00000000
00000000
01000000
00000000
00100000
00000000
00000000
00100000
00000000
00000000
10000000
00000000
00000000
00000000
00000000
00000000
,
00010000
00000000
00000000
00010000
00000000
00000000
01000000
00000000
00000000
00000000
00000000
00000000
00001000
00000000
00020000
00000000
,
00000000
00000000
00000000
00000000
,
00030100
00000000
00000000
00000000
00000010
00000001
00000010
00000001
,
00001000
00000000
00000000
00000000
00000100
00010000
00001000
00000000
,
00010000
00000000
00000000
00000000
00001000
01000000
00001000
01000000
,
00010000
00000000
00020000
10030000
,
00100000
01000000
00010000
00002000
,
00003020
00000230
00000302
00001003
,
00000100
00000000
00000100
00000000
,
00010000
00010000
00001000
01001000
,
00000000
01000000
00100000
01000000
,
00000000
01000000
00000000
00000000
00000000
00000000
00001000
00000000
,
00000000
00001000
00000000
00000000
00000000
00000000
00010000
00000000
,
00000000
00010000
00000000
00000000
00000000
00000000
00010010
00000000
,
00000000
00000010
00000100
00000010
,
00000000
00000010
00000000
00000000
00000000
00000000
00001000
00000000
,
00000001
00001000
00000000
00000100
,
00000000
00010000
00000000
00011000
,
00000000
00001000
01000000
00001000
,
00000000
01000000
00100000
00000000
,
10000000
00000000
10000000
10000000
,
00000000
00010000
00000000
00000000
01000000
00000000
01001000
00000000
,
00000000
00001000
00010000
00001000
,
00000000
00001000
00000000
00000000
00100000
00000000
01000000
00000000
,
00000000
00100000
00000000
00000000
00002000
00000000
00000000
00000000
,
00000000
00013000
00000000
00000000
,
00000000
00000000
00011000
00000000
,
00010000
00000000
00000000
00010000
00000000
00000000
00000000
00000000
,
00000100
00000000
00000000
00000100
00000000
00000000
00000000
00000000
,
00000110
00000000
00000010
00000001
,
00000010
00000000
00000000
00000010
00000000
00000000
00000000
00000000
,
00000100
00010000
00000100
00001000
,
00000000
00000020
00000000
00000030
,
00010010
00000000
00010000
00001000
,
00010000
00000000
00001000
00100000
,
00000000
00000000
00100000
00000000
00100000
00000000
00000000
00010000
,
00000000
00000000
10010000
00000000
,
10000000
00000000
00100000
00000000
,
01000000
00002000
00000000
00000000
,
00000000
00000000
00000000
00000000
,
00013000
00000000
00000000
00000000
00011000
00000000
00000010
00001001
,
00000000
00000000
00000010
00000000
00011000
00000000
00000000
00000000
00011000
00000000
00000000
00000000
00001000
00001000
01000000
00000000
,
00000000
00000000
00100000
00000000
10010000
00000000
10000000
00010000
00100000
00000000
00011000
00000000
00000000
00000000
00000010
00000000
,
00001001
00000000
00000000
00000000
00000110
00000000
00000000
00000000
00000001
00000100
00000100
00000020
00000000
00000000
00010000
00000000
,
00001000
00000000
00010000
00000030
00000000
00000000
00000000
00000000
00011000
00000000
01000000
00000000
00000000
00000000
01000000
00000000
,
01100000
00000000
00011000
00000000
00000100
00001001
00000000
00000100
,
00011000
00000000
00010000
00001000
00000000
00000000
00000000
00000000
01100000
00000000
10000000
00000000
00000000
00000000
00010000
00000000
,
01100000
00000000
00000000
00000000
00002000
00000000
00000000
00013000
00010000
00000000
00000100
00000020
00000000
00000000
00000000
00000000
,
00000000
00000000
00000031
00000000
00001000
00000100
00000010
00000000
,
00000000
00001000
00000000
00001000
00010000
00000000
00001000
01000000
,
00000000
00000000
00000000
00000000
00010000
00000000
00000000
00010000
00000000
00000000
00010000
00000000
10000000
00000000
01000000
00000000
,
10000000
00000000
00010000
01000000
00000000
01000000
00001000
00000000
,
00000000
00000000
00011000
00000000
00010000
01000000
00100000
00000000
,
00000000
00001000
00000000
00001000
00010000
00000000
00000010
00000100
,
00000000
00000000
00000000
00000000
00000001
00000000
00000000
00000001
00000000
00000000
00000001
00000000
00001000
00000000
00000100
00000000
,
00010000
00002000
00000000
00000000
00000000
00000000
00000000
00000000
,
00000000
02003000
00000000
00000000
,
00000000
03200000
00000000
00000000
,
00000000
20300000
00000000
00000000
,
00000000
30020000
00000000
00000000
,
00000000
00000000
00130000
00000000
00000000
00000000
00001000
00010000
,
00001000
00010000
00000010
00000000
00000000
00000000
00000100
00000001
,
00000100
00000001
00001000
00000000
00000000
00000000
00000100
00010000
,
00000100
00010000
00001000
00000000
00000000
00000000
01000000
00010000
,
00000000
10000000
11000000
00010000
,
01010000
00001000
00011000
01000000
,
01100000
00000000
00001000
00010000
00001000
00010000
00001000
00010000
,
00001000
00010000
00000100
00000000
00000000
00000000
00000100
00000000
,
00001000
00001001
00000000
00000001
,
00000000
00000000
00000100
00000000
00000000
00000100
00000000
00000000
,
00000010
00010000
00001000
01000000
,
00000000
00000000
00100000
00000000
00000000
00100000
00000000
00000000
,
10000000
00010000
00000000
10000000
,
00000000
00000000
01000000
00000000
00000000
01000000
00000000
00000000
,
10000000
00010000
01000000
00001000
,
00000000
00010000
00000000
00000010
,
00000000
00000100
00000010
00001000
,
00000000
00000010
00001000
00000100
,
00000000
00010000
00001000
01000000
,
00000000
00001000
00010000
00001000
,
00000000
01000000
00100000
10000000
,
00000000
00100000
10000000
01000000
,
00000000
00100000
00000000
00001000
,
00020000
00000000
00000000
00030100
,
00011000
00000000
00010000
00000000
,
00001000
00000000
00000000
00001000
00000000
00000000
00100000
00000000
,
00001000
00010000
00000100
00000000
,
00000010
00000000
00000000
00000010
00000000
00000000
00000001
00000000
,
00001000
00000000
00000001
00000000
,
00000100
00000000
00000000
00000100
00000000
00000000
00000001
00000000
,
00001000
00000100
00010000
00000000
,
00001000
00000000
01000000
00000000
,
00000000
00100000
10000000
00010000
,
10000000
01000000
00000000
00100000
,
00010000
01000000
00000000
00001000
,
00010000
00000100
00000000
00000010
,
00000000
00000010
00000000
00000000
00000010
00000000
00000000
00000010
,
00000000
00000000
00000001
00000000
00001000
00000000
00000000
00001000
,
00000000
00000000
00001000
00000000
00000000
00001000
00000000
00000000
,
00000100
00020000
00000000
00032000
,
00000000
01000000
00000000
00023000
,
00000000
00000100
00000000
00032000
,
00000000
01000000
00000000
00010000
,
00000000
00100000
00000000
00023000
,
00000000
00000010
00000000
00032000
,
00000000
00100000
00000000
00023000
,
00000000
00000010
00000000
00001000
,
00000000
00000100
00000000
00032000
,
00000000
01000000
00000000
00203000
,
00000000
01000000
00000000
00302000
,
00000000
01000000
00000000
00010000
,
00000000
00100000
00000000
00023000
,
00000000
00000010
00000000
00030200
,
00000000
00000010
00000000
00020300
,
00000000
00000010
00000000
00001000
,
00000000
00000100
00000000
00031000
,
00000000
01001000
00000000
00000000
00000000
00000000
00000000
01000000
,
00100000
00000000
00000000
00100000
00000000
00000000
10000000
00000000
00000000
00000000
00000000
00000000
00010000
00000000
00000000
00010000
,
00000000
01000000
00000000
00001000
00010000
00001000
00000000
00000010
,
00000000
00000010
00002000
00000000
00003000
00000000
00011000
00000000
,
00000000
00010100
00000000
00000000
00000000
00000000
00000000
00000100
,
00000010
00000000
00000000
00000010
00000000
00000000
00000001
00000000
00000000
00000000
00000000
00000000
00001000
00000000
00000000
00001000
,
00000000
00000100
00000000
00000000
00010000
00002000
00000000
00000000
,
00000000
00000000
00003000
00000000
;

//---------------dance-double - Talkion-DDP----------------
#NOTES:
     dance-double:
     Talkion:
     Medium:
     14:
     :
00000000
00000000
00000000
00000000
,
00000000
00000000
00000000
00000000
,
00000000
00000000
00000000
00000000
,
00000000
00000000
00000000
00000000
,
00000000
00000000
00000000
00000000
,
00000012
00000000
00000000
00000000
00001003
00000000
00001020
00000000
00000000
00000000
00000030
00010000
00000000
00010000
00000000
00000000
,
00001000
00000000
00001000
00000000
01000000
00000000
00000000
01000000
00000000
00000000
00100000
00000000
00000000
00000000
10000000
00000000
,
00010000
00000000
00000000
00010000
00000000
00000000
00100000
00000000
00000000
00000000
00001000
00000000
00010000
00000000
00000200
00000000
,
00000000
00000000
00000000
00000000
,
00000310
00000000
00001000
00000000
00010000
00001000
00010000
00001000
,
01000000
00000000
00100000
00000000
10000000
00100000
00020000
00000000
,
00130000
00000000
00010000
00000000
00001000
00010000
00001000
00010000
,
00000100
00000010
00000020
00000031
,
00001000
00000000
00010000
00000000
10000000
00000000
00010000
01000000
,
00001000
00100000
00001000
01000000
00001000
00100000
00001000
00000000
,
00001000
00010000
00010000
00000100
,
00000010
00000001
00001001
00010100
,
00000000
00000000
00010000
00000000
00000000
00000000
00000000
00001000
,
00000000
00001000
00000000
00000000
01000000
00000000
00000000
00010000
,
00000000
00010000
00000000
00000000
00000100
00000000
00000000
00001000
,
00000000
00001000
00000000
00000000
01000000
00000000
01001000
00000000
,
00000000
00000000
00001000
00000000
00010000
00000000
00000000
00000100
,
00000000
00000100
00000000
00000000
00000010
00000000
00000001
00000000
,
00001000
00000001
00000100
00000020
,
00000030
00020000
00030000
00011000
,
00000000
00001000
01000000
00200000
,
00000000
00301000
00000010
00000100
,
00000010
00000000
00001000
00000000
00000010
00000000
00000000
00000100
,
00000000
00000100
00000000
00000000
00000001
00000000
00001001
00000000
,
00000000
00000000
00001000
00000000
00000100
00000000
00000000
00000010
,
00000000
00000010
00000000
00000000
00001000
00000000
00010000
00000000
,
00000000
01000000
00000000
00000000
21000000
00000000
00000000
00000000
,
00000000
00010000
00000000
30000000
,
00000000
00000000
00011000
00000000
,
00000000
00001000
00000000
00001000
00000000
00000000
00000010
00000000
,
00000000
00010000
00000000
00010000
00000000
00000000
00100000
00000000
,
00101000
00000000
00001000
00010000
,
00000000
00000010
00000000
00000010
00000000
00000000
00000100
00000000
,
00000010
00010000
00001000
02000000
,
03000000
00200000
01300000
00100000
,
01001000
00000000
00001000
00010000
,
02000000
00000000
03001000
00000100
,
00000010
00000100
00001000
00000100
,
00000010
00000000
00000011
00000000
,
00000001
00000000
00001000
00000100
,
00010000
00021000
00000000
00000000
,
00000000
00000000
00000000
00000000
,
01030000
00000000
00000000
00000000
00000000
00000000
00000000
00000000
10010000
00000000
00000000
10000000
02000000
00000000
03002000
00000000
,
00003000
00000000
00000002
00000000
00002003
00000000
00003000
00000000
00001010
00000000
00000000
00000000
00000020
00010000
00020030
00000000
,
00000000
00000000
00030000
00001000
00010000
00000000
00001000
00000000
01000000
00000000
00200000
00000000
10300000
00000000
00010000
00000000
10010000
00000000
00000000
00000000
20000000
00000000
00000000
00000000
30010000
00000000
00000000
00000000
00002000
00000000
00000000
00000000
,
00003002
00000000
00000103
00000000
00000010
00000000
00020000
00030000
00001000
00000010
00000010
00000002
00000000
00000103
00000001
00000100
,
00000010
00010000
00001000
01000000
00000000
00000000
00000000
00000000
10010000
00000000
20000000
00000000
30010000
00000000
00002000
00000000
,
00003002
00000000
00000013
00000000
00000011
00000000
00000002
00000003
00002000
00000000
00003200
00000000
00020300
00000000
01030000
01000000
,
00010000
00001000
00000100
00000010
00000000
00000000
00000000
00000000
00001001
00000000
00000002
00000000
00001003
00000000
00020000
00000000
,
20030000
00000000
00000000
00000000
31000000
00000000
00000000
00000000
00100000
00000000
00000000
00100000
00000000
00000000
00001000
00000000
00010000
00000000
00000010
00000000
00000100
00000000
00000002
00000000
00000000
00000000
00000000
00000000
00000000
00000000
00000000
00000000
,
00000000
00000000
00000000
00000000
00001003
00000000
00000000
00000000
00000100
00000000
00010000
00000000
00000010
00000000
00000000
00000010
,
00000000
00000000
00000010
00000000
00010000
00000000
00001000
00000000
01000000
00000000
00000000
01000000
00000000
00000000
02000000
00000000
,
00000000
00000000
03100000
00000000
10000000
00000000
00000000
00010000
00000000
00000000
00010000
00000000
20000000
00000000
01000000
00000000
,
30010000
10000000
00100000
00010000
00010000
00001000
00002000
00000000
,
00003000
00000000
00000000
00000000
00010000
00000000
00000000
00000000
00000100
00000000
00010000
00000000
00000010
00000000
00000000
00000010
,
00000000
00000000
00000010
00000000
00010000
00000000
00001000
00000000
01000000
00000000
00000000
01000000
00000000
00000000
01000000
00000000
,
00000000
00000000
00100000
00000000
10000000
00000000
00000000
10000000
00000000
00000000
00010000
00000000
00100000
00000000
01000000
00000000
,
00010000
00002000
00000000
00000000
00000000
00000000
00000000
00000000
,
00000000
00000000
00000000
00000000
00003010
00000000
00000000
00000002
00000000
00000000
00000000
00000000
00000000
00000000
00000000
00000000
,
00000000
00000000
00000000
00000000
00000013
00000000
00000000
00002000
00000000
00000000
00000000
00000000
00000000
00000000
00000000
00000000
,
00000000
00000010
00000000
00000000
00013000
00000000
00000000
00020000
00000000
00000000
00000000
00000000
00000000
00000000
00000000
00000000
,
00000000
00000000
00000000
00000000
02030000
00000000
00000000
23000000
00000000
00000000
30020000
00000000
00000000
00000000
00000000
00000000
,
01000000
00000000
10030000
00000000
00010000
00000000
10000000
00100000
,
00010000
00000000
00000010
00000000
00000100
00000000
00000010
00001000
,
00000100
00000000
00000001
00000000
00001000
00000000
00000001
00000100
,
00001000
00000000
00010000
00000000
10000000
00000000
00100000
02000000
,
00000000
03001000
00000100
00010000
,
01000000
00001000
00000100
00010000
,
01000000
00000000
00001000
00010000
00000010
00010000
00000100
00010000
,
00000010
00010000
00001000
00000000
00100000
00001000
00010000
00000000
,
00010010
00001001
00000000
00000001
,
00000100
00001000
00010000
00001000
,
00000010
00001000
00010000
00100000
,
00010000
00001000
00010000
01000000
,
10000000
10010000
00000000
00010000
,
01000000
10000000
00010000
00100000
,
01000000
00001000
00010000
00000010
,
00000100
00000002
00000003
00002000
,
00003000
00000001
00000100
00001000
,
00000000
00000100
00001000
00010000
,
00000000
00001000
00010000
01000000
,
00000000
00010000
01000000
10000000
,
00000000
00010000
10000000
00100000
,
00010000
00001000
00100000
00010000
,
00001000
00000010
00000000
00000100
,
00000102
00000000
00000000
00001003
,
00001001
00000000
00000001
00000010
,
00001000
00010000
00001000
00000100
,
00001000
00010000
01000000
00010000
,
00001000
00010000
00100000
10000000
,
10010000
00000000
00010000
00100000
,
10000000
00010000
01000000
00100000
,
00001000
00010000
00000100
00000010
,
00000002
00000003
00002000
00003000
,
00000000
00000000
00000000
00010000
,
00100000
01000000
00000000
10000000
,
00100000
00010000
00000000
00001000
,
00000010
00000001
00000000
00001000
,
00000000
00001000
00000000
00000000
00000100
00000000
00000000
00000100
,
00000000
00000000
00010000
00000000
00001000
00000000
00000000
00001000
,
00000000
00000000
01000000
00000000
00000000
01000000
00000000
00000000
,
00020000
00000000
00000000
10030000
,
00010000
00100000
02000000
00000000
,
00000000
00010000
00000000
10000000
,
00000000
00100000
00000000
00001000
,
00000000
03010000
00000000
00001000
,
00010000
00000010
00000200
00000000
,
00000000
00001000
00000000
00000001
,
00000000
00000010
00000000
00010000
,
00000000
00001300
00000000
00010000
,
00001000
00100000
02000000
00000000
,
00000000
00010000
00000000
10000000
,
00000000
00100000
00000000
00001000
,
00000000
03010000
00000000
00001000
,
00010000
00000010
00000100
00000000
,
00000100
00000002
00000000
00001000
,
00000000
00000013
00000100
00010000
,
00001000
00100000
01000000
20000000
,
30010000
00000000
00210000
00000000
00000000
00000000
00300000
00001000
00000000
00001000
00000000
00000000
00010000
00000000
00010000
00000000
,
00000100
00000000
00000000
00000100
00000000
00000000
00000010
00000000
00000000
00000000
00000001
00000000
00001000
00000000
00000000
00001000
,
00000000
00000010
00000000
00010000
00001000
01000000
00000000
00001000
,
00000000
00001000
00020000
00000000
00030100
00000010
00000002
00000000
,
00001003
00000000
00001020
00000000
00000000
00000000
00000030
00010000
00000000
00010000
00000000
00000000
00001000
00000000
00001000
00000000
,
01000000
00000000
00000000
01000000
00000000
00000000
00100000
00000000
00000000
00000000
10000000
00000000
00100000
00000000
00010000
00000000
,
00001000
00000010
00000001
00000100
00000010
00020000
00000000
00000000
,
00000000
00000000
00030000
00000000
;

//---------------dance-double - Talkion-EDP----------------
#NOTES:
     dance-double:
     Talkion:
     Hard:
     17:
     :
00000000
00000000
00000000
00000000
,
00000000
00000000
00000000
00000000
,
00000000
00000000
00000000
00000000
,
00000000
00000000
00000000
00000000
,
00000000
00000000
00000000
00000000
,
21000000
00000000
00000000
00000000
30010000
00000000
02010000
00000000
00000000
00000000
03000000
00001000
00000000
00010000
00001000
00010000
,
00000010
00000000
00001000
00000000
00001001
00000000
00000000
00000011
00000000
00000000
00001001
00000000
00001000
00000000
00000010
00000000
,
00010000
00001000
00000000
00001000
00000000
00000000
00100000
00000000
00010000
00100000
01000000
10000000
00010000
00000000
20010000
00000000
,
00000000
00000000
00000000
00000000
,
30100000
00000000
01000000
00000000
00001000
00001000
00010000
00000100
,
00000110
00000000
00000010
00000000
00000001
00000001
00002000
00003000
,
00010100
00000000
00000100
00000000
00010000
00010000
00001000
01000000
,
01100000
00000000
00100000
00000000
20000000
30000000
10010000
00000000
,
00100000
00000000
00011000
00000000
00000010
00000000
00010000
00001000
,
00000010
00000001
00001000
00000010
00000001
00000010
00001000
00001000
,
00000100
00000000
00010000
00001000
01000000
00000000
00010000
00010000
,
01000000
00001000
00010000
00000000
00010010
00000000
00001001
00000000
,
00000000
00000000
00001000
00000000
00000100
00000000
00000010
00000100
,
00000000
00000200
00000000
00000000
00010300
00000000
00001000
01000000
,
00000000
02000000
00000000
00000000
03100000
00000000
01000000
00010000
,
00000000
00010000
10000000
00000000
00010000
00000000
00110000
00000000
,
00000000
00000000
00200000
00000000
00301000
00000000
00010000
00000010
,
00000000
00000010
00000000
00000200
00000000
00000000
00000301
00000000
,
00000100
00000000
00000010
00010000
00000010
00010000
00001000
00000000
,
00000000
01001000
00000000
10010000
,
00000000
00000000
00010000
00000000
10000000
00000000
00010000
00100000
,
00010000
00100000
01000000
00000000
00010000
00000000
00001000
00000000
,
01000000
00000000
00001000
00000000
00010000
00000000
00000010
00000100
,
00000000
00000100
00000001
00000000
00001000
00000000
00001100
00000000
,
00000000
00000000
00000200
00000000
00010300
00000000
00001000
01000000
,
00000000
01000000
00000000
00200000
00000000
00000000
10300000
00000000
,
00000000
01001000
00000000
00000000
00210000
00000000
00000000
00000000
,
00000000
01000000
00000000
00300000
,
00000000
00100000
00011000
00000000
,
00010000
00000010
00000000
00000020
00000000
00000000
00000130
00000000
,
00000010
00001000
00000000
00001000
00000001
00000000
00001000
00000000
,
00001100
00000000
00000100
00010000
,
00001000
01000000
00000000
01000000
00000000
00200000
00000000
00000000
,
10300000
00100000
01000000
02002000
,
03003000
00010010
00000010
00000100
,
00000101
00000000
00000002
00001003
,
00000100
00010000
00000100
00010000
00001000
00000000
00100000
00000000
,
01000000
00100000
00001000
00010000
,
00000100
00000010
00000011
00000000
,
00000001
00000010
00001000
00000010
,
00000100
00000000
00020100
00000000
00000000
00000000
00031000
00010000
,
00001000
00010000
00001000
00010000
00001000
00010000
00001000
00010000
,
00000010
00000000
00000000
00000000
00000000
00000000
00000000
00000000
00001001
00000000
00000000
00000000
00001000
00000100
00000010
00000010
,
00000000
00000000
00010000
01000000
00100000
00100000
00000000
00000000
10010000
00000000
00000000
00000000
00010000
00010000
01000000
00200000
,
00000000
00000000
00000000
01300000
00001000
00000000
00001000
00000000
00010000
00000000
00000010
00001000
00000010
00000000
00010000
00000000
00011000
00000000
00000000
00000000
00001000
00000000
00000010
00000000
00000000
00000000
00000000
00000000
00010000
00000000
00100000
00000000
,
00100000
00000000
00001000
00000000
00000000
00000000
00000000
00000000
00011000
00000000
00000000
00000000
00020000
00000000
00030000
00000000
01000000
00000000
00100000
00000000
00001000
00000000
00002000
00000000
00000000
00000000
00013000
00001000
00010000
00000000
00000010
00001000
,
00000010
00000100
00000001
00001000
00000000
00000000
00000000
00000000
00001001
00000000
00000001
00000010
00000000
00000000
00010000
00100000
,
00100000
00001000
00000000
00000000
00011000
00000000
00020000
00030000
00000010
00000100
00000001
00000100
00001000
00001000
00010000
00100000
,
20000000
00000000
30010000
00010000
00000000
00000000
00000000
00000000
10010000
00000000
10000000
00100000
00000000
00000000
00001000
00001000
,
00000010
00000000
00010000
00000000
00000000
00000000
00000000
00000000
00000100
00001000
00000100
00000000
00000000
00000000
00001000
00000000
00000001
00000000
00000100
00000001
00000100
00000000
00000020
00000000
00000000
00000000
00010030
00001000
00010000
00000000
00001000
00000000
,
01000000
00100000
10000000
01000000
00200000
00000000
00000000
00000000
00301000
00000000
00010000
00000000
00000010
00000000
00000000
00000010
,
00000000
00000100
00000010
00001000
00000001
00000000
00000010
00000000
00000010
00000000
00000000
00000001
00001000
00000000
00000200
00000000
,
00000000
00000000
00010300
00000000
00001000
00010000
00001000
01000000
00000000
01000000
00100000
00000000
10000000
00000000
00010000
00100000
,
00010000
00000000
10000000
00100000
01000000
00000000
00001000
00000000
00010000
00000000
00001000
00000000
02000000
00000000
00000000
00000000
,
03100000
00000000
00000000
00000000
00020000
00000000
00000000
00000000
00031000
00000000
00010000
00000000
00000100
00000000
00000000
00000100
,
00000000
00000010
00000100
00001000
00000001
00000000
00000100
00000000
00000100
00000000
00000000
00000001
00001000
00000000
00000200
00000000
,
00000000
00010000
00000000
00000000
00001300
00000000
00000000
00001000
00000000
00000000
00000010
00000000
00010000
00000000
00001000
01000000
,
00010000
01000000
00002000
00000000
00000000
00000000
00000000
00000000
00000000
00000000
00000000
00000000
00000000
00000000
00000000
00000000
,
00000000
00000000
00000000
00000000
00013000
00000100
00000000
00000020
00000000
00000000
00000000
00000000
00000000
00000000
00000000
00000000
,
00000000
00000000
00000000
00000000
00000031
00001000
00000000
00000200
00000000
00000000
00000000
00000000
00000000
00000000
00000000
00000000
,
00000000
00000010
00000000
00000000
00020300
00000000
00000000
00001000
00000000
00000000
00000000
00000000
00000000
00000000
00000000
00000000
,
00000000
00000000
00030000
01000000
00020000
00000000
00000000
00001000
00000000
00000000
00230000
00000000
00000000
00000000
00000000
00000000
,
10300000
00100000
01000000
00001000
01001000
00000000
00000000
00000000
00010000
00000000
00000000
00000000
00000100
00000000
00000010
00000000
,
00001000
00010000
00011000
00000000
00001000
00000000
01000000
00100000
,
00010000
00001000
00011000
00000000
00010000
00000000
00000100
00000010
,
00001000
00010000
00011000
00000000
00001000
00000000
01000000
00200000
,
00000000
10300000
10010000
00100000
,
00011000
00000000
00000010
00000000
00011000
00000000
00010000
00010000
,
00000010
00000000
00000001
00000010
00001000
00000001
00000010
00001000
,
00010000
00010000
00000100
00000000
00010000
00001000
01000000
00000000
,
01001000
00000000
10010000
00000000
00000000
00000000
10000000
01000000
,
00100000
00000000
10000000
00100000
00000000
01000000
00000000
00010000
,
00001000
00000000
00010000
00000000
00000100
00000010
00000000
00000010
,
00000001
00000000
00001000
00000010
00000000
00000010
00000000
00000100
,
00000001
00000000
00001001
00000000
00000000
00000000
00000001
00000010
,
00000100
00000000
00000001
00000100
00000000
00000010
00000000
00001000
,
00010000
00000000
00001000
00000000
00100000
01000000
00000000
01000000
,
10000000
10010000
00000000
00101000
,
00000000
00000000
00010100
00000000
00000100
00000010
00000000
00000001
,
00000010
00000100
00000000
00001000
00000010
00000100
00000000
00000100
,
00001000
00000000
00010000
00000000
00001000
01000000
00000000
00010000
,
01000000
00100000
00000000
10000000
01000000
00100000
00000000
00100000
,
00001000
00000000
00011000
00000000
00010000
00000010
00000000
00001000
,
00000010
00000100
00000000
00000001
00000010
00000100
00000000
00000100
,
00010000
00011000
00000000
01000000
,
20010000
00000000
00000000
31000000
,
10010000
00000000
00000000
00000000
10000000
00100000
01000000
00000000
,
10000000
01000000
00000000
00100000
00000000
00010000
00001000
00000000
,
00010000
00000000
00000010
00000100
00000000
00000100
00000001
00000000
,
00001000
00000100
00000000
00000100
00000000
00000010
00000001
00000000
,
00001001
00000000
00000000
00000000
00000001
00000100
00000010
00000000
,
00000001
00000010
00000000
00000100
00000000
00001000
00010000
00000000
,
00001000
00000000
01000000
00100000
00000000
00100000
10000000
00000000
,
10010000
00000000
01100000
00000000
,
00000000
00000000
00001000
00010000
00000100
00000010
00000001
00001000
,
00000000
00001000
00000000
00000001
00000100
00000000
00000010
00000000
,
00010000
00001000
00000000
00100000
00010000
01000000
00000000
00100000
,
10000000
01000000
00000000
01000000
00100000
00000000
00001000
00000000
,
00000000
00001000
00000000
00000000
00010010
00000000
00000000
00011000
,
00000000
00000000
00010010
00000000
00000010
00000000
00000000
00000010
,
00000000
00000000
00000101
00000000
00000000
00001100
00000000
00000000
,
00000001
00000100
00000010
00001000
00000001
00000100
00000010
00000000
,
00010000
00001000
02000000
00100000
,
00000000
10000000
00000000
00010000
,
00000000
00100000
00000000
00001000
,
00000000
03010000
00000000
01000000
,
00001000
00010000
00000020
00000100
,
00000000
00000001
00000000
00001000
,
00000000
00010000
00000000
00000100
,
00000000
00001030
00000000
00000010
,
00010000
00001000
02000000
00100000
,
00000000
10000000
00000000
00010000
,
00000000
00100000
00000000
00001000
,
00000000
03010000
00000000
10000000
,
01000000
00010000
00002000
00000000
,
00003010
00000002
00000000
00001000
,
00000000
00000013
00000100
00010000
,
00001000
01000000
00100000
20100000
,
30010000
00000000
00210000
00000000
00000000
00000000
00300000
00001000
00000000
00010000
00001000
00010000
00000100
00000000
00001000
00000000
,
00001001
00000000
00000000
00000101
00000000
00000000
00001001
00000000
00000000
00000000
00001000
00000000
00000100
00010000
00000000
00010000
,
00000000
00000000
00001000
00000000
01000000
00100000
01000000
00100000
10000000
00000000
00010000
00000000
00000000
00000000
00101000
00000000
,
00000000
00000000
00010000
00000000
00010100
00000000
00000000
00000000
00001000
00000100
00000010
00000001
00000200
00000000
00000000
00000000
,
00000310
00000000
00001020
00000000
00000000
00000000
00000030
00010000
00000000
00001000
00010000
00001000
00100000
00000000
00010000
00000000
,
10010000
00000000
00000000
11000000
00000000
00000000
10010000
00000000
00000000
00000000
00010000
00000000
01000000
00001000
00010000
00001000
,
01000000
00000000
00001000
00010000
00000010
00001000
00000001
00000010
00000100
00000000
00020000
00000000
00000000
00000000
00000000
00000000
,
00000000
00000000
00030000
00000000
;

//---------------dance-double - Talkion-CDP----------------
#NOTES:
     dance-double:
     Talkion:
     Challenge:
     19:
     :
00000000
00000000
00000000
00000000
,
00000000
00000000
00000000
00000000
,
00000000
00000000
00000000
00000000
,
00000000
00000000
00000000
00000000
,
00000000
00000000
00000000
00000000
,
21000000
00000000
00000000
00000000
30010000
00000000
02010000
00000000
00000000
00000000
03000000
00001000
00000000
00010000
00001000
00010000
,
00000010
00001000
00000001
00000000
00000011
00000000
00000000
00000011
00000000
00000000
00001200
00000000
00010000
00000000
00001300
00000000
,
00000010
00010000
00001000
00010000
00000010
00001000
00000010
00010000
00001000
01000000
00001000
01000000
00010000
00000000
20010000
00000000
,
00000000
00000000
00000000
00000000
00000000
00000000
00000000
30000000
,
MMMMMMMM
00000000
00011000
00000000
00001000
00000010
00000001
00000100
,
MMMMMMMM
00000000
00011000
00000000
00010000
00100000
20000000
31000000
,
MMMMMMMM
00000000
00011000
00000000
00001000
00000010
00000001
00000100
,
MMMMMMMM
00000000
00000000
00000000
00000000
00000000
00010000
00000000
00000000
00001000
00010000
00001000
00020000
00000000
00000000
00000000
00000000
00000000
00031000
00000000
00000000
00000000
00000000
00000000
,
11000000
00000000
00000000
00000000
00011000
00000000
00000000
00000000
11000000
00000000
00000000
00000000
00010000
00000100
00010000
00000100
,
00001000
00000001
00001000
00000001
00000100
00000010
00000100
00000010
00010000
00001000
00010000
00001000
01000000
00000000
01000000
00000000
,
00100000
00000000
00000000
00100000
10000000
00000000
10000000
00000000
00010000
00000000
00000000
00000000
00100000
00000000
00001000
00000000
,
00010000
00000100
00001000
00000000
00001001
00000000
MMMMMMMM
00000000
,
00000000
00000000
00000001
00000000
00000100
00000000
00000010
00010000
,
00000000
0001MMMM
00000000
00100000
00001000
00010000
00000010
00010000
,
00000000
0001MMMM
00000000
00100000
00001000
00010000
00000010
00010000
,
00000000
0001MMMM
00000000
00100000
01000000
00000000
MMMMMMMM
00000000
,
00000000
00000000
01000000
10000000
00010000
00000000
00100000
00001000
,
00000000
MMMM1000
00000010
00010000
00001000
00010000
00001000
00000000
,
00000010
00000000
00000001
00000010
00000001
00000010
00002000
00000000
,
00000000
00000002
00003003
MMMMMMMM
,
00000000
00000000
00000010
00000001
00001000
00000000
00000001
00000100
,
00000001
00000100
00001000
00000000
00010000
00000000
00001000
00100000
,
00010000
00100000
00010000
00000000
10000000
01000000
00010000
00001000
,
00000000
MMMM1000
00000000
00000010
00000100
00000000
MMMMMMMM
00000000
,
00000000
00000000
00000100
00000001
00001000
00000000
00000100
00010000
,
00000000
0001MMMM
00000000
01000000
00100000
10000000
10100000
00000000
,
00000000
00110000
00000000
00000000
00021000
00000000
00000000
00000000
,
00000000
00030010
00000000
00000100
,
00000000
00000001
00000100
00000010
00010000
00000000
00001000
00010000
,
00000100
00010000
00000000
0001MMMM
00000000
01000000
00001000
00010000
,
00000100
00010000
00000000
0001MMMM
00000000
01000000
00100000
00000000
,
MMMMMMMM
00000000
00000000
00000000
00100000
10000000
00010000
00000000
,
01000000
00001000
00000000
MMMM1000
00000100
00010000
00001000
00010000
,
00001000
00000000
00000100
00000000
00000001
00000100
00000202
00000000
,
00000303
00010010
00001000
00010010
,
MMMMMMMM
00000000
00000010
00001000
,
00000001
00000010
00000001
00000010
00001000
00000000
00010000
00000000
,
00001000
01000000
00010000
01000000
00010000
10000000
01000000
10000000
,
00010000
00100000
00001000
00000000
MMMMMMMM
00000000
00000000
00000000
,
00001000
00010000
00000100
00000000
00001000
00000100
00000010
00000001
,
00000011
00000000
00001200
00000000
00000000
00000000
00010300
00001000
,
00010000
00001000
00010000
00001000
00010000
00001000
00010000
00001000
,
01000000
00000000
00000000
00000000
00000000
00000000
00000000
00000000
00000000
00000000
00000000
00000000
00000000
00000000
00000000
00000000
MMMMMMMM
00000000
00000000
00000000
00000000
00000000
01000000
00000000
00001000
00010000
00001000
00010000
00000010
00010000
00001000
00010000
,
00000020
00000000
00000000
00000000
00000000
00000000
00000000
00000000
00000000
00000000
00000000
00000000
00000130
00000000
00000000
00000001
00000000
00000000
00000100
00000000
00000000
00000001
00000000
00000000
00001000
00000000
00000000
00000001
00000000
00000000
00000100
00000000
00000000
00000001
00000000
00000000
00001000
00000000
00000100
00000000
00001000
00000000
00000100
00000000
00000000
00000000
00000000
00000000
MMMMMMMM
00000000
00000000
00000000
00000000
00000000
00000000
00000000
00000000
00000000
00000000
00000000
00000000
00000000
00000000
00000000
00000000
00000000
00000100
00000000
00000000
00000000
00000000
00000000
00010000
00000000
00000000
00001000
00000000
00000000
01000000
00000000
00000000
00010000
00000000
00000000
10000000
00000000
00000000
01000000
00000000
00000000
10000000
00000000
00000000
01000000
00000000
00000000
,
10000000
00000000
00000000
01000000
00000000
00000000
10000000
00000000
00000000
00010000
00000000
00000000
00100000
00000000
00000000
00000000
00000000
00000000
00001000
00000000
00000000
00000000
00000000
00000000
00010000
00000000
00000000
00000000
00000000
00000000
00000100
00000000
00001000
00000000
00000100
00000000
00001000
00000000
00000000
00000000
00000000
00000000
00000001
00000000
00000000
00000000
00000000
00000000
MMMMMMMM
00000000
00000000
00000000
00000000
00000000
00000000
00000000
00000000
00000000
00000000
00000000
00000001
00000000
00000000
00000100
00000000
00000000
00000001
00000000
00000000
00000100
00000000
00000000
00002000
00000000
00000000
00000000
00000000
00000000
00000000
00000000
00000000
00000000
00000000
00000000
00013000
00000000
00000000
00000010
00000000
00000000
00010000
00000000
00000000
00000010
00000000
00000000
,
00001000
00000000
00000000
00000010
00000000
00000000
00010000
00000000
00000000
00001000
00000000
00000000
01000000
00000000
00010000
00000000
01000000
00000000
00010000
00000000
00000000
00000000
00000000
00000000
MMMMMMMM
00000000
00000000
00000000
00000000
00000000
00000000
00000000
00000000
00000000
00000000
00000000
00000000
00000000
00000000
00000000
00000000
00000000
00010000
00000000
00000000
00000000
00000000
00000000
10000000
00000000
00000000
01000000
00000000
00000000
00100000
00000000
00000000
00010000
00000000
00000000
10010000
00000000
00000000
00000000
00000000
00000000
00102000
00000000
00000000
00000000
00000000
00000000
00000000
00000000
00000000
00000000
00000000
00000000
00013000
00000000
00000010
00000000
00010000
00000000
00000010
00000000
00000000
00001000
00000000
00000000
00000001
00000000
00000000
00000010
00000000
00000000
,
00000100
00001000
00000100
00001000
00000100
00001000
00000100
00001000
00000000
00000000
00000000
00000000
00000000
00000000
00000000
00000000
MMMMMMMM
00000000
00000000
00000000
10000000
01000000
10000000
01000000
00020000
00000000
00000000
00000000
00031000
00100000
00001000
00100000
,
00010000
00000000
00000000
00100000
00000000
00000000
00001000
00000000
00000000
00010000
00000000
00000000
00000100
00000000
00001000
00000000
00000100
00000000
00001000
00000000
00000000
00000000
00000000
00000000
MMMMMMMM
00000000
00000000
00000000
00000000
00000000
00000000
00000000
00000000
00000000
00000000
00000000
00010020
00000000
00000000
00000000
00000000
00000000
00000030
00000000
00000000
00000000
00000000
00000000
00010000
00000000
00000000
00001000
00000000
00000000
00100000
00000000
00000000
00010000
00000000
00000000
10000000
00000000
00000000
00100000
00000000
00000000
10000000
00000000
00000000
00100000
00000000
00000000
10000000
00000000
00000000
00100000
00000000
00000000
10000000
00000000
00000000
00010000
00000000
00000000
01000000
00000000
00000000
00000000
00000000
00000000
00001000
00000000
00000000
00000000
00000000
00000000
,
00010000
00000000
00000000
00000000
00000000
00000000
00000010
00000000
00001000
00000000
00000010
00000000
00001000
00000000
00000000
00000000
00000000
00000000
00000001
00000000
00000000
00000000
00000000
00000000
00000000
00000000
00000000
00000010
00000000
00000000
00000000
00000000
00000000
00000010
00000000
00000000
00000100
00000000
00000000
00000010
00000000
00000000
00000100
00000000
00000000
00000000
00000000
00000000
MMMMMMMM
00000000
00000000
00000000
00000000
00000000
00000000
00000000
00000000
00000000
00000000
00000000
00000001
00000000
00000000
00000100
00000000
00000000
00000001
00000000
00000000
00000100
00000000
00000000
00002000
00000000
00000000
00000000
00000000
00000000
00000000
00000000
00000000
00000000
00000000
00000000
00013000
00000000
00000000
00000010
00000000
00000000
00010000
00000000
00000000
00000010
00000000
00000000
,
00001000
00000000
00000000
00000010
00000000
00000000
00010000
00000000
00000000
00001000
00000000
00000000
01000000
00000000
00010000
00000000
01000000
00000000
00010000
00000000
00000000
00000000
00000000
00000000
10000000
00000000
00000000
01000000
00000000
00000000
00100000
00000000
00010000
00000000
00100000
00000000
00010000
00000000
00000000
10000000
00000000
00000000
01000000
00000000
00000000
00000000
00000000
00000000
00010000
00000000
00000000
00001000
00000000
00000000
00010000
00000000
00001000
00000000
00010000
00000000
00002000
00000000
00000000
00000000
00000000
00000000
02003000
00000000
00000000
00000000
00000000
00000000
00000000
00000000
00000000
00000000
00000000
00000000
03001000
00000000
00000000
00010000
00000000
00000000
00001000
00000000
00000000
00010000
00000000
00000000
00001000
00000000
00000000
00010000
00000000
00000000
,
00001000
00010000
00001000
00010000
00001000
00010000
00001000
00010000
00000020
00000000
00000000
00000000
00000000
00000000
00000000
00000000
00000130
00000000
00000000
00000000
00001001
00000000
00000000
00000000
00010200
00000000
00000000
00000000
00000000
00000000
00001300
00000000
,
00000000
00000100
00010000
00001000
00100000
00010000
10000000
00000000
10100000
00000000
00000000
00010000
01010000
00000000
02000000
00000000
,
00000000
00000000
03001000
00000000
00010000
00000100
00001000
00000100
00010000
00001000
00010000
00000010
00001000
00000001
00001000
00000001
,
00000010
00000000
00000001
00000010
00001000
00000000
00000110
00000000
00001000
00000000
00000011
00000000
00001100
00000000
00000000
00000000
,
00010000
00001000
00010000
00001000
00200000
00000000
00000000
00000000
01300000
00000000
10010000
00000000
02001000
00000000
00000000
03010000
,
00000000
01000000
00001000
00010000
00000010
00001000
00000001
00000000
00000011
00000000
00000000
00001000
00001100
00000000
00000100
00000000
,
00000000
00010000
00001000
00000000
00010000
00001000
01000000
01001000
00000000
00000000
01001000
00000000
01000000
00100000
10000000
00010000
,
10010000
00102000
00000000
00000000
00000000
00000000
00000000
00000000
,
00000000
00000000
00000000
00000000
00013000
00000100
00000000
00000020
00000000
00000000
00000000
00000000
00000000
00000000
00000000
00000000
,
00000000
00000000
00000000
00000000
00000031
00001000
00000000
00000200
00000000
00000000
00000000
00000000
00000000
00000000
00000000
00000000
,
00000000
00000010
00000000
00000000
00020300
00000000
00000000
00001000
00000000
00000000
00000000
00000000
00000000
00000000
00000000
00000000
,
00000000
00000000
00000000
01030000
00020000
00000000
00000000
00001000
00000000
00000000
00230000
00000000
00000000
00000000
00000000
00000000
,
10300000
00100000
01000000
00001000
MMMMMMMM
00000000
00000000
00000000
00011000
00000000
00000000
00000000
00001000
00000000
00000010
00000000
,
00000001
00000100
MMMMMMMM
00000000
00011000
00000000
00010000
00100000
,
20000000
31000000
MMMMMMMM
00000000
00011000
00000000
00001000
00000010
,
00000001
00000100
MMMMMMMM
00000000
00011000
00000000
00010000
00200000
,
00000000
10300000
11000000
00011000
,
11000000
00011000
00000101
00011000
,
00000101
00000000
00011000
00001000
01001000
01000000
01100000
00100000
,
10100000
10000000
10010000
00000000
00010000
00100000
00001000
00000000
,
00010010
00000000
MMMMMMMM
00000000
00000000
00000000
00000001
00000010
,
00000100
00000000
00001000
00000001
00000100
00000010
00010000
00001000
,
01000000
00100000
10000000
00000000
00010000
01000000
00010000
10000000
,
00100000
01000000
00100000
10000000
00010000
00100000
00001000
00010000
,
00000100
00000000
MMMMMMMM
00000000
00000000
00000000
00000001
00000100
,
00000010
00000000
00001000
00000001
00000010
00000100
00010000
00001000
,
00100000
01000000
10000000
00000000
00010000
00100000
00010000
10000000
,
00100000
01000000
20000000
00000000
00000000
00000000
00020000
00000000
,
30030000
00000000
00100000
00000000
02000000
00001000
00000000
0301MMMM
,
01000000
00100000
02000000
00001000
00000000
0301MMMM
01000000
00001000
,
00010000
00000100
00000010
00000000
00000200
00010000
00000000
MMMM1300
,
00000100
00000010
00000200
00010000
00000000
MMMM1300
00000100
00010000
,
00001000
01000000
00100000
00000000
02000000
00001000
00000000
0301MMMM
,
01000000
00100000
02000000
00001000
00000000
0301MMMM
01000000
00001000
,
00010000
00000010
00001010
00000000
00000000
00000000
00010000
00000000
,
00012000
00000000
00000000
01003000
,
MMMMMMMM
00000000
00000000
00000000
10000000
00100000
01000000
00000000
,
00100000
00010000
00100000
01000000
00001000
00010000
00000100
00000010
,
00001000
00000000
00000010
00000100
00001000
00000001
00000010
00000100
,
00000010
00000001
00001000
00000010
00010000
00001000
01000000
00000000
,
MMMMMMMM
00000000
00000000
00000000
10000000
01000000
00100000
00000000
,
01000000
00010000
01000000
00100000
00001000
00010000
00000010
00000100
,
00001000
00000000
00000100
00000010
00001000
00000001
00000010
00000100
,
00000002
00000000
00002000
00003003
,
00000000
00000000
00001000
00000010
00000001
00001000
00000200
00010000
,
00000000
MMMM1300
00000100
00010000
00001000
01000000
00100000
00000000
,
02000000
00001000
00000000
0301MMMM
01000000
00100000
02000000
00001000
,
00000000
0301MMMM
01000000
00001000
00010000
00000100
00010100
00000000
,
00000000
00010100
00000000
00000000
00000110
00000000
00000000
00000110
,
00000000
00000000
00000110
00000000
00001001
00000000
00000000
00001001
,
00000000
00000000
00001000
00000001
00000100
00000010
00010000
00001000
,
01000000
00100000
10000000
01000000
00100000
00010000
01000000
00000000
,
00001000
00010000
00000020
00000100
,
00000000
00000001
00000000
00001000
,
00000000
00000100
00000000
00010000
,
00000000
00001030
00000000
00000010
,
00010000
00001000
02000000
00100000
,
00000000
10000000
00000000
00010000
,
00000000
00001000
00000000
00100000
,
00000000
03010000
00000000
01000000
,
00001000
00010000
00000020
00000100
,
00000000
00000001
00000000
00001000
,
00000000
00000100
00000000
00010000
,
00000000
00001030
00000000
00000001
,
00000010
00001000
00020000
00000000
,
01030000
20000000
00000000
00010000
,
00000000
31000000
00100000
00001000
,
00010000
00000010
00000100
00000102
,
00001003
00000000
00001200
00000000
00000000
00000000
00000300
00010000
00000000
00001000
00010000
00001000
00100000
00010000
10000000
00000000
,
10100000
00000000
00000000
10100000
00000000
00000000
01010000
00000000
01000000
00000000
00001000
00000000
00010000
00000010
00001000
00000010
,
00010000
00001000
00010000
00000100
00001000
00000001
00001000
00000001
00000100
00000000
00000001
00000100
00001000
00000000
00000110
00000000
,
00001000
00000000
00000101
00000000
00001010
00000000
00000000
00000000
00010000
00001000
00100000
00010000
20000000
00000000
00000000
00000000
,
30010000
00000000
02010000
00000000
00000000
00000000
03000000
00001000
00000000
00010000
00001000
00010000
00000010
00001000
00000001
00000000
,
00000011
00000000
00000000
00000011
00000000
00000000
00001200
00000000
00010000
00000000
00001300
00000000
00000010
00010000
00001000
00010000
,
00000010
00001000
00000010
00010000
00001000
01000000
00001000
01000000
00010000
00000000
20010000
00000000
00000000
00000000
00000000
00000000
,
00000000
00000000
30000000
00000000
;
