#TITLE:BREAK OVER;
#ARTIST:MASAYOSHI IIMORI;
#BANNER:BREAK OVER.png;
#BACKGROUND:BREAK OVER-bg.png;
#MUSIC:BREAK OVER.ogg;
#SAMPLESTART:11.2;
#SAMPLELENGTH:15;
#BPMS:0=150,160=106;
#BGCHANGES:0=BREAK OVER.avi=1=0=0=0=StretchNoLoop====,99999=-nosongbg-=1=0=0=0 // don't automatically add -songbackground-;

//---------------dance-single - RGTM-bSP----------------
#NOTES:
     dance-single:
     RGTM:
     Beginner:
     4:
     0.147935,0.212559,0.046716,0.023358,0,133,127,6,3,0,0,0.147935,0.212559,0.046716,0.023358,0,133,127,6,3,0,0:
0000
0000
0000
0000
,
0000
0000
0000
0000
,
0000
0000
0000
0000
,
0000
0000
0000
0000
,
0001
0000
0000
0000
,
0010
0000
0000
0000
,
0100
0000
0100
0000
,
1000
0000
0000
0000
,
0001
0000
0001
0000
,
1000
1000
1000
0000
,
0010
0000
0100
0000
,
0010
0010
0010
0000
,
1000
0000
0000
0000
,
0100
0000
0000
0000
,
0001
0000
0000
0000
,
0010
0000
0000
0000
,
1000
0000
1000
0000
,
0001
0001
0001
0000
,
0010
0000
0100
0000
,
0010
0010
0010
0000
,
0001
0000
0000
1000
,
1000
0000
0000
0001
,
0001
0000
0000
0000
,
0100
0000
0000
0000
,
0010
0000
1001
0000
,
0000
1000
1000
0000
,
0100
0000
0010
0000
,
0001
0001
0001
0000
,
0000
0000
0110
0000
,
0000
0001
0001
0000
,
0100
0000
0010
0000
,
1000
1000
1000
0000
,
0001
0000
1000
1000
,
1000
0000
0010
0000
,
0100
0000
0001
0001
,
0001
0000
1000
0000
,
0000
0000
1001
0000
,
0001
0000
0100
0000
,
0010
0010
0010
0000
,
0100
0100
0100
0000
,
2002
0000
0000
0000
,
3003
0000
0000
0000
,
0000
0000
0000
0000
,
0000
0000
0000
0000
,
0000
0000
0000
0000
,
0000
0000
0000
0000
,
0000
0000
0000
0000
,
0000
0000
0000
0000
,
1000
0000
0100
0000
,
0010
0000
0001
0000
,
1000
1000
0001
0001
,
0100
0000
0000
0000
,
1001
0000
1000
0000
,
0100
0100
0100
0000
,
0010
0000
0001
0000
,
0100
0100
0100
0000
,
0001
1000
0001
0000
,
1000
0001
1000
0000
,
0010
0010
0010
0000
,
0100
0100
0100
0000
,
1001
0000
0001
0000
,
0100
0100
0100
0000
,
0010
0000
1000
0000
,
0100
0100
0100
0000
,
1000
1000
0001
0000
,
0001
0001
1000
0000
,
0010
0100
0010
0000
,
1000
0001
1000
0001
,
2000
3000
0000
0000
;

//---------------dance-single - RGTM-BSP----------------
#NOTES:
     dance-single:
     RGTM:
     Easy:
     9:
     0.344810,0.451688,0.186865,0.171293,0.031144,310,286,24,22,0,0,0.344810,0.451688,0.186865,0.171293,0.031144,310,286,24,22,0,0:
0000
0000
0000
0000
,
0000
0000
0000
0000
,
0000
0000
0000
0000
,
0000
0000
0000
0000
,
0010
0010
0100
0100
,
0001
0001
1000
1000
,
0100
0010
0100
0010
0001
1000
0001
1000
,
1001
0000
0000
0000
,
0210
0301
0020
0130
,
1000
0100
1000
0000
0001
0100
0001
0000
,
1000
0000
0100
0010
0002
0000
1003
0000
,
0010
0100
0010
0000
1000
0001
1000
0000
,
0001
0000
1000
1000
0000
0100
0100
0000
,
0010
0000
0001
0001
0000
1000
1000
0000
,
0010
0000
0100
0100
0000
0001
0001
0000
,
0010
0100
1000
0001
,
0210
1300
0020
0130
,
0001
0100
0001
0000
1000
0100
1000
0000
,
0010
0010
0100
0000
0001
0000
1000
0000
,
0020
0030
2000
3000
0200
0300
0020
0030
,
0001
0000
1000
1000
0000
0001
0001
0000
,
0100
0000
0010
0010
0000
0100
0100
0000
,
0001
0000
1000
1000
0000
0001
0001
0000
,
0110
0000
0000
0000
0000
0000
1000
0001
,
1000
0000
0110
0002
,
0000
1000
1000
0000
0103
0000
0002
0000
,
0013
0000
0110
2000
,
0000
0001
0001
0000
3100
0000
0010
0010
,
0000
0000
0110
0002
,
0000
1000
1000
0000
0013
0000
0002
0000
,
0203
0000
0310
2000
,
0000
0001
0001
0000
3010
0000
2000
0000
,
3100
0000
0110
0001
,
1000
0010
0100
0100
,
0001
0010
0100
1000
0001
0000
1000
0000
,
0010
0000
0010
0000
0100
0000
0001
1000
,
0000
0000
0110
0110
,
1100
0000
0101
0000
1000
0001
1000
0000
,
0110
0110
0101
1100
,
0001
1000
0010
0100
0001
1000
0010
0000
,
2002
0000
0000
0000
,
0000
0000
0000
0000
,
0000
0000
0000
0000
,
0000
0000
0000
0000
,
0000
0000
0000
0000
,
0000
0000
0000
0000
,
3003
0000
0000
0000
,
0000
0000
0000
0000
,
0001
0000
0000
0010
0000
0000
0100
0000
1000
0000
0000
0100
0000
0000
0010
0000
,
0001
0000
0000
0100
0000
0000
0010
0000
1000
0000
0000
0010
0000
0000
0100
0000
,
0001
1000
0100
0010
0001
0100
0010
1000
,
0001
0000
0000
0110
,
2000
0000
3010
0100
1000
0100
0001
0100
,
1000
0100
0001
0100
0010
1000
0001
0001
,
1000
0000
0100
0010
0001
0010
1000
0010
,
0001
0010
1000
0010
0100
0100
0100
0100
,
0100
1010
0100
0011
,
1000
0101
0001
1100
,
0010
1001
0100
1001
,
0010
0010
0010
0010
0010
0000
0000
0000
,
0002
0000
0013
0100
0001
0100
1000
0100
,
0001
0100
1000
0100
0010
0001
1000
1000
,
0001
0000
0100
0010
1000
0010
0001
0010
,
1000
0010
0001
0010
1000
1000
0100
0000
,
0010
0000
0000
0001
0000
0000
0010
0000
0100
0000
0000
1000
0000
0000
0100
0000
,
0010
0000
0000
0001
0000
0000
0100
0000
0010
0000
0000
1000
0000
0000
0100
0000
,
0010
0010
0100
0100
1000
1000
0001
0001
,
0100
0100
0010
0010
1000
0100
0010
0001
,
2000
3000
0000
0000
;

//---------------dance-single - RGTM-DSP----------------
#NOTES:
     dance-single:
     RGTM:
     Medium:
     13:
     0.563932,0.743956,0.077860,0.202437,0.494414,507,497,10,26,0,0,0.563932,0.743956,0.077860,0.202437,0.494414,507,497,10,26,0,0:
0000
0000
0000
0000
,
0000
0000
0000
0000
,
0000
0000
0000
0000
,
0000
0000
0000
0000
,
0001
0001
0010
0010
0100
0100
1000
1000
,
0001
0001
0100
0100
0010
0010
1000
1000
,
0100
0000
0100
0000
0010
0000
0010
0000
0001
1000
0001
1000
0001
1000
0001
1000
,
0001
0000
0000
0000
,
0120
0000
0000
0000
1030
0000
0001
0000
0200
0000
0000
0310
0100
0000
1000
0000
,
0100
0001
0100
0010
0001
0010
1000
1000
,
0001
1000
0001
0000
0010
0000
0001
0000
0200
0000
0000
0310
0100
0000
0001
0000
,
0010
1000
0010
0001
0010
1000
0110
0000
,
1001
0000
0000
0000
0001
0000
0100
0000
0000
0010
0100
0000
0001
0000
1000
0100
,
1000
0000
0000
0100
0010
0000
0001
0000
0000
0010
0100
0000
1000
0001
1000
0001
,
1000
0000
0000
0000
0010
0000
0100
0000
0000
0001
0100
0000
0010
0000
1000
0000
,
0002
0003
0020
0030
0200
0300
2000
3000
,
0120
0000
0000
0000
0031
0000
1000
0000
0200
0000
0000
0310
0100
0000
0001
0000
,
0100
1000
0100
0010
1000
0010
0001
1000
,
0001
1000
0001
0000
0100
0000
0001
0000
0010
0000
1000
0000
0010
0000
0001
0000
,
1000
0100
1000
0000
0001
0100
0001
0000
1000
0000
0010
0100
0010
0000
1000
0000
,
0002
0000
0000
0000
0013
0100
0020
0000
0000
0000
0130
1000
0200
0000
0000
0000
,
2300
0000
0000
0000
3010
0100
0020
0000
0000
0000
0130
0001
0200
0000
0000
0000
,
0301
0000
0100
0000
0010
0000
1000
0000
0001
1000
0001
1000
0001
1000
0001
1000
,
0001
0000
0000
0000
0000
0000
0000
0000
0000
0000
0000
0000
1000
0000
0001
1000
,
0100
0000
0000
0000
0010
0000
0001
0000
0100
0000
0010
0100
0010
0000
1000
0000
,
0100
1000
0100
0000
0010
0000
0100
0000
0010
0000
0001
0010
0001
0000
1000
0000
,
0010
0001
0100
1000
0010
1000
0100
0010
,
0001
0000
0010
0100
0010
0000
0100
0000
1000
0100
1000
0000
0002
0000
2003
0000
,
3000
0000
0000
0000
0000
0000
0000
0000
0010
0000
1000
0010
1000
0000
0010
0000
,
0100
0000
0001
0000
0001
0000
0100
0010
0100
0000
0001
0000
2000
0000
0000
0000
,
3100
0000
0000
0000
0010
0000
0001
0000
0010
0000
0100
0010
0100
0000
1000
0000
,
0001
0000
1000
0000
1000
0000
0100
0010
0100
0000
1000
0000
0002
0000
0000
0000
,
0103
0000
0000
0000
0000
0000
0000
0000
0010
0000
1000
0010
1000
0000
0100
0000
,
0010
0001
0010
0000
0100
0010
0100
0000
1000
0000
0100
1000
0100
0000
0010
0000
,
0001
0000
0100
0000
1000
0000
0010
0000
0001
0000
0100
0000
0001
0100
0001
0000
,
0100
0000
0010
0100
0010
0000
1000
0000
0001
1000
0001
0000
0010
0000
0010
0000
,
0000
0000
0000
0000
0000
0000
0000
0000
0010
0000
0001
0010
0001
0000
0010
0000
,
0100
0000
1000
0000
1000
0000
0100
0010
0100
0000
1000
0000
0002
0000
0000
0000
,
1003
0000
0000
0000
0010
0000
0010
0000
1000
0000
0010
0100
0010
0000
0100
0000
,
0001
0000
0010
0000
0100
0000
1000
0000
0001
1000
0001
1000
0000
0000
0000
0000
,
2002
0000
0000
0000
,
0000
0000
0000
0000
,
0000
0000
0000
0000
,
0000
0000
0000
0000
,
0000
0000
0000
0000
,
0000
0000
0000
0000
,
3003
0000
0000
0000
,
0000
0000
0000
0000
,
1001
0000
0000
0001
0000
0000
0100
0000
0010
0000
0000
1000
0000
0000
0100
1000
,
0100
0000
0000
0010
0000
0000
0001
0000
1000
0000
0000
0010
0000
0000
0100
0010
,
1000
0000
1000
0000
0001
0000
0001
0000
0100
0010
0100
0010
1000
0001
1000
0001
,
0010
0000
0000
0000
0000
0000
0110
1001
,
2000
0000
0000
0000
3100
0000
0010
0000
0001
0010
0001
0000
1000
0010
1000
0000
,
0001
0010
0001
0000
1000
0010
1000
0010
0100
0001
0010
0100
1000
0000
0001
1000
,
0100
0000
0000
0100
0010
0000
0001
0000
0100
0010
1000
0000
0100
0010
0001
0000
,
0100
0010
1000
0001
0100
0010
1000
0001
0010
0000
0010
0000
0010
0000
0010
0000
,
0100
0000
1000
0001
0100
0000
0010
0000
1000
0001
0100
0000
0010
0000
1000
0000
,
0001
0000
0001
1000
0100
0000
1000
0001
0010
0000
0100
0000
1000
0100
1000
0100
,
1000
0000
0010
0100
0001
0000
1000
0000
0010
0100
0001
0000
1000
0000
0100
0000
,
0010
0100
0010
0100
0010
0100
0010
0100
0020
0000
0000
0000
0000
0000
0130
0000
,
1002
0000
0000
0000
0103
0000
0010
0000
1000
0010
1000
0000
0001
0010
0001
0000
,
1000
0010
1000
0000
0001
0010
0001
0010
0100
1000
0010
0100
0001
1000
0000
0001
,
0100
0010
0000
0100
0010
0000
1000
0000
0100
0010
0001
0000
0100
0010
1000
0000
,
0100
0010
0001
1000
0100
0010
0001
1000
0010
0000
0100
0010
0100
0000
0000
0000
,
1001
0000
1000
0100
0000
0100
0010
0000
0010
0001
0000
0001
0010
0100
1000
0000
,
0001
0000
0001
0100
0000
0100
0010
0000
0010
1000
0000
1000
0010
0100
0001
0000
,
1000
0000
0100
0010
0000
0001
0010
0000
0100
1000
0000
0010
0100
0001
1000
0000
,
0100
0010
0100
0010
0001
1000
0001
1000
0010
0100
0001
1000
0100
0010
0001
1000
,
0020
0030
0000
0000
;

//---------------dance-single - RGTM-ESP----------------
#NOTES:
     dance-single:
     RGTM:
     Hard:
     16:
     0.740786,1.089364,0.147935,0.327014,0.996613,666,647,19,42,0,0,0.740786,1.089364,0.147935,0.327014,0.996613,666,647,19,42,0,0:
0000
0000
0000
0000
,
0000
0000
0000
0000
,
0000
0000
0000
0000
,
0000
0000
0000
0000
,
0001
0000
0001
0000
0010
0000
0010
0000
0100
0000
0100
0000
1000
0000
1000
0100
,
1000
1000
0010
0010
0100
0100
0001
0001
,
1000
0100
1000
0100
0010
0001
0010
0001
0100
0010
1000
0001
0010
0100
1000
0001
,
0100
0000
0000
0000
,
0120
0000
0000
0000
1030
0000
0001
0000
0020
0000
0030
0010
0100
0000
0001
0100
,
1000
0000
0001
0100
1000
0000
0001
0010
1000
0000
0001
0010
2000
0000
3010
0001
,
1000
0001
1000
0001
0100
0000
0001
0000
0020
0000
0030
0010
0100
0000
1000
0100
,
0001
0000
1000
0010
0001
0000
1000
0010
0001
0000
0001
0010
1000
0000
0000
0000
,
1100
0000
0000
0000
0001
0100
0010
0000
0000
0010
0100
0001
1000
0100
0010
0001
,
1000
0000
0000
1000
0001
0100
0010
0000
0000
0010
1000
0001
0010
0100
0010
0100
,
2000
0000
0000
0000
3100
0010
0001
0000
0000
0001
0010
0100
1000
0010
0100
0001
,
2000
3000
0002
0003
0020
0030
0200
0300
,
0120
0000
0000
0000
0031
0000
1000
0000
0020
0000
0030
0010
0100
0000
1000
0100
,
0001
0000
1000
0100
0001
0000
1000
0010
0001
0000
1000
0010
0001
0010
1000
0001
,
0010
0100
0010
0100
2000
0000
3100
0000
0001
0000
1000
0010
0001
0000
1000
0010
,
0001
0010
0100
0000
0010
0100
1000
0000
0100
0000
0010
0100
0001
0000
0001
0000
,
1000
0000
0001
0000
0010
0100
1000
0000
0001
0000
0010
0100
1000
0000
0001
0000
,
0001
0000
1000
0000
0010
0100
0001
0000
1000
0000
0010
0100
0001
0000
1000
0000
,
1000
0000
0001
0000
0100
0010
1000
0000
0100
0010
0100
0010
0001
1000
0001
1000
,
1001
0000
0000
0000
0000
0000
0000
0000
0000
0000
0000
0000
0001
0000
1000
0001
,
0100
0000
0000
0000
0010
0000
1000
0000
1100
0000
0100
0010
0001
0000
1000
0000
,
0010
0000
0000
0100
0000
0000
0010
0000
0000
0000
0000
0000
0100
0000
0000
0001
0000
0000
0100
0000
0000
0000
0000
0000
0110
0000
0000
0000
0000
0000
0010
0000
1000
0000
0010
0000
1000
0000
0000
0000
0000
0000
0001
0000
0000
0000
0000
0000
,
0010
0000
0100
0000
0010
0000
0100
0000
0000
1000
0000
0000
0001
0000
0000
0000
0000
0000
1000
0000
0000
0000
0000
0000
1010
0000
0000
0000
0000
0000
0010
0000
0000
0000
0000
0000
0100
0000
0000
0010
0000
0000
0100
0000
0000
0000
0000
0000
,
0001
0000
0000
0000
0000
0000
1000
0000
0000
0001
0000
0000
1000
0000
0000
0000
0000
0000
0100
0000
0000
0000
0000
0000
0010
0000
0001
0000
0010
0000
0001
0000
0000
0000
0000
0000
2000
0000
0000
0000
0000
0000
3002
0000
0000
0000
0000
0000
,
0003
0000
0000
0000
0000
0000
0000
0000
0000
0000
0000
0000
1001
0000
0000
0001
1000
0001
1000
0000
0000
0010
0000
0000
,
0100
0000
0000
0001
0000
0000
0001
0000
0000
1000
0100
1000
0100
0000
0000
0010
0000
0000
0002
0000
0000
0000
0000
0000
,
1003
0000
0000
0000
0000
0000
0010
0000
0000
0100
0000
0000
0101
0000
0000
0001
1000
0001
1000
0000
0000
1000
0000
0000
,
0001
0000
0000
0010
0000
0000
0010
0000
0000
0100
1000
0100
1000
0000
0000
0001
0000
0000
2000
0000
0000
0000
0000
0000
,
3100
0000
0000
0000
0000
0000
0000
0000
0010
0000
1000
0010
0001
0000
1000
0000
,
0010
0000
0000
0100
0000
0000
0001
0000
0000
0000
0000
0000
0010
0000
0000
0100
0000
0000
0001
0000
0000
0000
0000
0000
0100
0000
0000
0010
0000
0000
0100
0000
1000
0000
0001
0000
1000
0000
0000
0000
0000
0000
0010
0000
0000
0000
0000
0000
,
1000
0000
0100
0000
0010
0000
0001
0000
0000
1000
0000
0000
0100
0000
0000
0010
0000
0000
0001
0000
0000
1000
0000
0000
0010
0000
0000
0000
0000
0000
0100
0000
0000
0000
0000
0000
1000
0000
0000
0100
0000
0000
0010
0000
0000
0000
0000
0000
,
0001
0000
0000
0000
0000
0000
0010
0000
0000
0100
0000
0000
1000
0000
0000
0000
0000
0000
0100
0000
0000
0000
0000
0000
0010
0000
0100
0000
0010
0000
1000
0000
0000
0000
0000
0000
0001
0000
0000
1000
0000
0000
0001
0000
0000
1000
0000
0000
,
0000
0000
0000
0000
0000
0000
0000
0000
0000
0000
0000
0000
1100
0000
0000
0100
0010
0100
1000
0000
0000
0001
0000
0000
,
0010
0000
0000
0000
0000
0000
0100
0000
0000
1000
0000
0000
0100
0000
0000
0000
0000
0000
0010
0000
0100
0000
0010
0000
0001
0000
0000
1000
0000
0000
0000
0000
0000
1000
0000
0000
0010
0000
0000
0000
0000
0000
0100
0000
0000
0010
0000
0000
,
0100
0000
0000
0000
0000
0000
0000
0000
0000
0100
0000
0000
1000
0000
0000
0000
0000
0000
0100
0000
0000
0000
0000
0000
0001
0000
0000
0000
0000
0000
0010
0000
0100
0000
0010
0000
0001
0000
0000
0000
0000
0000
1000
0000
0000
0000
0000
0000
,
0010
0000
0000
0100
0000
0000
0010
0000
0000
1000
0000
0000
0100
0000
0000
0010
0000
0000
0001
0000
1000
0000
0001
0000
1000
0000
0000
0010
0000
0000
0100
0000
0000
0001
0000
0000
0000
0000
0000
0000
0000
0000
0000
0000
0000
0000
0000
0000
,
2002
0000
0000
0000
,
0000
0000
0000
0000
,
0000
0000
0000
0000
,
0000
0000
0000
0000
,
0000
0000
0000
0000
,
0000
0000
0000
0000
,
3003
0000
0000
0000
,
0000
0000
0000
0000
,
1000
0001
0001
0100
0001
0001
0010
0001
0001
1000
1000
0100
1000
1000
0010
0010
,
1000
0000
0001
0000
0001
0000
0010
0000
0001
0000
0001
0000
0100
0000
0001
0000
0001
0000
1000
0000
1000
0000
0100
0000
1000
0000
1000
0000
0010
0100
0010
0100
,
0010
1000
0001
0010
0100
1000
0010
0100
0001
0001
0010
0010
0100
0100
1000
1000
,
0110
0000
0000
0000
0000
0000
0101
1100
,
0002
0000
0000
1003
0020
0000
2030
0000
3100
0100
0001
1000
0100
0100
0002
0000
,
0103
0100
1000
0001
0100
0100
1000
0001
1000
0100
0100
0001
2000
0000
3001
0001
,
1000
0000
0000
0100
0020
0000
0032
0000
0013
0010
1000
0001
0010
0010
2000
0000
,
3010
0010
0001
1000
0010
0010
0001
1000
0012
0003
0120
0030
1200
0300
2001
3000
,
0001
0000
0000
0000
0010
0000
0010
0000
2000
0000
0000
0000
3001
0000
1000
0000
0010
0000
0010
0000
0001
0000
1000
0000
0100
0000
0000
0000
1000
0001
1000
0001
,
1000
0000
0100
0100
0002
0000
1003
0001
0010
0001
0100
0010
1000
1000
1000
1000
,
0001
0000
0000
0000
0010
0000
0010
0000
2000
0000
0000
0000
3001
0000
1000
0000
0100
0000
0100
0000
0001
0000
1000
0000
0200
0000
0000
0000
0310
0100
0010
0100
,
1000
0000
0001
1000
0001
0000
1000
0100
1000
0000
0001
0100
0001
0000
1000
0001
2000
0000
0000
0000
0000
0000
0000
0000
0000
0000
0000
0000
3010
0000
0000
0000
,
2001
0000
0000
0000
0000
0000
0000
0000
0000
3001
0000
0000
0020
0000
0000
0000
0000
0000
0032
0000
0000
0000
0000
0000
0103
0000
0000
0100
0000
0000
1000
0000
0000
0001
0000
0000
0100
0000
0000
0100
0000
0000
1000
0000
0001
0000
0000
0000
,
0100
0000
0100
0000
1000
0000
0001
0000
0100
0000
0100
0000
1000
0000
0001
0000
1000
0000
0100
0000
0100
0000
0001
0100
0001
0000
1000
0000
0200
0000
0000
0000
,
0310
0000
0000
0001
0000
0000
0000
0000
0000
0001
0000
0000
2000
0000
0000
0000
0000
0000
3002
0000
0000
0000
0000
0000
0013
0000
0000
0010
0000
0000
1000
0000
0000
0001
0000
0000
0010
0000
0000
0010
0000
0000
1000
0000
0001
0000
0000
0000
,
0010
0000
0010
0000
1000
0000
0001
0000
0010
0000
0010
0000
1000
0000
0001
0000
0010
0000
0100
0000
0010
0000
0001
1000
0001
0000
0000
0000
0000
0000
0000
0000
,
1000
0001
1000
1000
0010
1000
1000
0001
1000
1000
0100
1000
1000
0001
1000
1000
,
0001
1000
0001
0001
0010
0001
0001
1000
0001
0001
0100
0001
0001
1000
0001
0001
,
0010
0001
0010
0001
1000
0010
1000
0010
0100
0001
0100
0001
1000
0100
1000
0100
,
0010
0000
0100
0000
0010
0000
0100
0000
1000
0000
0001
0000
1000
0000
0001
0000
0100
0010
0100
0010
1000
0001
1000
0001
0010
0100
0010
0100
1000
0001
1000
0001
,
0200
0300
0000
0000
;

//---------------dance-double - RGTM-BDP----------------
#NOTES:
     dance-double:
     RGTM:
     Easy:
     8:
     0.301431,0.478258,0.140149,0.280297,0.031144,271,253,18,36,0,0,0.301431,0.478258,0.140149,0.280297,0.031144,271,253,18,36,0,0:
00000000
00000000
00000000
00000000
,
00000000
00000000
00000000
00000000
,
00000000
00000000
00000000
00000000
,
00000000
00000000
00000000
00000000
,
10000000
00000000
01000000
00000000
00010000
00000000
00001000
00010000
,
00001000
00000100
00000001
00001000
,
00000100
00000000
00000010
00000000
00000001
00001000
00000001
00001000
,
00000001
00000000
00000000
00000000
,
00001002
00000013
00000200
00001300
,
00000010
00000100
00000010
00000000
00010000
00000000
00001000
00000000
,
00100000
01000000
20000000
30100000
,
01000000
00100000
01000000
00000000
00010000
10000000
00010000
00000000
,
10000000
00000000
01000000
01000000
00000000
00100000
00100000
00000000
,
00001000
00000000
00010000
00010000
00000000
00000010
00000010
00000000
,
00000100
00000000
00000001
00000001
00000000
00001000
00001000
00000000
,
00000020
00000030
00000020
00000030
00000020
00000030
00000200
00000300
,
00001002
00000103
00000010
00001000
,
00000100
00000010
00000100
00000000
00010000
00000000
00001000
00000000
,
01000000
00100000
20000000
31000000
,
00100000
01000000
00100000
00000000
00010000
10000000
00010000
00000000
,
20000000
00000000
30000000
00200000
00000000
00300000
00010000
00000000
,
00002000
00000000
00003000
00000020
00000000
00000030
00000001
00000000
,
00000100
00000000
00000010
00000000
00001000
00000001
00001000
00000001
,
00001000
00000000
00000000
00000010
,
00001001
00000000
00001000
00000200
,
00000000
00010000
00020300
00000000
00001000
00000000
02030000
00000000
,
03100000
00000000
10000000
00200000
,
00000000
01000000
02300000
00000000
00010000
00000000
03100000
00100000
,
00000000
00000000
01100000
00020000
,
00000000
00100000
00230000
00000000
00010000
00000000
00302000
00000000
,
00023000
00000000
00000010
00030200
,
00000000
00001000
00002300
00000000
00003002
00000000
00000103
00000000
,
00000010
00000000
00000100
00001000
,
00010000
00000000
01000000
00000000
00100000
01000000
00100000
00000000
,
02000000
03020000
00031000
00000100
,
00000010
00000000
00001000
00000000
00000100
00000010
00000100
00000000
,
00000000
00000000
00001001
00000001
,
00000100
00001000
00010000
01000000
,
10000000
00010000
10000000
00100000
,
00010000
00000000
00001000
00000000
00010000
00001000
00000000
00000000
,
00022000
00000000
00000000
00000000
,
00000000
00000000
00000000
00000000
,
00000000
00000000
00000000
00000000
,
00000000
00000000
00000000
00000000
,
00000000
00000000
00000000
00000000
,
00000000
00000000
00000000
00000000
,
00033000
00000000
00000000
00000000
,
00000000
00000000
00000000
00000000
,
00010000
00000000
00000000
00010000
00000000
00000000
00010000
00000000
00001000
00000000
00000000
00001000
00000000
00000000
00001000
00000000
,
00010000
00000000
00000000
00010000
00000000
00000000
00010000
00000000
00001000
00000000
00000000
00001000
00000000
00000000
00001000
00000000
,
00100000
00100000
01000000
01000000
10000000
00010000
10000000
00010000
,
01000000
00000000
00000000
00000000
00000000
00000000
00100000
00100000
,
20010000
31000000
00001000
00000100
,
00010000
01000000
00100000
00001000
,
00001002
00000103
00010000
01000000
,
00001000
00000000
00000100
00000000
00001000
00001000
00010000
00010000
,
01000000
00000000
10100000
00000000
01000000
00000000
00110000
00010000
,
00000100
00000000
00001010
00000000
00000101
00000000
00001000
00001000
,
01000000
00010010
00000100
00101000
,
00010000
00010000
00001000
00001000
00000020
00000000
00000030
00000000
,
00001002
00000103
00010000
01000000
,
00001000
00000100
00000010
00010000
,
20010000
31000000
00001000
00000100
,
00010000
00000000
01000000
00000000
00010000
00001000
00011000
00000000
,
00010000
00000000
00000000
00010000
00000000
00000000
00010000
00000000
00001000
00000000
00000000
00001000
00000000
00000000
00001000
00000000
,
00010000
00000000
00000000
00010000
00000000
00000000
00010000
00000000
00001000
00000000
00000000
00001000
00000000
00000000
00001000
00000000
,
00100000
00100000
01000000
01000000
00010000
00010000
00001000
00001000
,
00000100
00000010
00010000
00001000
00100000
01000000
00010000
00001000
,
00022000
00033000
00000000
00000000
;

//---------------dance-double - RGTM-DDP----------------
#NOTES:
     dance-double:
     RGTM:
     Medium:
     12:
     0.467162,0.637677,0.140149,0.241367,0.140149,420,402,18,31,0,0,0.467162,0.637677,0.140149,0.241367,0.140149,420,402,18,31,0,0:
00000000
00000000
00000000
00000000
,
00000000
00000000
00000000
00000000
,
00000000
00000000
00000000
00000000
,
00000000
00000000
00000000
00000000
,
10000000
10000000
00100000
00100000
00010000
00010000
00001000
00010000
,
00001000
00001000
00000010
00000010
00000001
00000001
00001000
00000001
,
00000010
00000010
00000100
00000100
00010000
00010000
00001000
00001000
,
00011000
00000000
00000000
00000000
,
20010000
00000000
00000000
00000000
30100000
00000000
10000000
00000000
01000000
00000000
00000000
01000000
00100000
00000000
00001000
00000000
,
00010000
00000100
00000010
00000100
00010000
00000010
00000001
00000010
,
00000100
00000000
00000100
00000000
00000001
00000000
00001000
00000000
00000100
00000000
00000000
00000010
00000100
00000000
00010000
00000000
,
00001000
01000000
00100000
01000000
10000000
01000000
00010000
00000000
,
00110000
00000000
00100000
00100000
00000000
01000000
01000000
10000000
,
10100000
00000000
00100000
00100000
00000000
01000000
01000000
00001000
,
00011000
00000000
00010000
00010000
00000000
00001000
00001000
00000100
,
00000020
00000030
00002000
00003000
00000002
00000003
00000020
00000030
,
00001002
00000000
00000000
00000000
00000013
00000000
00000001
00000000
00000100
00000000
00000000
00000100
00000010
00000000
00010000
00000000
,
00001000
01000000
00100000
01000000
00001000
00100000
10000000
00100000
,
01000000
01000000
10000000
00010000
01000000
00100000
01000000
00001000
,
00010000
00010000
00001000
00001000
00000100
00000001
00000001
00000100
,
00000020
00000000
00001030
00002000
00000000
00003100
00000200
00000000
,
00020300
00000000
00031000
00002000
00000000
01003000
02000000
00000000
,
03100000
00000000
10000000
00000000
01000000
00000000
00100000
00000000
00010000
00000000
01000000
00000000
00100000
01000000
00100000
01000000
,
00100000
00000000
00000000
00100000
,
10010000
00000000
10000000
01000000
00010000
00001000
00010000
00001000
,
00000010
00000001
00000100
00001000
00000100
00001000
00010000
00100000
,
10000000
01000000
00010000
00001000
00000010
00000100
00001000
00000001
,
00000100
00000010
00000100
00000010
00010000
00001000
00100000
00100000
,
00000000
00000000
00000000
00000000
10010000
10000000
00100000
00020000
,
00000000
00031000
00001000
00000100
00000001
00001000
00000200
00000000
,
00000310
00000000
00000010
00000001
00000200
00000000
00001300
00002000
,
00000000
00013000
00100000
10000000
10000000
01000000
00200000
00000000
,
01300000
00000000
00000000
00000000
01000000
10000000
00100000
00010000
,
00001000
00000100
00001000
01000000
00010000
00100000
00010000
00000010
,
00000100
00001000
00001000
00000010
00000010
00000100
00001000
00010000
,
00100000
01000000
00001000
00010000
00000100
00000100
00000010
00000010
,
00000000
00000000
00000000
00000000
00001001
00000001
00000100
00002000
,
00000000
00013000
00010000
01000000
10000000
00010000
02000000
00000000
,
03100000
00000000
10000000
00100000
00020000
00000000
00031000
00002000
,
00000000
00000000
00003100
00000000
00000010
00000000
00010000
00000000
00001000
00010000
00001000
00010000
00000000
00000000
00000000
00000000
,
00022000
00000000
00000000
00000000
,
00000000
00000000
00000000
00000000
,
00000000
00000000
00000000
00000000
,
00000000
00000000
00000000
00000000
,
00000000
00000000
00000000
00000000
,
00000000
00000000
00000000
00000000
,
00033000
00000000
00000000
00000000
,
00000000
00000000
00000000
00000000
,
00011000
00000000
00000000
00001000
00000000
00000000
00000100
00000000
00000001
00000000
00000000
00000010
00000000
00000000
00001000
00010000
,
00001000
00000000
00000000
00010000
00000000
00000000
01000000
00000000
10000000
00000000
00000000
00100000
00000000
00000000
00010000
00001000
,
00010000
00010000
00000100
00000100
00000010
00000001
00000100
00001000
,
00011000
00000000
00000000
00000000
00000000
00000000
00110000
10100000
,
20010000
00000000
31000000
00001000
00000100
00010000
01000000
00001000
,
00000100
00000000
00010000
00000000
01000000
00000000
00001000
00000000
00000100
00000000
00010000
00000000
00000010
00000000
00001000
00000001
,
00001000
00000000
00000010
00010000
00100000
00001000
00000010
00010000
,
00100000
00000000
00001000
00000000
00000010
00000000
00010000
00000000
00012000
00003000
00002000
00003000
00002000
00003000
00002000
00003000
,
01000000
00000000
00100000
01000000
00100000
00000000
10000000
00000000
01000000
00100000
01000000
00000000
00100000
00000000
00001000
00000000
,
00000100
00000000
00000010
00000100
00000010
00000000
00001000
00000000
00000100
00000010
00000100
00000000
00010000
00000000
00010000
00000000
,
00001000
00000000
01000000
00100000
01000000
00000000
00100000
00000000
10000000
00010000
10000000
00000000
01000000
00000000
00010000
00000000
,
00001000
00010000
00001000
00010000
00001000
00010000
00001000
00010000
00001000
00000000
00000000
00000000
00000000
00000000
00000010
00000000
,
00001002
00000000
00000103
00010000
01000000
00001000
00000100
00010000
,
01000000
00000000
00001000
00000000
00000100
00000000
00010000
00000000
01000000
00000000
00001000
00000000
00100000
00000000
00010000
10000000
,
00010000
00000000
00100000
00001000
00000010
00010000
00100000
00001000
,
00000010
00000000
00010000
00000000
00100000
00000000
00001000
00000000
00000010
00000000
00001000
00010000
00001000
00000000
00000000
00000000
,
00010000
00000000
00010000
01000000
00000000
01000000
10000000
00000000
10000000
00100000
00000000
00100000
00010000
00000000
00001000
00010000
,
00001000
00000000
00001000
00000100
00000000
00000100
00000001
00000000
00000001
00000010
00000000
00000010
00001000
00000000
00010000
00001000
,
00010000
00010000
01000000
01000000
10000000
10000000
00100000
00100000
,
00010000
00010000
00001000
00001000
00000100
00000001
00000010
00001000
,
00022000
00033000
00000000
00000000
;

//---------------dance-double - RGTM-EDP----------------
#NOTES:
     dance-double:
     RGTM:
     Hard:
     15:
     0.676273,0.903375,0.210223,0.210223,0.794176,608,581,27,27,0,0,0.676273,0.903375,0.210223,0.210223,0.794176,608,581,27,27,0,0:
00000000
00000000
00000000
00000000
,
00000000
00000000
00000000
00000000
,
00000000
00000000
00000000
00000000
,
00000000
00000000
00000000
00000000
,
00000001
00000000
00000001
00000000
00000010
00000000
00000010
00000000
00000100
00000000
00000100
00000000
00010000
00000000
00001000
00010000
,
00001000
00001000
00100000
00100000
01000000
01000000
10000000
10000000
,
00100000
01000000
00100000
01000000
00010000
01000000
00010000
01000000
00001000
00010000
00001000
00010000
00000100
00010000
00000100
00010000
,
00001000
00000000
00000000
00000000
,
00021000
00000000
00000000
00000000
00030100
00000000
00010000
00000000
00000010
00000000
00000000
00000010
00000100
00000000
00000001
00000100
,
00000001
00000000
00001000
00000100
00001000
00000000
00000010
00010000
00000010
00000000
00100000
00001000
00100000
00000000
00001000
00000000
,
00010000
00001000
00010000
00001000
00010000
00000000
01000000
00000000
20000000
00000000
00000000
30100000
01000000
00000000
00010000
01000000
,
00001000
00000000
00010000
00000100
00001000
00000000
00000010
00010000
00001000
00000000
00100000
00001000
00010000
00000000
00000000
00000000
,
00011000
00000000
00000000
00000000
00001000
00010000
00000100
00000000
00000000
00000010
00000100
00000010
00000001
00000010
00000100
00001000
,
00000010
00000000
00000000
00000000
00010000
00001000
01000000
00000000
00000000
00100000
01000000
00100000
10000000
00010000
10000000
00010000
,
00100000
00000000
00000000
00000000
00001000
00010000
00000100
00000000
00000000
00000100
00000010
00000100
00010000
00001000
00010000
00001000
,
00020000
00030000
00020000
00030000
02000000
03000000
20000000
30000000
,
10020000
00000000
00000000
00000000
00130000
00000000
00010000
00000000
01000000
00000000
00000000
00100000
01000000
00000000
00010000
01000000
,
00001000
00000000
00001000
00010000
00000100
00000000
00001000
00000010
00010000
00000000
00010000
00001000
00100000
00010000
00100000
01000000
,
10000000
00010000
10000000
00010000
01000000
00000000
00100000
00000000
10000000
00000000
01000000
00100000
01000000
00000000
00010000
00000000
,
00001000
00010000
00001000
00000000
00010000
00001000
00010000
00000000
00000010
00000000
00000100
00000010
00000100
00000000
00000001
00000000
,
00000010
00000000
00000100
00000000
00010000
00001000
00010000
00000000
00100000
00000000
00010000
00001000
00010000
00000000
00001000
00000000
,
01000000
00000000
00100000
00000000
00010000
00001000
00010000
00000000
00000100
00000000
00010000
00001000
00010000
00000000
00001000
00000000
,
00000010
00000000
00000100
00000000
00010000
00001000
00010000
00000000
01000000
00100000
01000000
00100000
00010000
10000000
00010000
10000000
,
00100000
00000000
00000000
00000000
00000000
00000000
00000000
00000000
00000000
00000000
00000000
00000000
00100000
00000000
00100000
10000000
,
01000000
00000000
00000000
00000000
20000000
00000000
30200000
00000000
01300000
00000000
00001000
01000000
00001000
00000000
00010000
00000000
,
00000100
00000000
00000000
00010000
00000000
00000000
00000100
00000000
00000000
00000000
00000000
00000000
01000000
00000000
00000000
00001000
00000000
00000000
01000000
00000000
00000000
00000000
00000000
00000000
00001000
00000000
00000000
00000000
00000000
00000000
00010000
00000000
00001000
00000000
00010000
00000000
00001000
00000000
00000000
00000000
00000000
00000000
00010000
00000000
00000000
00000000
00000000
00000000
,
00000100
00000000
00001000
00000000
00000100
00000000
00001000
00000000
00000000
00000100
00000000
00000000
00000010
00000000
00000000
00000000
00000000
00000000
00000001
00000000
00000000
00000000
00000000
00000000
00000100
00000000
00000000
00000000
00000000
00000000
00000010
00000000
00000000
00000000
00000000
00000000
00010000
00000000
00000000
00000100
00000000
00000000
00010000
00000000
00000000
00000000
00000000
00000000
,
00001000
00000000
00000000
00000000
00000000
00000000
01000000
00000000
00010000
00000000
01000000
00000000
00010000
00000000
00000000
00000000
00000000
00000000
00100000
00000000
00000000
00000000
00000000
00000000
01000000
00000000
10000000
00000000
01000000
00000000
10000000
00000000
00000000
00000000
00000000
00000000
00200000
00000000
00000000
00300000
00000000
00000000
02000000
00000000
00000000
03000000
00000000
00000000
,
00000000
00000000
00000000
00000000
00000000
00000000
00000000
00000000
00000000
00000000
00000000
00000000
00011000
00000000
00000000
00010000
00001000
00010000
00001000
00000000
00000000
00000200
00000000
00000000
,
00000000
00000000
00000000
00000310
00000000
00000000
00000010
00000000
00000000
00001000
00000001
00001000
00000001
00000000
00000000
00000010
00000000
00000000
00002000
00000000
00000000
00000000
00000000
00000000
,
00013000
00000000
00000000
00000000
00000000
00000000
00001000
00000000
00000000
00100000
00000000
00000000
01000000
00000000
00000000
10000000
00010000
10000000
00010000
00000000
00000000
00200000
00000000
00000000
,
00000000
00000000
00000000
00301000
00000000
00000000
00001000
00000000
00000000
00010000
00001000
00010000
00001000
00000000
00000000
00010000
00000000
00000000
00000200
00000000
00000000
00000000
00000000
00000000
,
00000310
00000000
00000000
00000000
00000000
00000000
00000000
00000000
00000001
00000000
00000100
00000001
00000100
00000000
00000010
00000000
,
00001000
00000000
00000000
00000100
00000000
00000000
00010000
00000000
00000000
00000000
00000000
00000000
00001000
00000000
00000000
01000000
00000000
00000000
00010000
00000000
00000000
00000000
00000000
00000000
10000000
00000000
00000000
00000000
00000000
00000000
00100000
00000000
01000000
00000000
00100000
00000000
01000000
00000000
00000000
00000000
00000000
00000000
00010000
00000000
00000000
00000000
00000000
00000000
,
10000000
00000000
01000000
00000000
10000000
00000000
01000000
00000000
00000000
00100000
00000000
00000000
00010000
00000000
00000000
10000000
00000000
00000000
01000000
00000000
00000000
00100000
00000000
00000000
00010000
00000000
00000000
00000000
00000000
00000000
00100000
00000000
00000000
00000000
00000000
00000000
00001000
00000000
00000000
00010000
00000000
00000000
00000100
00000000
00000000
00000000
00000000
00000000
,
00001000
00000000
00000000
00000000
00000000
00000000
00000010
00000000
00000000
00000100
00000000
00000000
00000001
00000000
00000000
00000000
00000000
00000000
00000010
00000000
00000000
00000000
00000000
00000000
00000001
00000000
00001000
00000000
00000001
00000000
00001000
00000000
00000000
00000000
00000000
00000000
00000010
00000000
00000000
00000100
00000000
00000000
00000010
00000000
00000000
00000100
00000000
00000000
,
00000000
00000000
00000000
00000000
00000000
00000000
00000000
00000000
00000000
00000000
00000000
00000000
00011000
00000000
00000000
00001000
00010000
00001000
00010000
00000000
00000000
00002000
00000000
00000000
,
00000000
00000000
00000000
00000000
00000000
00000000
01003000
00000000
00000000
00000000
00000000
00000000
01000000
00000000
00000000
00000000
00000000
00000000
00100000
00000000
01000000
00000000
00100000
00000000
01000000
00000000
00000000
00100000
00000000
00000000
00000000
00000000
00000000
00100000
00000000
00000000
10000000
00000000
00000000
00000000
00000000
00000000
01000000
00000000
00000000
10000000
00000000
00000000
,
01000000
00000000
00000000
00000000
00000000
00000000
00000000
00000000
00000000
01000000
00000000
00000000
00100000
00000000
00000000
00000000
00000000
00000000
00001000
00000000
00000000
00000000
00000000
00000000
00010000
00000000
00000000
00000000
00000000
00000000
00001000
00000000
00010000
00000000
00001000
00000000
00010000
00000000
00000000
00000000
00000000
00000000
00001000
00000000
00000000
00000000
00000000
00000000
,
00000100
00000010
00000100
00000010
00001000
00000001
00001000
00000001
00000010
00001000
00010000
00001000
00000000
00000000
00000000
00000000
,
00022000
00000000
00000000
00000000
,
00000000
00000000
00000000
00000000
,
00000000
00000000
00000000
00000000
,
00000000
00000000
00000000
00000000
,
00000000
00000000
00000000
00000000
,
00000000
00000000
00000000
00000000
,
00033000
00000000
00000000
00000000
,
00000000
00000000
00000000
00000000
,
00011000
00000000
00000000
01001000
00000000
00000000
11000000
00000000
10010000
00000000
00000000
00101000
00000000
00000000
00010000
00001000
,
00011000
00000000
00000000
00000000
00000000
00000000
00001100
00000000
00000000
00000000
00000000
00000000
00000101
00000000
00000000
00000000
00001001
00000000
00000000
00000000
00000000
00000000
00010010
00000000
00000000
00000000
00000000
00000000
00010000
00001000
00010000
00001000
,
00010000
00000000
01000000
00000000
10000000
00000000
00100000
00000000
00010000
00001000
00000100
00001000
00010000
01000000
00010000
00001000
,
00011000
00000000
00000000
00000000
00000000
00000000
00011000
00000110
,
00001002
00000000
00000000
00000000
00000103
00000000
00001000
00000000
00100000
01000000
00010000
00000000
00000010
00000100
00001000
00000000
,
00100000
01000000
00010000
00000000
00000010
00000100
00001000
00010000
00100000
01000000
00001000
00010000
00001000
00000000
00010000
00010000
,
01000000
00000000
00000000
01000000
10000000
00000000
00010000
00000000
01000000
00100000
00010000
00000000
00000100
00000010
00001000
00000000
,
01000000
00100000
00010000
00001000
00000100
00000010
00010000
00001000
00012000
00003000
00120000
00030000
01200000
00300000
12000000
03000000
,
10000000
00000000
00000000
00000000
00100000
00000000
10000000
00000000
01000000
00000000
00000000
00000000
00010000
00000000
00000000
00000000
00000010
00000000
00001000
00000000
00000100
00000000
00000000
00000000
00010000
00000000
00000000
00000000
00001000
00010000
00001000
00010000
,
00001000
00000000
00000010
00000001
00000100
00000000
00001000
00000000
00100000
00010000
01000000
00000000
00010000
00010000
10000000
10000000
,
00010000
00000000
00000000
00000000
10000000
00000000
01000000
00000000
00100000
00000000
00000000
00000000
00001000
00000000
00000000
00000000
00010000
00000000
00000010
00000000
00000100
00000000
00000000
00000000
00000001
00000000
00000000
00000000
00001000
00000001
00001000
00000001
,
00001000
00000000
00000001
00000100
00000001
00000000
00001000
00000100
00001000
00000000
00000001
00000100
00000001
00000000
00001000
00000100
00002000
00000000
00000000
00000000
00000000
00000000
00000000
00000000
00103000
00000000
00000000
00000000
10000000
00000000
00000000
00000000
,
20010000
00000000
00000000
00000000
30100000
00000000
00010000
00000000
00000100
00000010
00001000
00000000
01000000
00100000
00010000
00000000
,
00000100
00000010
00001000
00000000
01000000
00100000
00010000
00001000
00000100
00000010
00010000
00001000
00010000
00000000
00001000
00001000
,
00000010
00000100
00000000
00000010
00000001
00000000
00001000
00000000
00000010
00000100
00001000
00000000
00100000
01000000
00010000
00000000
,
00000010
00000100
00001000
00010000
00100000
01000000
00001000
00010000
00001000
00000000
00000100
00000010
00000100
00000000
00000000
00000000
,
00001001
00000000
00000001
00000010
00000000
00000010
00001000
00000000
00001000
00010000
00000000
00010000
00100000
00000000
00100000
10000000
,
00010000
00000000
10000000
01000000
00000000
01000000
00010000
00000000
00010000
00001000
00000000
00001000
00000100
00000000
00000001
00001000
,
00000001
00000010
00000001
00000010
00000100
00010000
00000100
00010000
00001000
00100000
00001000
00100000
01000000
10000000
01000000
10000000
,
00100000
01000000
00100000
01000000
00001000
00010000
00001000
00010000
00000100
00000010
00000001
00000100
00001000
00010000
01000000
00100000
,
20020000
30030000
00000000
00000000
;
