#TITLE:BRAND NEW DAY;
#ARTIST:lapix feat. Numb'n'dub;
#CREDIT:MEGAREX;
#MUSIC:BRAND NEW DAY.ogg;
#BANNER:BRAND NEW DAY.png;
#BACKGROUND:BRAND NEW DAY-bg.png;
#CDTITLE:;
#SAMPLESTART:2.400;
#SAMPLELENGTH:15.000;
#SELECTABLE:YES;
#OFFSET:0.000;
#BPMS:0.000=175.000
,72.000=87.500
,75.000=175.000
,198.500=87.500
,200.000=175.000
,207.000=87.500
,208.000=175.000
,244.000=87.500
,246.000=175.000
,262.000=87.500
;
#STOPS:141.000=0.171
,156.500=0.171
,165.000=0.171
,166.500=0.171
,171.000=0.171
;
#JACKET:BRAND NEW DAY-jacket.png;
#BGCHANGES:;
#FGCHANGES:;

//--------------- dance-single - NewbStepper-bSP ----------------
#NOTES:
     dance-single:
     NewbStepper-bSP:
     Beginner:
     6:
     0.243537,0.314464,0.095238,0.114286,0,179,169,10,12,0,0,0,0,0,0.243537,0.314464,0.095238,0.114286,0,179,169,10,12,0,0,0,0,0:
0000
0000
0000
0000
,
0000
0000
0000
0000
,
0101
0000
0000
0001
,
0000
0000
0001
1000
,
0100
0000
0000
0100
,
0000
0000
0100
0010
,
1000
0000
0000
1000
,
0000
0000
0010
0001
,
0010
0000
0000
0001
,
0000
0000
1000
0001
,
0100
0000
0000
0100
,
0000
0000
0010
1000
,
0100
0000
0000
0100
,
0000
0000
0100
0010
,
0001
0000
0000
0001
,
0000
0000
0001
1000
,
0010
0000
0000
0100
,
1000
0000
0002
0000
,
0000
0000
0000
0000
0000
0003
0000
0000
,
0000
0000
0000
0010
0000
0000
0000
0000
,
0000
0100
0000
0000
0000
0000
0000
0000
,
0010
0000
0000
1000
,
0000
0000
0001
0000
,
0000
0010
0000
0000
,
0001
0000
1000
0000
,
0001
0000
1000
0000
,
0010
0000
0010
0000
,
1001
0000
0001
0000
,
0001
0000
0100
0000
,
0100
0000
0010
0000
,
0010
1000
0000
1000
,
0000
0001
0000
1000
,
0000
0001
1000
0000
,
0001
0000
1000
0000
,
1000
0000
0001
0000
,
0000
0000
0220
0330
0000
0000
0010
0000
,
0000
0000
1000
0000
0000
0001
0000
0000
,
0000
2002
0000
0000
0000
3003
0000
1001
,
0000
0000
0000
0100
0000
0000
0000
0000
,
0000
0220
0330
0000
0010
0000
1000
0000
,
0000
0001
0000
0100
0000
0100
0000
0010
,
0000
0000
0000
1001
0000
0000
1000
0000
,
0000
0000
0010
0000
0000
0000
2000
3000
,
0000
0010
0000
0000
0001
0000
0000
0100
,
0000
0000
1000
0000
0000
2002
0000
0000
,
0000
0000
0000
3003
0000
0000
0000
0110
,
0000
0000
0000
1000
0000
0001
0000
1000
,
0000
0000
0000
0010
0000
1000
0000
0010
,
0000
0000
0000
0100
0000
0001
0000
0100
,
0000
0000
0000
1000
0000
0002
0000
0003
,
1001
0000
1000
0001
,
0000
1000
0010
0001
,
1000
1000
1000
0000
,
0001
0001
0001
0000
,
0000
0001
1000
0000
,
0001
0010
1000
0000
,
0001
0001
0001
0000
,
1000
1000
1000
0000
,
0010
0100
0000
0010
,
0001
0100
0000
0000
,
1000
1000
1000
0000
,
0000
0000
0000
0100
,
0010
0000
0100
1000
,
0010
0000
1000
1000
,
1000
0000
0001
0001
,
0001
0000
0000
0000
0100
0000
0000
0100
,
0000
0000
0100
1000
0001
0000
0000
0001
,
0000
0000
0001
1000
0010
0000
0000
0010
,
0000
0000
0010
0100
0001
0000
0000
0100
,
0000
0000
0002
0000
0013
0000
0000
0010
,
0000
0000
0010
0001
1000
0000
0000
1000
,
0000
0000
1000
0010
0100
0000
0000
0100
,
0000
0000
0100
0001
0010
0000
0000
0010
,
0000
0000
0010
0001
0000
0000
0000
0000
;

//--------------- dance-single - NewbStepper-BSP ----------------
#NOTES:
     dance-single:
     NewbStepper-BSP:
     Easy:
     9:
     0.440816,0.524107,0.295238,0.447619,0.07619,324,293,31,47,0,0,0,0,0,0.440816,0.524107,0.295238,0.447619,0.07619,324,293,31,47,0,0,0,0,0:
0000
0000
0000
0000
,
0000
0000
0000
0000
,
0101
0000
0000
0001
0000
0000
0001
0000
,
0000
0001
0000
0000
0001
0000
1000
0000
,
0100
0000
0000
0100
0000
0000
0100
0000
,
0000
0100
0000
0000
0100
0000
0010
0000
,
1000
0000
0000
1000
0000
0000
1000
0000
,
0000
1000
0000
0000
0010
0000
0001
0000
,
0010
0000
0000
0010
0000
0000
0001
0000
,
0000
1000
0000
0000
1000
0000
0001
0000
,
0100
0000
0000
0100
0000
0000
0100
0000
,
0000
0100
0000
0000
0010
0000
1000
0000
,
0100
0000
0000
0100
0000
0000
0100
0000
,
0000
0100
0000
0000
0100
0000
0010
0000
,
0001
0000
0000
0001
0000
0000
0001
0000
,
0000
0001
0000
0000
0001
0000
1000
0000
,
0020
0000
0000
0100
,
2030
0000
0002
0000
,
0000
0000
0000
0000
0000
3003
0000
0001
,
0000
0100
0000
0010
0000
0010
1000
0000
,
0010
0100
0000
0000
0001
1000
0001
0000
,
0010
0000
0010
0001
0000
0001
1000
0000
,
0010
0100
0000
0000
0001
0000
1000
0000
,
0100
0000
0010
0002
0000
0100
0000
1003
,
0000
0100
0000
0020
0000
1000
0000
0031
,
0000
0010
0100
0000
1000
0000
0010
0000
,
0000
0100
0000
0001
0000
0010
0000
0000
,
1001
0001
0001
0001
,
0001
0100
0100
0100
,
0100
0010
0010
0010
,
0010
1000
1000
1000
,
1000
0001
0100
1000
,
0010
0001
1000
0100
,
0001
0010
1000
0011
,
1000
0100
0001
0101
,
1001
0000
0220
0330
0000
0000
0010
0000
,
0001
0001
1000
1000
0000
0001
0000
0100
,
0000
2002
0000
0000
0000
0000
3003
1001
,
0000
0100
0000
0101
0000
1100
0000
1001
,
0000
0220
0330
0000
0010
0000
1000
1000
,
0000
0001
0001
0100
0000
0100
0000
0010
,
0000
0100
0010
1001
0000
0010
2000
0000
,
3200
0000
0320
0000
0032
0000
2000
3003
,
0000
0010
0000
0010
0001
0000
0001
0100
,
0000
0100
1000
0000
0000
2002
0000
0000
,
0000
0000
0000
3003
0000
0010
0000
0110
,
0000
0101
0000
1100
0000
0001
0000
1010
,
0000
1000
0000
0011
0000
1000
0100
0001
,
0000
1000
0010
0001
0000
0001
0100
1000
,
0000
0001
0010
1000
0000
0002
0000
0003
,
1001
0120
1030
0001
,
0201
0000
1000
0000
0010
0000
0301
0200
,
2300
3002
2003
3002
,
0023
0032
0203
0302
,
0013
2100
3001
1200
,
0001
1000
0310
0001
,
0200
0010
0302
0023
,
0230
2300
3001
1001
,
0210
0301
1100
0020
,
0031
0201
1000
0310
,
0100
0000
1000
0000
0200
0000
0301
1000
,
0002
0023
0230
2300
3100
0000
0110
0000
,
0001
0000
1000
0100
1000
0100
1000
0000
,
1010
0010
1001
0010
,
0100
0001
0100
0001
0100
0001
0100
0001
,
0020
0000
0000
0000
0000
0000
0000
0000
0130
0000
0000
0100
0000
0000
0100
0000
,
0000
0100
0000
0000
0100
0000
1000
0000
0001
0000
0000
0001
0000
0000
0001
0000
,
0000
0001
0000
0000
0001
0000
1000
0000
0010
0000
0000
0010
0000
0000
0010
0000
,
0000
0010
0000
0000
0010
0000
0100
0000
0001
0000
0000
1000
0000
0000
0100
0000
,
0000
0010
0000
0000
0002
0000
0000
0000
0013
0000
0000
0010
0000
0000
0010
0000
,
0000
0010
0000
0000
0010
0000
0001
0000
1000
0000
0000
1000
0000
0000
1000
0000
,
0000
1000
0000
0000
1000
0000
0010
0000
0100
0000
0000
0100
0000
0000
0100
0000
,
0000
0100
0000
0000
0100
0000
0001
0000
0010
0000
0000
0010
0000
0000
0010
0000
,
0000
0010
0000
0000
0010
0000
0001
0000
0000
0000
0000
0000
0000
0000
0000
0000
;

//--------------- dance-single - NewbStepper-DSP ----------------
#NOTES:
     dance-single:
     NewbStepper-DSP:
     Medium:
     12:
     0.546939,0.69881,0.495238,0.466667,0.128571,402,350,52,49,0,0,0,0,0,0.546939,0.69881,0.495238,0.466667,0.128571,402,350,52,49,0,0,0,0,0:
0000
0000
0000
0000
,
0000
0000
0000
0000
,
0101
0000
0000
0001
0000
0000
0001
0000
,
0000
0001
0000
0000
0001
0000
1000
0000
,
0100
0000
0000
0100
0000
0000
0100
0000
,
0000
0100
0000
0000
0100
0000
0010
0000
,
1000
0000
0000
1000
0000
0000
1000
0000
,
0000
1000
0000
0000
0010
0000
0001
0000
,
0010
0000
0000
0010
0000
0000
0001
0000
,
0000
1000
0000
0000
1000
0000
0001
0000
,
0100
0000
0000
0100
0000
0000
0100
0000
,
0000
0100
0000
0000
0010
0000
1000
0000
,
0100
0000
0000
0100
0000
0000
0100
0000
,
0000
0100
0000
0000
0100
0000
0010
0000
,
0001
0000
0000
0001
0000
0000
0001
0000
,
0000
0001
0000
0000
0001
0000
1000
0000
,
0020
0000
0000
0100
,
2030
0000
0002
0000
,
0000
0000
0000
0000
0000
3003
0000
0001
,
0000
0100
0010
0002
0000
0013
2000
0000
,
3010
0200
0000
0000
0301
1000
0002
0000
,
0013
0000
0100
0002
0000
0103
2000
0000
,
3010
0200
0000
0000
0301
0000
1000
0010
,
0200
0000
0301
0100
0010
0002
0000
0013
,
1000
0200
0000
1300
0010
2000
0000
0001
,
3100
0010
1000
0000
0100
0000
0001
0000
,
0100
1000
1100
0101
,
1001
1010
0010
0010
,
0010
0100
0100
0100
,
0100
0001
0001
0001
,
0001
1000
1000
1000
,
1000
0000
0001
0100
0001
0000
0100
1000
,
0100
0000
1000
0010
1000
0000
0010
0001
,
0010
0000
0001
0001
0100
0100
0010
0010
,
1000
1000
0001
0100
2000
0000
3100
0001
,
1001
0000
0220
0330
0000
0100
0010
0100
,
0101
0000
1000
1010
0000
0001
0100
1000
,
0100
0000
0001
0000
0000
0011
0000
0000
1010
0000
0000
0011
0000
0000
1001
0000
,
0000
0100
0100
0101
0000
1100
0000
1001
,
0000
0220
0330
0000
0100
0010
0100
1100
,
0000
0001
0011
0000
1010
0000
0110
0000
,
1001
0100
0010
1001
0100
0010
2020
3030
,
0202
0303
0022
0033
2200
3300
2002
3003
,
0000
0100
0010
0100
1100
0000
0001
0011
,
0000
0000
1000
0000
0100
0000
0001
0000
0100
0000
1000
0000
0000
1010
0000
0000
,
0011
0000
0000
1010
0000
0000
0011
0000
0000
0000
0010
0000
0010
0000
0110
0000
,
0000
0101
0000
1100
0000
0001
1000
1010
,
0000
1000
0001
0011
0000
1000
0100
0001
,
1000
0010
0001
0100
1000
0100
0001
2000
,
0000
3100
0010
0002
0000
1003
1000
1000
,
1001
0000
0120
0000
1030
0100
0001
0000
,
0201
0000
1000
0000
0010
0000
0301
0200
,
1300
0000
1000
0001
0000
0001
1000
0000
1000
0002
0000
0000
,
0013
0000
0010
0001
0000
0001
0100
0000
0100
0002
0000
0000
,
0013
0100
2100
0000
3001
0000
1200
0000
,
0001
0000
1000
0000
0310
0000
0001
0001
,
0200
0000
0010
0000
0301
0100
0010
1000
,
0000
0000
0000
1100
0000
0000
0000
0000
0000
0011
0000
0000
0001
0000
0000
0000
1000
0000
0001
0000
0000
0000
0000
0000
,
0210
0000
0301
0000
1100
0100
0020
0000
,
0031
0201
1000
0310
,
0100
0010
1000
0010
0200
0000
0301
1000
,
0002
0023
0230
2300
3100
0000
0110
0000
,
0001
0100
0010
0100
0001
1000
0001
0000
,
0011
0000
0010
0100
1100
0000
0001
0000
,
0100
0001
1000
0010
0000
0010
1000
0100
,
0020
0000
0001
0000
0000
0000
0000
0000
0130
0000
0000
0100
0000
0000
0100
0000
,
0000
0100
0000
0000
0100
0000
1000
0000
0001
0000
0000
0001
0000
0000
0001
0000
,
0000
0001
0000
0000
0001
0000
1000
0000
0010
0000
0000
0010
0000
0000
0010
0000
,
0000
0010
0000
0000
0010
0000
0100
0000
0001
0000
0000
1000
0000
0000
0100
0000
,
0000
0010
0000
0000
0002
0000
0000
0000
0013
0000
0000
0010
0000
0000
0010
0000
,
0000
0010
0000
0000
0010
0000
0001
0000
1000
0000
0000
1000
0000
0000
1000
0000
,
0000
1000
0000
0000
1000
0000
0010
0000
0100
0000
0000
0100
0000
0000
0100
0000
,
0000
0100
0000
0000
0100
0000
0001
0000
0010
0000
0000
0010
0000
0000
0010
0000
,
0000
0010
0000
0000
0010
0000
0001
0000
0000
0000
0000
0000
0000
0000
0000
0000
;

//--------------- dance-single - leeium-ESP ----------------
#NOTES:
     dance-single:
     leeium-ESP:
     Hard:
     15:
     0.628571,0.873512,0.533333,0.457143,0.352381,462,406,56,48,0,0,0,0,0,0.628571,0.873512,0.533333,0.457143,0.352381,462,406,56,48,0,0,0,0,0:
0000
0000
0000
0000
,
0000
0000
0000
0000
,
0101
0000
0000
0001
0000
0000
0001
0000
,
0000
0001
0000
0000
0001
0000
1000
0000
,
0100
0000
0000
0100
0000
0000
0100
0000
,
0000
0100
0000
0000
0100
0000
0010
0000
,
1000
0000
0000
1000
0000
0000
1000
0000
,
0000
1000
0000
0000
0010
0000
0001
0000
,
0010
0000
0000
0010
0000
0000
0001
0000
,
0000
1000
0000
0000
1000
0000
0001
0000
,
0100
0000
0000
0100
0000
0000
0100
0000
,
0000
0100
0000
0000
0010
0000
1000
0000
,
0100
0000
0000
0100
0000
0000
0100
0000
,
0000
0100
0000
0000
0100
0000
0010
0000
,
0001
0000
0000
0001
0000
0000
0001
0000
,
0000
0001
0000
0000
0001
0000
1000
0000
,
0020
0000
0000
0100
,
2030
0000
0002
0000
,
0000
0000
0000
0000
0000
3003
0000
0001
,
0010
0100
0010
0002
0000
0013
0002
0000
,
0013
0200
0000
0000
1300
0001
2000
0000
,
3010
0100
0010
2000
0000
3010
2000
0000
,
3010
0200
0000
0000
0301
0010
0001
0010
,
0200
0000
1300
0100
1000
0002
0000
1003
,
0010
2000
0000
3001
0010
0002
0000
1003
,
0100
0010
0002
0000
0100
0000
2003
0000
,
0100
3001
1100
0101
,
1001
0000
0000
0000
1010
0000
0000
0000
0010
0000
0000
0000
0010
0000
0000
0010
,
0000
0000
0010
0000
0100
0000
0000
0000
0100
0000
0000
0000
0100
0000
0000
0100
,
0000
0000
0100
0000
0001
0000
0000
0000
0001
0000
0000
0000
0001
0000
0000
0001
,
0000
0000
0001
0000
1000
0000
0000
0000
1000
0000
0000
0000
1000
0000
0000
1000
,
0000
1000
0001
0001
0100
0100
0010
0010
,
1000
1000
0100
0010
0001
0001
1000
1000
,
0010
0000
0100
0000
0001
0100
0001
0100
0010
1000
0010
1000
0001
0010
0001
0010
,
0100
0000
1000
0000
0001
0100
0001
0100
2000
0000
0000
0000
3100
0000
0001
0000
,
1001
0000
0000
0000
0220
0000
0330
0010
1000
0010
1000
0001
1000
0010
0100
0000
,
0101
0000
0000
0000
1001
0000
1000
0001
0000
0000
0001
0000
0100
0000
0010
1000
,
0010
1000
0010
0000
0000
0011
0000
0000
1010
0000
0000
0011
0000
0000
1001
0000
,
0000
0001
0100
0000
0100
0000
0101
0000
0000
0000
1100
0000
0000
0000
1001
0000
,
0000
0000
0220
0000
0330
0010
0001
0010
0001
1000
0001
0010
0100
0000
0110
0000
,
0000
0010
0001
0010
0001
1000
0000
0000
1010
0000
0000
0000
0110
0000
0000
0000
,
0101
0000
0001
1000
0001
0000
1100
0000
1000
0001
1000
0000
0022
0000
0033
0000
,
2200
0000
3300
0000
2020
0000
3030
0000
0202
0000
0303
0000
2002
0000
3003
0010
,
1000
0010
1000
0001
1000
0010
0100
0000
0101
0000
0000
0000
1001
0000
1000
0001
,
0000
0000
0001
0000
0100
0000
0120
0000
0000
0000
0031
0000
0000
1010
0000
0000
,
0011
0000
0000
1010
0000
0000
0011
0000
0000
0001
0010
0000
0010
0000
0110
0000
,
0000
0101
0000
1100
0000
1001
1000
0010
,
1010
1000
0001
0011
0001
1000
1001
0001
,
1000
1010
0010
0110
0010
0100
0001
2000
,
0000
3100
0010
0002
0000
1003
1000
1000
,
1001
0000
0120
0000
1030
0100
0001
0000
,
0201
0000
1000
0000
0010
0000
0301
0200
,
1300
0100
1000
0001
0100
0001
1000
0010
1000
0002
0000
0000
,
0013
0100
0010
0001
1000
0001
0100
0000
0100
0002
0000
0000
,
0013
0100
2100
0000
3001
0000
1200
0000
,
0001
0000
1000
0000
0310
0000
0001
0001
,
0200
0000
0010
0000
1300
0100
0010
0001
,
0000
0000
0000
0101
0000
0000
0000
0000
0000
1010
0000
0000
0000
0000
0001
0000
1000
0000
0001
0000
0000
0000
0000
0000
,
0210
0000
0301
0000
1100
0100
0020
0000
,
0031
0201
1000
0310
,
0100
0010
1000
0010
0200
0000
0301
1000
,
0001
0000
0001
0100
0001
0010
0100
0001
0100
0000
0000
0000
0110
0000
0000
0000
,
0001
0100
0010
0100
0001
1000
0001
0000
,
0011
0000
0010
0100
1100
0000
0001
0000
,
0100
0001
1000
0010
0000
0010
1000
0100
,
0020
0000
0001
0000
0000
0000
0000
0000
0130
0000
0000
0100
0000
0000
0100
0000
,
0000
0100
0000
0000
0100
0000
1000
0000
0001
0000
0000
0001
0000
0000
0001
0000
,
0000
0001
0000
0000
0001
0000
1000
0000
0010
0000
0000
0010
0000
0000
0010
0000
,
0000
0010
0000
0000
0010
0000
0100
0000
1000
0000
0001
0010
0000
0100
0000
1000
,
0000
0100
0000
0002
0000
0000
0000
0000
0013
0000
0000
0010
0000
0000
0010
0000
,
0000
0010
0000
0000
0010
0000
0001
0000
1000
0000
0000
1000
0000
0000
1000
0000
,
0000
1000
0000
0000
1000
0000
0010
0000
0100
0000
0000
0100
0000
0000
0100
0000
,
0000
0100
0000
0000
0100
0000
0001
0000
0010
0000
0000
0010
0000
0000
0010
0000
,
0000
0010
0000
0000
0010
0000
0001
0000
0000
0000
0000
0000
0000
0000
0000
0000
;

//--------------- dance-double - NewbStepper-BDP ----------------
#NOTES:
     dance-double:
     NewbStepper-BDP:
     Easy:
     10:
     0.436735,0.524107,0.27619,0.438095,0.07619,321,292,29,46,0,0,0,0,0,0.436735,0.524107,0.27619,0.438095,0.07619,321,292,29,46,0,0,0,0,0:
00000000
00000000
00000000
00000000
,
00000000
00000000
00000000
00000000
,
11000000
00000000
00000000
10000000
00000000
00000000
10000000
00000000
,
00000000
10000000
00000000
00000000
10000000
00000000
00010000
00000000
,
01000000
00000000
00000000
01000000
00000000
00000000
01000000
00000000
,
00000000
01000000
00000000
00000000
00010000
00000000
00001000
00000000
,
00000010
00000000
00000000
00000010
00000000
00000000
00000010
00000000
,
00000000
00000010
00000000
00000000
00000001
00000000
00000100
00000000
,
00000001
00000000
00000000
00000001
00000000
00000000
00001000
00000000
,
00000000
00001000
00000000
00000000
00001000
00000000
00000001
00000000
,
00000100
00000000
00000000
00000100
00000000
00000000
00000100
00000000
,
00000000
00000100
00000000
00000000
00000010
00000000
00001000
00000000
,
00010000
00000000
00000000
00010000
00000000
00000000
00010000
00000000
,
00000000
00010000
00000000
00000000
00010000
00000000
01000000
00000000
,
00100000
00000000
00000000
00100000
00000000
00000000
00100000
00000000
,
00000000
00100000
00000000
00000000
00100000
00000000
10000000
00000000
,
00200000
00000000
00000000
01000000
,
00320000
00000000
00002000
00000000
,
00000000
00000000
00000000
00000000
00033000
00000000
00000000
00000010
,
00000000
00001000
00000000
00000001
00000000
00000001
00000010
00000000
,
00000010
00001000
00000000
00000000
00010000
00001000
00010000
00000000
,
01000000
00000000
01000000
10000000
00000000
10000000
00100000
00000000
,
00100000
00010000
00000000
00000000
00001000
00000000
00010000
00000000
,
00001000
00000000
00000100
00000002
00000000
00000010
00000000
00001003
,
00000000
00000100
00000000
00000020
00000000
00000001
00000000
00001030
,
00000000
00010000
00001000
00000000
00100000
00000000
00010000
00000000
,
00000000
10000000
00000000
00100000
00000000
01000000
00000000
00000000
,
10010000
10000000
10000000
10000000
,
10000000
01000000
01000000
01000000
,
01000000
00100000
00100000
00100000
,
00100000
00010000
00010000
00010000
,
00010000
00001000
00000100
00000010
,
00000001
00000100
00001000
00010000
,
00100000
10000000
00010000
10100000
,
00010000
00001000
00000010
00000011
,
00001001
00000000
00000220
00000330
00000000
00000000
00000010
00000000
,
00000001
00000001
00001000
00001000
00000000
00000001
00000000
00000100
,
00000000
00002000
00000000
00000000
00000000
00000000
00003000
00011000
,
00000000
01000000
00000000
01010000
00000000
11000000
00000000
10010000
,
00000000
02200000
03300000
00000000
00100000
00000000
10000000
10000000
,
00000000
00010000
00010000
01000000
00000000
01000000
00000000
00100000
,
00000000
00010000
00001000
00011000
00000000
00000010
00000200
00000000
,
00000302
00000000
00000023
00000000
00000230
00000000
00002000
00003300
,
00000000
00010000
00000000
00010000
01000000
00000000
01000000
00100000
,
00000000
00100000
10000000
00000000
00000000
20020000
00000000
00000000
,
00000000
00000000
00000000
30030000
00000000
00100000
00000000
01100000
,
00000000
01010000
00000000
11000000
00000000
00010000
00000000
00011000
,
00000000
00000100
00000000
00000011
00000000
00000001
00000100
00001000
,
00000000
00010000
00100000
10000000
00000000
10000000
01000000
00010000
,
00000000
00001000
00000010
00000001
00000000
00002000
00000000
00003000
,
00001001
00000120
00001030
00000001
,
00001200
00000000
00010000
00000000
00001000
00000000
00010300
00002000
,
00203000
02300000
23000000
30200000
,
02300000
03020000
00230000
02300000
,
13000000
01200000
00310000
10000000
,
02010000
00001000
00010000
03001000
,
00000020
00000100
00000032
00000023
,
00000230
00002300
00013000
00001000
,
00000210
00000301
00001100
00000020
,
00000031
00001200
00000010
00010300
,
00001000
00000000
00010000
00000000
02000000
00000000
13000000
00010000
,
20000000
30200000
02300000
03020000
01030000
00000000
01100000
00000000
,
10000000
00000000
00010000
01000000
00010000
01000000
00010000
00000000
,
00110000
00001000
00011000
00000100
,
00000001
00000100
00000001
00000100
00000001
00000100
00000001
00000000
,
00002000
00000000
00000000
00000000
00000000
00000000
00000000
00000000
00003100
00000000
00000000
00000100
00000000
00000000
00000100
00000000
,
00000000
00000100
00000000
00000000
00000100
00000000
00010000
00000000
00001000
00000000
00000000
00001000
00000000
00000000
00001000
00000000
,
00000000
00001000
00000000
00000000
00001000
00000000
00100000
00000000
00010000
00000000
00000000
00010000
00000000
00000000
00010000
00000000
,
00000000
00010000
00000000
00000000
00010000
00000000
10000000
00000000
01000000
00000000
00000000
00010000
00000000
00000000
00001000
00000000
,
00000000
00010000
00000000
00000000
00200000
00000000
00000000
00000000
01300000
00000000
00000000
01000000
00000000
00000000
01000000
00000000
,
00000000
01000000
00000000
00000000
01000000
00000000
00001000
00000000
00010000
00000000
00000000
00010000
00000000
00000000
00010000
00000000
,
00000000
00010000
00000000
00000000
00010000
00000000
00000010
00000000
00001000
00000000
00000000
00001000
00000000
00000000
00001000
00000000
,
00000000
00001000
00000000
00000000
00001000
00000000
00000001
00000000
00000010
00000000
00000000
00000010
00000000
00000000
00000010
00000000
,
00000000
00000010
00000000
00000000
00000010
00000000
00000001
00000000
00000000
00000000
00000000
00000000
00000000
00000000
00000000
00000000
;

//--------------- dance-double - NewbStepper-DDP ----------------
#NOTES:
     dance-double:
     NewbStepper-DDP:
     Medium:
     13:
     0.563265,0.69881,0.466667,0.457143,0.128571,414,365,49,48,0,0,0,0,0,0.563265,0.69881,0.466667,0.457143,0.128571,414,365,49,48,0,0,0,0,0:
00000000
00000000
00000000
00000000
,
00000000
00000000
00000000
00000000
,
00000101
00000000
00000001
00000020
00000000
00000000
00000000
00000000
,
00000030
00001000
00010000
00001000
00000010
00001000
00010000
00000000
,
01000000
00000000
10000000
00200000
00000000
00000000
00000000
00000000
,
00300000
00010000
00000000
00001000
00000000
00010000
00100000
00000000
,
10000000
00000000
01000000
00100000
01000000
00000000
00010000
00000000
,
00001000
00000010
00001000
00000000
00000110
00000000
00000001
00000000
,
00000100
00000010
00000100
00000000
00001000
00000000
00000000
00010000
,
00000000
00001000
00000000
00011000
00000000
00000000
00100000
00000000
,
11000000
00000000
10000000
00200000
00000000
00000000
00000000
00000000
,
00300000
00010000
00001000
00010000
00100000
00010000
00001000
00000000
,
00000100
00000000
00000001
00000020
00000000
00000000
00000000
00000000
,
00000030
00001000
00010000
00000000
00001000
00000010
00000001
00000000
,
00000100
00000000
00001000
00000000
00010000
00000000
01000000
20000000
,
00000000
00000000
00000000
30000000
00000000
00010000
01000000
00100000
,
20000000
00000000
31000000
00010000
,
00002000
00000000
00020000
00000000
,
00000000
00000000
00000000
00000000
00033000
00000000
00000000
00010000
,
00000000
00001000
00000100
00000020
00000000
00001030
00000200
00000000
,
00000301
00000200
00000000
00000000
00010300
00001000
00020000
00000000
,
00031000
00000000
00010000
00200000
00000000
10300000
00200000
00000000
,
00301000
00020000
00000000
00000000
00031000
00000000
00000100
00000001
,
00000020
00000000
00001030
00010000
00001000
00000200
00000000
00001300
,
00010000
02000000
00000000
03100000
00010000
00200000
00000000
00301000
,
00010000
01000000
10000000
00000000
01000000
00000000
00010000
00000000
,
00000000
00001000
00000000
00000100
00000000
00000001
00000000
00000000
,
00001001
00000001
00000001
00000010
,
00000010
00000100
00000100
00001000
,
00001000
00010000
00010000
00100000
,
00100000
01000000
01000000
10000000
,
10000000
00000000
01000000
00100000
01000000
00000000
00010000
00001000
,
00010000
00000000
00100000
01000000
00100000
00000000
00010000
00001000
,
00010000
00000000
00001000
00001000
00000100
00000100
00000001
00000001
,
00000010
00000010
00001000
00010000
00200000
00000000
00310000
00001000
,
00000010
00000000
00000220
00000330
00000000
00000100
00000010
00000100
,
00001100
00000000
00010000
00011000
00000000
00001000
00010000
01000000
,
10000000
00000000
00010000
00000000
00000000
00110000
00000000
00000000
10100000
00000000
00000000
11000000
00000000
00000000
01010000
00000000
,
00000000
00001000
00001000
00011000
00000000
00010010
00000000
00101000
,
00000000
02200000
03300000
00000000
00100000
01000000
00100000
00110000
,
00000000
00001000
00011000
00000000
00000101
00000000
00000110
00000000
,
00000001
00000100
00000110
00001000
00010000
00011000
00100000
10000000
,
20200000
30300000
02020000
03030000
00220000
00330000
20020000
30030000
,
00000000
00100000
01000000
00100000
00110000
00000000
00001000
00011000
,
00000000
00000000
00010000
00000000
00001000
00000000
00000100
00000000
00000001
00000000
00001000
00000000
00000000
00001010
00000000
00000000
,
00000011
00000000
00000000
00000101
00000000
00000000
00001100
00000000
00000000
00000000
00010000
00000000
00010000
00000000
00011000
00000000
,
00000000
00010010
00000000
00101000
00000000
00001000
00010000
00001000
,
00010000
00100000
01000000
00100000
01000000
10000000
01000000
10000000
,
01000000
00100000
00010000
00100000
00010000
00001000
00010000
00002000
,
00000000
00003010
00000001
00000020
00000000
00000130
00000100
00000100
,
00001001
00000000
00000120
00000000
00000031
00000100
00001000
00000000
,
00012000
00000000
00100000
00000000
00000010
00000000
00013000
00100000
,
10000000
00000000
10000000
01000000
00000000
01000000
00010000
00000000
00010000
00002000
00000000
00000000
,
00003010
00000000
00000010
00001000
00000000
00001000
00010000
00000000
00010000
00100000
00000000
00000000
,
10010000
02100000
03010000
00021000
,
00000010
00000000
00001000
00000000
00030100
00000000
00000010
00000010
,
00000002
00000000
00001000
00000000
00000103
00001000
00010000
01000000
,
00000000
00000000
00000000
11000000
00000000
00000000
00000000
00000000
00000000
00110000
00000000
00000000
00010000
00000000
00000000
00000000
10000000
00000000
00010000
00000000
00000000
00000000
00000000
00000000
,
01200000
00000000
10300000
01000000
00010000
00000000
00021000
00000000
,
00000010
00000000
00100000
00000000
00031000
00000000
00000010
00000001
,
00000010
00000100
00001000
00000001
00000200
00000000
00001300
00010000
,
00002000
00203000
00320000
20030000
31000000
00000000
01100000
00000000
,
10000000
01000000
00010000
00000000
00011000
00001000
00010000
00000000
,
00001000
00001010
00000001
00000010
,
00001000
00000000
00010000
01000000
00000000
00100000
00000000
00010000
,
00000000
00000000
00001000
00000000
00000000
00000000
00000000
00000000
00001001
00000000
00000000
00000001
00000000
00000000
00001000
00000000
,
00000000
00001000
00000000
00000000
00010000
00000000
01000000
00000000
00100000
00000000
00000000
00100000
00000000
00000000
01000000
00000000
,
00000000
01000000
00000000
00000000
01000000
00000000
00010000
00000000
10000000
00000000
00000000
10000000
00000000
00000000
00010000
00000000
,
00000000
00010000
00000000
00000000
00001000
00000000
00000100
00000000
00000010
00000000
00000000
00000001
00000000
00000000
00000100
00000000
,
00000000
00001000
00000000
00000000
00020000
00000000
00000000
00000000
00130000
00000000
00000000
10000000
00000000
00000000
00010000
00000000
,
00000000
00010000
00000000
00000000
00001000
00000000
00000100
00000000
00000010
00000000
00000000
00000010
00000000
00000000
00000100
00000000
,
00000000
00000100
00000000
00000000
00000100
00000000
00001000
00000000
00000001
00000000
00000000
00000001
00000000
00000000
00001000
00000000
,
00000000
00001000
00000000
00000000
00010000
00000000
01000000
00000000
00100000
00000000
00000000
00100000
00000000
00000000
01000000
00000000
,
00000000
01000000
00000000
00000000
01000000
00000000
00010000
00000000
00000000
00000000
00000000
00000000
00000000
00000000
00000000
00000000
;

//--------------- dance-double - NewbStepper-EDP ----------------
#NOTES:
     dance-double:
     NewbStepper-EDP:
     Hard:
     16:
     0.706122,0.943393,0.647619,0.361905,0.433333,519,451,68,38,0,0,0,0,0,0.706122,0.943393,0.647619,0.361905,0.433333,519,451,68,38,0,0,0,0,0:
00000000
00000000
00000000
00000000
,
00000000
00000000
00000000
00000000
,
11000000
00000000
10000000
00200000
00000000
00000000
00000000
00000000
,
00300000
00010000
00001000
00010000
00100000
00010000
00001000
00000000
,
00000100
00000000
00000001
00000020
00000000
00000000
00000000
00000000
,
00000030
00001000
00000000
00010000
00001000
00000010
00000001
00000010
,
00001000
00010000
01000000
10000000
00100000
00000000
00010000
00100000
,
10000000
01000000
00010000
00000000
00001000
00010000
00011000
00000000
,
00001000
00000100
00000001
00000010
00001000
00000000
00010000
01010000
,
00000000
00011000
00000000
00001100
00000000
00000000
00000010
00000000
,
00000101
00000000
00000001
00000020
00000000
00000000
00000000
00000000
,
00000030
00001000
00010000
00001000
00000010
00001000
00010000
00100000
,
10000000
01000000
00010000
00002000
00000000
00000000
00003000
00000000
,
00000010
00001000
00100000
00010000
00001000
00000100
00010000
01000000
,
01100000
00000000
10010000
00000000
11000000
00000000
00110000
02000000
,
00000000
00000000
00000000
00000000
03000000
10000000
00100000
00010000
,
00000200
00000000
00000301
00000100
,
00002000
00000000
00000002
00000000
,
00000000
00000000
00000000
00000000
00003003
00000000
00000000
00000010
,
00001000
00010000
00001000
00000010
00000000
00000100
00000101
00000000
,
00001000
00011000
00000000
00000000
00100000
00010000
00001000
00000000
,
00011000
00000000
00100000
01010000
00000000
00100000
11000000
00000000
,
00010000
00011000
00000000
00000000
00000010
00000100
00010000
00100000
,
00020000
00000000
10030000
00100000
00001000
00020000
00000000
10030000
,
01000000
00002000
00000000
00013000
00000010
00000002
00000000
00000103
,
00001000
01000000
00010000
00000000
00000000
00000000
10000000
00000000
,
00000000
11000000
00110000
00001100
,
00000011
00002000
00000010
00000001
,
00000100
00023000
00100000
10000000
,
01000000
00032000
00000001
00010000
,
00100000
00023000
10000000
00001000
,
00000010
00000000
00031000
00000100
00000010
00000000
00000001
00000000
,
00000100
00001000
00010000
01000000
00010000
00001000
00010000
00000000
,
00001000
00000000
00000100
00000000
00000001
00000100
00000001
00000100
00000010
00001000
00000010
00001000
00010000
01000000
00010000
01000000
,
00100000
00000000
10000000
00000000
00010000
01000000
00010000
01000000
10000000
00000000
01000000
00100000
01000000
00000000
00001000
00000000
,
01001000
00000000
00000000
00000000
00012000
00000000
00003000
00010000
00000100
00010000
00001000
00010000
00000100
00010000
00001000
00000000
,
00001010
00000000
00000000
00000000
00000011
00000000
00000001
00000100
00000000
00000000
00001000
00010000
00001000
00100000
00010000
10000000
,
00100000
10000000
00010000
00000000
00000000
10100000
00000000
00000000
00110000
00000000
00000000
00011000
00000000
00000000
00001010
00000000
,
00000000
00000010
00000001
00000000
00000001
00000000
00000101
00000000
00000000
00000000
00001100
00000000
00000000
00000000
00010010
00000000
,
00000000
00000000
00022000
00000000
00033000
00001000
01000000
00001000
00010000
00001000
01000000
00001000
00010000
00000000
00110000
00000000
,
00000000
00100000
10000000
00000000
01000000
00100000
00000000
00000000
00010000
00100000
00010000
00100000
00001000
00000000
00000000
00000000
,
00011000
00000000
00010000
00001000
00000010
00000000
00000011
00000000
00000001
00000100
00000010
00000000
00000220
00000000
00000330
00000000
,
00002002
00000000
00003003
00000000
00022000
00000000
00033000
00000000
20020000
00000000
30030000
00000000
00021000
00000000
00030000
00001000
,
01000000
00001000
00010000
00001000
01000000
00001000
00010000
00000000
00110000
00000000
00000000
00000000
10100000
00000000
10000000
01000000
,
00000000
00000000
00010000
00001000
00010000
00000010
00001000
00000001
00000010
00000001
00001000
00000000
00000000
00000011
00000000
00000000
,
00001010
00000000
00000000
00011000
00000000
00000000
00110000
00000000
00000000
00100000
10000000
00000000
10000000
00000000
11000000
00000000
,
00000000
00000000
01010000
00000000
00000000
00000000
01100000
00000000
00000000
00000000
10010000
00000000
10000000
01000000
00010000
00000000
,
00001000
00000000
00000100
00000000
00001000
00000000
00100000
00010000
01000000
00000000
00001000
00010000
00000100
00000000
00000010
00000000
,
00000001
00000100
00001000
00000000
00010000
00000000
00001000
00100000
00001000
00000000
01001000
00000000
01000000
00000000
01100000
00000000
,
00100000
10100000
10000000
11000000
00000000
00010000
00001000
00010000
,
00011000
00000000
00000120
00000000
00001030
00000100
00000001
00000000
,
00000201
00000000
00010000
00000000
00000010
00000000
00001300
00011000
,
00010000
00100000
00010000
10000000
00010000
01000000
00010000
00001000
00000010
00002000
00000000
00000000
,
00003001
00000100
00001000
00010000
01000000
10000000
00020000
00000000
00000000
10030000
00000000
00000000
,
01200000
00300000
00010000
01000000
10000000
00000000
12000000
00000000
,
00001000
00000000
00100000
00000000
03010000
00000000
00001000
00001000
,
00001200
00000000
00000000
00000310
00000000
00000000
00000001
00000100
00000010
00001000
00010000
01000000
,
00100000
00000000
10000000
01000000
00000000
00100000
00010000
00001000
00000100
00000010
00000000
00000000
,
00001001
00000000
00001000
00000010
00000001
00000000
00000021
00000000
,
00010000
00000000
00000100
00000000
00001030
00000000
00010000
01000000
,
00100000
10000000
01000000
00010000
00001000
00000000
00000010
00000100
,
00000110
00000000
00000001
00000100
00001000
00010000
01000000
00000000
01100000
00000000
00000000
00000000
00010000
00000000
00100000
00000000
,
10000000
00000000
00100000
00010000
00001000
00010000
01000000
00000000
,
00200000
00000000
00000000
00000000
00000000
00000000
00310000
00000000
00000000
00001000
00000000
00000000
00010000
00000000
00001000
00000000
00000010
00000000
00000001
00000000
00000100
00000000
00000010
00000000
,
00001000
00000000
00001001
00000000
00000100
00000001
00000010
00001000
,
00010000
00000000
00000000
00000000
01100000
00000000
00000000
00000000
10010000
00000000
00000000
10000000
00000000
00000000
00010000
00000000
,
00000000
00010000
00000000
00000000
00001000
00000000
00000100
00000000
00000010
00000000
00000000
00000010
00000000
00000000
00000100
00000000
,
00000000
00000100
00000000
00000000
00000100
00000000
00001000
00000000
00000001
00000000
00000000
00000001
00000000
00000000
00001000
00000000
,
00000000
00001000
00000000
00000000
00010000
00000000
01000000
00000000
00100000
00000000
10000000
01000000
00000000
00010000
00000000
00001000
,
00000000
00000100
00000000
00000002
00000000
00000003
00001000
00000000
00000001
00000000
00000000
00000001
00000000
00000000
00001000
00000000
,
00000000
00001000
00000000
00000000
00010000
00000000
01000000
00000000
00100000
00000000
00000000
00100000
00000000
00000000
01000000
00000000
,
00000000
01000000
00000000
00000000
01000000
00000000
00010000
00000000
10000000
00000000
00000000
10000000
00000000
00000000
00010000
00000000
,
00000000
00010000
00000000
00000000
00001000
00000000
00000100
00000000
00000010
00000000
00000000
00000010
00000000
00000000
00000100
00000000
,
00000000
00000100
00000000
00000000
00001000
00000000
00000001
00000000
00000000
00000000
00000000
00000000
00000000
00000000
00000000
00000000
;
