#VERSION:0.83;
#TITLE:BLUEALiCE;
#ARTIST:onoken;
#BANNER:BLUEALiCE.png;
#BACKGROUND:BLUEALiCE-bg.png;
#JACKET:BLUEALiCE-jacket.png;
#MUSIC:BLUEALiCE.ogg;
#OFFSET:-0.132;
#SAMPLESTART:61.336491;
#SAMPLELENGTH:15;
#BPMS:0=196;

//---------------dance-single - Pandemonium X-ESP----------------
#NOTEDATA:;
#CHARTNAME:Pandemonium X-ESP;
#STEPSTYPE:dance-single;
#DESCRIPTION:Pandemonium X-ESP;
#DIFFICULTY:Hard;
#METER:16;
#RADARVALUES:0.712382,0.979275,0.304163,0.160086,0.608326,623,585,38,20,0,0,0,0,0,0.712382,0.979275,0.304163,0.160086,0.608326,623,585,38,20,0,0,0,0,0;
#CREDIT:Pandemonium X;
#NOTES:
// measure 0
0000
0000
0000
0000
,  // measure 1
0000
0000
0000
0000
,  // measure 2
0000
0000
0000
0000
,  // measure 3
0000
0000
0000
0000
,  // measure 4
0220
0000
0000
0000
,  // measure 5
0000
0000
0000
0000
,  // measure 6
0000
0000
0330
0000
,  // measure 7
0000
0000
0000
0000
,  // measure 8
2010
0000
0001
0000
,  // measure 9
0010
0000
3001
0000
,  // measure 10
0102
0000
2003
0000
,  // measure 11
3200
0000
1300
0000
,  // measure 12
2010
0000
0001
0000
,  // measure 13
3020
0000
1000
0000
,  // measure 14
0230
0000
0310
0000
,  // measure 15
2000
0000
3001
0000
,  // measure 16
1000
1000
0001
0001
,  // measure 17
0100
0010
0100
0010
1000
0001
1000
0001
,  // measure 18
0010
0000
0000
0010
0000
0000
0100
0000
1000
0000
0000
1000
0000
0000
0001
0000
,  // measure 19
0010
0000
0000
0010
0000
0000
0001
0000
1000
0000
0000
0100
0000
0000
0010
0000
,  // measure 20
0100
0000
0000
0100
0000
0000
1000
0000
0010
0000
0000
0010
0000
0000
0100
0000
,  // measure 21
0010
0000
0000
0010
0000
0000
0100
0000
0001
0000
0000
1000
0000
0000
0001
0000
,  // measure 22
0010
0000
0000
0010
0000
0000
0001
0000
0100
0000
0000
0100
0000
0000
0010
0000
,  // measure 23
1000
0000
0000
1000
0000
0000
0100
0000
0010
0000
0000
0001
0000
0000
0100
0000
,  // measure 24
0001
0000
0000
0001
0000
0000
1000
0000
0100
0000
0000
0100
0000
0000
0010
0000
,  // measure 25
0001
0000
0000
0001
0000
0000
0010
0000
0001
0000
0000
1000
0000
0000
0010
0000
,  // measure 26
0110
0000
0000
0100
0000
0000
0010
0000
1000
0000
0000
0001
0000
0000
0010
0000
,  // measure 27
0011
0000
0000
0100
0000
0000
1000
0000
0100
0000
0000
0010
0000
0000
0001
0000
,  // measure 28
1001
0000
0000
1000
0000
0000
0100
0000
1000
0000
0000
0010
0000
0000
1000
0000
,  // measure 29
1100
0000
0000
1000
0000
0000
0010
0000
0100
0000
0000
0001
0000
0000
0010
0000
,  // measure 30
0011
0000
0000
0001
0000
0000
0010
0000
0110
0000
0000
0010
0000
0000
0001
0000
,  // measure 31
1001
0000
0000
0001
0000
0000
1000
0000
1100
0000
0000
0100
0000
0000
0010
0000
,  // measure 32
0110
0000
0000
0100
0000
0000
1000
0000
1100
0000
0000
0001
0000
0000
0100
0000
,  // measure 33
0020
0000
0000
0130
0000
0000
0001
0000
2000
0000
0000
3010
0000
0000
0100
0000
,  // measure 34
1001
1000
0001
1000
0001
0010
0100
1000
,  // measure 35
0000
0000
0000
0000
,  // measure 36
0001
1000
0001
1000
0001
1000
0001
1000
,  // measure 37
0001
0010
0001
1000
0010
1000
0001
0010
,  // measure 38
0001
1000
0001
1000
0001
0010
0100
1000
,  // measure 39
0000
0000
0000
0000
,  // measure 40
0001
1000
0001
1000
0001
1000
0001
1000
,  // measure 41
0010
0100
0001
0100
0010
1000
0001
0010
,  // measure 42
0110
0100
1000
0010
0100
0001
1000
0000
,  // measure 43
1001
1000
0010
0100
0001
0001
0010
0100
,  // measure 44
0110
0010
0001
1000
0010
0010
0100
0000
,  // measure 45
1001
1000
0001
0010
0100
0100
0010
0001
,  // measure 46
1001
0001
0100
0010
1001
1000
0100
0010
,  // measure 47
1001
0001
0100
0010
1001
1000
0100
0010
,  // measure 48
0002
0000
0203
0000
0310
1000
0010
0100
,  // measure 49
0020
0030
0010
0100
0020
0030
1001
0000
,  // measure 50
1000
0000
0000
0001
0000
0000
0010
0001
0010
0000
0000
0001
0000
0000
0100
0010
,  // measure 51
0100
0000
0000
0010
0000
0000
0100
0001
1000
0000
0000
0100
0000
0000
0010
0100
,  // measure 52
0010
0000
0000
0100
0000
0000
1000
0010
1000
0000
0000
0010
0000
0000
0100
0001
,  // measure 53
0100
0000
0000
0010
0000
0000
0100
0001
0010
0000
0000
0100
0000
0000
1000
0001
,  // measure 54
1000
0000
0000
0010
0000
0000
0100
0001
0100
0000
0000
0001
0000
0000
0010
0100
,  // measure 55
0010
0000
0000
0100
0000
0000
0010
0001
1000
0000
0000
0001
0000
0000
1000
0001
,  // measure 56
0100
0000
0000
0010
0000
0000
0100
0010
1000
0000
0000
0100
0000
0000
0010
0100
,  // measure 57
1000
0000
0000
0100
0000
0000
0010
0001
0100
0000
0000
0010
0000
0000
1000
0001
,  // measure 58
0010
0000
0000
0100
0000
0000
0010
0001
0100
0000
0000
0010
0000
0000
0100
0001
,  // measure 59
1000
0000
0000
0001
0000
0000
1000
0100
0001
0000
0000
0100
0000
0000
1000
0010
,  // measure 60
0100
0000
0000
0010
0000
0000
0100
0001
0010
0000
0000
0100
0000
0000
0010
0001
,  // measure 61
1000
0000
0000
0001
0000
0000
1000
0010
0001
0000
0000
0010
0000
0000
0100
0001
,  // measure 62
1000
0000
0000
0100
0000
0000
0010
0001
1000
0000
0000
0001
0000
0000
0100
0001
,  // measure 63
1000
0000
0000
0100
0000
0000
1000
0100
0001
0000
0000
0100
0000
0000
0010
0001
,  // measure 64
0100
0000
0000
0010
0000
0000
0100
0010
1000
0000
0000
0001
0000
0000
1000
0001
,  // measure 65
0100
0000
0010
0000
0000
0000
2002
0000
0000
0000
3003
0000
0010
0100
0010
0100
,  // measure 66
0010
0000
1000
0010
0000
0100
0001
0000
0010
0000
0100
0010
0000
0100
1000
0000
,  // measure 67
0001
0000
1000
0010
0000
0100
0001
0000
0010
0000
0100
0010
0000
0100
1000
0000
,  // measure 68
0001
0000
1000
0010
0000
1000
0001
0000
1000
0000
0001
0010
0000
0001
1000
0000
,  // measure 69
0001
0000
0100
0010
0000
1000
0100
0000
0010
0000
0100
0010
0000
0001
0100
0000
,  // measure 70
0010
0000
1000
0001
0000
0010
0100
0000
0010
0000
0001
0010
0000
0100
1000
0000
,  // measure 71
0001
0000
0100
0010
0000
1000
0001
0000
0010
0000
0100
1000
0000
0100
0010
0000
,  // measure 72
0001
0000
1000
0010
0000
1000
0001
0000
1000
0000
0001
0010
0000
0001
1000
0000
,  // measure 73
0010
0000
0100
0001
0000
1000
0010
0000
1000
0000
0100
0010
0000
0100
1000
0000
,  // measure 74
0010
0000
0100
0001
0000
0001
1000
0000
0100
0000
1000
0100
0000
0100
0010
0000
,  // measure 75
0100
0000
1000
0001
0000
0001
1000
0000
0100
0000
0010
0100
0000
0100
1000
0000
,  // measure 76
0010
0000
1000
0010
0000
0010
0100
0000
0001
0000
0100
0001
0000
0001
1000
0000
,  // measure 77
0100
0000
0010
0100
0000
0100
1000
0000
0001
0000
1000
0010
0000
0010
0100
0000
,  // measure 78
0001
0100
0001
0100
0010
1000
0010
1000
,  // measure 79
0001
1000
0100
0010
0001
0010
0100
1000
,  // measure 80
0001
1000
0001
1000
0001
1000
0001
1000
0001
1000
0001
1000
0001
1000
0001
1000
,  // measure 81
0001
0000
0010
0000
0000
0000
2002
0000
0000
0000
3003
0000
0100
0010
0100
0010
,  // measure 82
0100
0001
0010
0100
1000
0000
0000
0000
,  // measure 83
1001
0000
1010
0000
0000
0101
0000
0000
,  // measure 84
0011
0010
0100
0010
0001
0000
1000
0000
,  // measure 85
1001
0000
1010
0000
0000
1100
0000
0000
,  // measure 86
0110
0100
0010
0001
1000
0000
0001
0000
,  // measure 87
0101
0000
0110
0000
0000
0101
0000
0000
,  // measure 88
1001
0001
0010
0001
1000
0000
0001
0000
,  // measure 89
0100
0100
0100
0100
0100
0000
0000
0000
,  // measure 90
0001
1000
0010
1000
,  // measure 91
0001
0001
1000
0100
,  // measure 92
0010
0100
1000
0010
,  // measure 93
0100
0100
0010
1000
,  // measure 94
0100
0000
0010
0000
,  // measure 95
0100
1000
0001
1000
,  // measure 96
0100
0000
0010
0000
,  // measure 97
0100
0010
0001
0001
0010
0100
0010
0010
;

//---------------dance-single - Pandemonium X-DSP----------------
#NOTEDATA:;
#CHARTNAME:Pandemonium X-DSP;
#STEPSTYPE:dance-single;
#DESCRIPTION:Pandemonium X-DSP;
#DIFFICULTY:Medium;
#METER:12;
#RADARVALUES:0.514562,0.702376,0.448240,0.136073,0.212114,450,394,56,17,0,0,0,0,0,0.514562,0.702376,0.448240,0.136073,0.212114,450,394,56,17,0,0,0,0,0;
#CREDIT:Pandemonium X;
#NOTES:
// measure 0
0000
0000
0000
0000
,  // measure 1
0000
0000
0000
0000
,  // measure 2
0000
0000
0000
0000
,  // measure 3
0000
0000
0000
0000
,  // measure 4
2002
0000
0000
0000
,  // measure 5
0000
0000
0000
0000
,  // measure 6
0000
0000
3003
0000
,  // measure 7
0000
0000
0000
0000
,  // measure 8
0102
0000
0000
0000
,  // measure 9
0010
0000
0000
0000
,  // measure 10
2003
0000
3020
0000
,  // measure 11
2030
0000
0000
3000
,  // measure 12
0102
0000
0000
0000
,  // measure 13
2003
0000
0000
0000
,  // measure 14
3020
0000
0030
0000
,  // measure 15
0200
0000
0302
0000
,  // measure 16
1003
0010
0100
0001
,  // measure 17
1000
0010
0100
0001
1000
0010
0100
0001
,  // measure 18
1001
0001
1000
0010
,  // measure 19
1000
0001
0010
0001
,  // measure 20
1000
0100
1000
0001
,  // measure 21
0100
0001
1000
0001
,  // measure 22
1000
0100
0001
0100
,  // measure 23
1000
0010
0001
0010
,  // measure 24
1010
0010
0101
0001
,  // measure 25
0011
0100
1100
0100
,  // measure 26
1001
0001
0100
0010
,  // measure 27
1001
1000
0100
0010
,  // measure 28
1001
0001
0100
0010
,  // measure 29
1001
1000
0001
0100
,  // measure 30
1001
0001
1001
1000
,  // measure 31
1001
0001
1001
1000
,  // measure 32
1001
0110
1001
0110
,  // measure 33
0101
1010
1100
0011
,  // measure 34
0001
0010
0001
0010
0001
0010
0001
0010
,  // measure 35
0000
0000
0000
0000
,  // measure 36
0100
1000
0010
0100
,  // measure 37
0010
1000
0010
0100
0010
1000
0001
0000
,  // measure 38
1000
0100
1000
0100
1000
0100
1000
0100
,  // measure 39
0000
0000
0000
0000
,  // measure 40
1000
0010
0100
0001
,  // measure 41
1000
0001
0010
0001
0100
0001
0010
0000
,  // measure 42
0110
0000
0100
0000
1000
0010
0100
0000
,  // measure 43
0101
0000
0001
0000
1000
0001
0010
0000
,  // measure 44
0110
0000
0100
0000
0010
0001
0100
0000
,  // measure 45
0101
0000
0100
0000
0010
1000
0100
0000
,  // measure 46
1100
0000
1000
0001
1001
0000
0001
1000
,  // measure 47
1001
0000
0100
0010
0110
0000
0010
0100
,  // measure 48
0010
0000
1000
0000
0001
0010
0100
1000
,  // measure 49
0002
0000
1003
0001
2000
0000
3000
0000
,  // measure 50
0001
0000
0000
0100
0000
0000
0001
0000
0100
0000
0000
0010
0000
0000
0100
0000
,  // measure 51
0010
0000
0000
1000
0000
0000
0010
0000
0100
0000
0000
0001
0000
0000
1000
0000
,  // measure 52
0100
0000
0000
0010
0000
0000
0100
0000
1000
0000
0000
0010
0000
0000
0100
0000
,  // measure 53
0001
0000
0000
1000
0000
0000
0100
0000
0010
0000
0000
0100
0000
0000
0010
0000
,  // measure 54
0001
0000
0000
1000
0000
0000
0100
0000
1000
0000
0000
0010
0000
0000
1000
0000
,  // measure 55
0001
0000
0000
0010
0000
0000
0100
0000
0010
0000
0000
0001
0000
0000
0100
0000
,  // measure 56
0010
0000
0000
1000
0000
0000
0100
0000
1000
0000
0000
0010
0000
0000
0100
0000
,  // measure 57
0001
0000
0000
0010
0000
0000
0100
0000
0010
0000
0000
0001
0000
0000
1000
0000
,  // measure 58
0010
0000
0000
0010
0000
0000
0100
0000
0001
0000
0000
0001
0000
0000
0010
0000
,  // measure 59
0100
0000
0000
0100
0000
0000
1000
0000
0100
0000
0000
1000
0000
0000
0010
0000
,  // measure 60
0100
0000
0000
0100
0000
0000
0010
0000
1000
0000
0000
1000
0000
0000
0100
0000
,  // measure 61
0010
0000
0000
0001
0000
0000
0010
0000
0100
0000
0000
0010
0000
0000
0001
0000
,  // measure 62
0100
0000
0000
0100
0000
0000
0010
0000
1000
0000
0000
1000
0000
0000
0100
0000
,  // measure 63
0010
0000
0000
0010
0000
0000
0100
0000
1000
0000
0000
1000
0000
0000
0001
0000
,  // measure 64
1000
0000
0000
0010
0000
0000
1000
0000
0100
0000
0000
0010
0000
0000
0001
0000
,  // measure 65
0010
0100
0000
2002
0000
0000
3003
0000
,  // measure 66
0101
0000
0000
0100
0000
0000
0010
0000
1000
0000
0000
0100
0000
0000
0001
0000
,  // measure 67
0100
0000
0000
0010
0000
0000
0001
0000
1000
0000
0000
0010
0000
0000
1000
0000
,  // measure 68
0001
0000
0000
0010
0000
0000
1000
0000
0010
0000
0000
0100
0000
0000
0010
0000
,  // measure 69
0001
0000
0000
0010
0000
0000
0100
0000
1000
0000
0001
0000
1000
0000
0000
0000
,  // measure 70
0010
0000
0000
1000
0000
0000
0010
0000
0001
0000
0000
0010
0000
0000
0100
0000
,  // measure 71
0001
0000
0000
0010
0000
0000
0100
0000
1000
0000
0000
0100
0000
0000
0010
0000
,  // measure 72
0001
0000
0000
0010
0000
0000
1000
0000
0010
0000
0000
0100
0000
0000
0010
0000
,  // measure 73
0001
0000
0000
1000
0000
0000
0010
0000
0100
0000
0000
0100
0000
0000
0100
0000
,  // measure 74
0001
0000
0000
0011
0000
0000
0010
0000
0100
0000
0000
1100
0000
0000
1000
0000
,  // measure 75
0001
0000
0000
0101
0000
0000
0001
0000
1000
0000
0000
1010
0000
0000
1000
0000
,  // measure 76
0010
0000
0000
0110
0000
0000
0100
0000
0001
0000
0000
0011
0000
0000
0010
0000
,  // measure 77
0100
0000
0000
1100
0000
0000
0100
0000
1000
0000
0000
1001
0000
0000
0001
0000
,  // measure 78
0100
0001
0100
0000
0010
1000
0010
0000
,  // measure 79
1000
0001
1000
0000
0010
0100
0010
0000
,  // measure 80
1000
0010
0100
0001
1000
0010
0100
0001
,  // measure 81
0010
0100
0000
2002
0000
0000
3003
0000
,  // measure 82
1010
0000
0000
0000
,  // measure 83
0101
0000
0011
0000
0000
1001
0000
0000
,  // measure 84
1100
0000
0000
0000
,  // measure 85
1001
0000
1001
0000
0000
1010
0000
0000
,  // measure 86
0101
0000
0000
0000
,  // measure 87
0011
0000
0110
0000
0000
0011
0000
0000
,  // measure 88
1100
0000
0000
0000
,  // measure 89
1000
0001
1000
0001
1000
0000
0000
0000
,  // measure 90
0001
0000
1000
0000
,  // measure 91
0010
1000
0100
0000
,  // measure 92
0010
0000
0001
0000
,  // measure 93
0010
0100
1000
0100
,  // measure 94
0010
0000
0001
0000
,  // measure 95
0100
0010
1000
0001
,  // measure 96
1000
0000
0001
0000
,  // measure 97
0100
0000
0100
0000
;

//---------------dance-single - Pandemonium X-BSP----------------
#NOTEDATA:;
#CHARTNAME:Pandemonium X-BSP;
#STEPSTYPE:dance-single;
#DESCRIPTION:Pandemonium X-BSP;
#DIFFICULTY:Easy;
#METER:8;
#RADARVALUES:0.354476,0.546293,0.320172,0.096051,0,310,270,40,12,0,0,0,0,0,0.354476,0.546293,0.320172,0.096051,0,310,270,40,12,0,0,0,0,0;
#CREDIT:Pandemonium X;
#NOTES:
// measure 0
0000
0000
0000
0000
,  // measure 1
0000
0000
0000
0000
,  // measure 2
0000
0000
0000
0000
,  // measure 3
0000
0000
0000
0000
,  // measure 4
2002
0000
0000
0000
,  // measure 5
0000
0000
0000
0000
,  // measure 6
3003
0000
0000
0000
,  // measure 7
0000
0000
0000
0000
,  // measure 8
0120
0000
0000
0000
,  // measure 9
1000
0000
0000
0000
,  // measure 10
0130
0000
0001
0000
,  // measure 11
2000
0000
0000
3000
,  // measure 12
1002
0000
0000
0000
,  // measure 13
1000
0000
0000
0003
,  // measure 14
0200
0000
0000
0000
,  // measure 15
0320
0000
0000
0000
,  // measure 16
0030
0000
0000
0000
,  // measure 17
0000
0000
0000
0000
,  // measure 18
0202
0000
0000
0000
,  // measure 19
0000
0000
0000
0303
,  // measure 20
0001
0000
1000
0000
,  // measure 21
0010
0000
1000
0000
,  // measure 22
0100
0000
1000
0000
,  // measure 23
0010
0000
1000
0000
,  // measure 24
0001
0000
0010
0000
,  // measure 25
0001
0000
1000
0000
,  // measure 26
1001
0000
0001
0000
,  // measure 27
1001
0000
1000
0000
,  // measure 28
1001
0000
0001
0000
,  // measure 29
1001
0000
1000
0000
,  // measure 30
1001
0000
1010
0000
,  // measure 31
1100
0000
0110
0000
,  // measure 32
0011
0000
0101
0000
,  // measure 33
0110
0000
1000
0000
,  // measure 34
0001
0001
0001
0001
,  // measure 35
0000
0000
0000
0000
,  // measure 36
1000
1000
1000
1000
,  // measure 37
0100
0010
0001
0100
,  // measure 38
0010
0010
0010
0010
,  // measure 39
0000
0000
0000
0000
,  // measure 40
0100
0100
0100
0100
,  // measure 41
0010
1000
0001
0010
,  // measure 42
1001
0000
1000
0001
,  // measure 43
0110
0000
0001
1000
,  // measure 44
0110
0000
1000
0001
,  // measure 45
0110
0000
0001
1000
,  // measure 46
0110
0000
1001
0000
,  // measure 47
1010
0000
0101
0000
,  // measure 48
1000
0000
0100
0000
0010
0000
0001
1000
,  // measure 49
0010
0000
1000
0001
0010
0000
0000
0000
,  // measure 50
0100
1000
0010
1000
,  // measure 51
0001
0000
0010
0000
0100
0000
0010
0001
,  // measure 52
0010
0001
0100
0010
,  // measure 53
1000
0000
0100
0000
1000
0001
1000
0000
,  // measure 54
0100
1000
0010
0100
,  // measure 55
0001
0000
0010
0000
0100
0000
1000
0001
,  // measure 56
1000
0001
0100
0010
,  // measure 57
2000
3100
0002
0103
,  // measure 58
0110
1000
0010
1000
,  // measure 59
0001
0000
0010
0000
0100
0000
0010
0001
,  // measure 60
0010
0001
1000
0010
,  // measure 61
0100
0000
0010
0000
1000
0001
1000
0000
,  // measure 62
0001
0000
0100
0000
0001
0000
0010
0100
,  // measure 63
0010
0100
1000
0000
0001
0000
0100
0010
,  // measure 64
0100
0000
0001
0000
0010
0100
1000
0001
,  // measure 65
1000
0000
0000
0100
,  // measure 66
1001
0001
0100
1000
,  // measure 67
0100
0000
0010
0000
1000
0000
0010
0100
,  // measure 68
0001
0010
0100
0010
,  // measure 69
0001
0000
0010
0000
0100
1000
0100
0000
,  // measure 70
0010
0001
0100
0001
,  // measure 71
1000
0000
0100
0000
0010
0000
0100
1000
,  // measure 72
0001
0000
1000
0001
0100
0000
0001
1000
,  // measure 73
0010
0100
0110
1001
,  // measure 74
1000
0001
0010
0100
,  // measure 75
0010
0000
0001
0000
1000
0000
0010
0100
,  // measure 76
0001
0000
0010
0000
0100
0000
0010
0001
,  // measure 77
1000
0000
0001
0000
0100
0001
0100
0000
,  // measure 78
0010
1000
0001
0100
,  // measure 79
0001
0010
0100
1000
,  // measure 80
0001
1000
0001
1000
0001
1000
0001
1000
,  // measure 81
0020
0000
0000
0030
,  // measure 82
1001
0000
0000
0000
,  // measure 83
1010
0000
1010
0000
0000
1010
0000
0000
,  // measure 84
0101
0000
0000
0000
,  // measure 85
0011
0000
0011
0000
0000
0011
0000
0000
,  // measure 86
1100
0000
0000
0000
,  // measure 87
1001
0000
1001
0000
0000
1001
0000
0000
,  // measure 88
0110
0000
0000
0000
,  // measure 89
1000
0001
1000
0001
1000
0000
0000
0000
,  // measure 90
0001
0000
0100
0000
,  // measure 91
0010
1000
0010
0000
,  // measure 92
1000
0000
0100
0000
,  // measure 93
0010
0100
0010
0000
,  // measure 94
0100
0000
1000
0000
,  // measure 95
0010
1000
0010
0000
,  // measure 96
0100
0000
0001
0000
,  // measure 97
0010
0000
0100
0000
;

//---------------dance-single - Pandemonium X-bSP----------------
#NOTEDATA:;
#CHARTNAME:Pandemonium X-bSP;
#STEPSTYPE:dance-single;
#DESCRIPTION:Pandemonium X-bSP;
#DIFFICULTY:Beginner;
#METER:4;
#RADARVALUES:0.138360,0.234125,0.088047,0,0,121,110,11,0,0,0,0,0,0,0.138360,0.234125,0.088047,0,0,121,110,11,0,0,0,0,0,0;
#CREDIT:Pandemonium X;
#NOTES:
// measure 0
0000
0000
0000
0000
,  // measure 1
0000
0000
0000
0000
,  // measure 2
0000
0000
0000
0000
,  // measure 3
0000
0000
0000
0000
,  // measure 4
1001
0000
0000
0000
,  // measure 5
0000
0000
0000
0000
,  // measure 6
0000
0000
0000
0000
,  // measure 7
0000
0000
0000
0000
,  // measure 8
0110
0000
0000
0000
,  // measure 9
0000
0000
0000
0000
,  // measure 10
0100
0000
0010
0000
,  // measure 11
0100
0000
0000
0000
,  // measure 12
1001
0000
0000
0000
,  // measure 13
1000
0000
0000
0000
,  // measure 14
0001
0000
0000
0000
,  // measure 15
0100
0000
0000
0000
,  // measure 16
1001
0000
0000
0000
,  // measure 17
0000
0000
0000
0000
,  // measure 18
0110
0000
0000
0000
,  // measure 19
0000
0000
0000
0000
,  // measure 20
0010
0000
0000
0000
,  // measure 21
1000
0000
0000
0000
,  // measure 22
0100
0000
0000
0000
,  // measure 23
1000
0000
0000
0000
,  // measure 24
0001
0000
1000
0000
,  // measure 25
0001
0000
1000
0000
,  // measure 26
1001
0000
0000
0000
,  // measure 27
0010
0000
0000
0000
,  // measure 28
0100
0000
0000
0000
,  // measure 29
0010
0000
0000
0000
,  // measure 30
1000
0000
0001
0000
,  // measure 31
1000
0000
0001
0000
,  // measure 32
0100
0000
0010
0000
,  // measure 33
0100
0000
0010
0000
,  // measure 34
1001
0000
0000
0000
,  // measure 35
0000
0000
0000
0000
,  // measure 36
0100
0000
0000
0000
,  // measure 37
0000
0000
0000
0000
,  // measure 38
1001
0000
0000
0000
,  // measure 39
0000
0000
0000
0000
,  // measure 40
0010
0000
0000
0000
,  // measure 41
0000
0000
0000
0000
,  // measure 42
1000
0000
0000
0000
,  // measure 43
0100
0000
0000
0000
,  // measure 44
0010
0000
0000
0000
,  // measure 45
0001
0000
0000
0000
,  // measure 46
0010
0000
0100
0000
,  // measure 47
1000
0000
0010
0000
,  // measure 48
0100
0000
0000
0000
,  // measure 49
0000
0000
0000
0000
,  // measure 50
1001
0000
1000
0000
,  // measure 51
1000
0000
0000
0000
,  // measure 52
0010
0000
0100
0000
,  // measure 53
0010
0000
0000
0000
,  // measure 54
0100
0000
0001
0000
,  // measure 55
0100
0000
0000
0000
,  // measure 56
0010
0000
1000
0000
,  // measure 57
0100
0000
0000
0000
,  // measure 58
0010
0000
0001
0000
,  // measure 59
1000
0000
0000
0000
,  // measure 60
0001
0000
1000
0000
,  // measure 61
0010
0000
0000
0000
,  // measure 62
1000
0000
0100
0000
,  // measure 63
1000
0000
0000
0000
,  // measure 64
0001
0000
0100
0000
,  // measure 65
1001
0000
0000
0000
,  // measure 66
1000
0000
0000
0000
,  // measure 67
0100
0000
0000
0000
,  // measure 68
0010
0000
0001
0000
,  // measure 69
0100
0000
0001
0000
,  // measure 70
1000
0000
0000
0000
,  // measure 71
0010
0000
0000
0000
,  // measure 72
0100
0000
0010
0000
,  // measure 73
1000
0000
0100
0000
,  // measure 74
1000
0000
0000
0000
,  // measure 75
0001
0000
0000
0000
,  // measure 76
0100
0000
0010
0000
,  // measure 77
0100
0000
0001
0000
,  // measure 78
1000
0000
0000
0000
,  // measure 79
0001
0000
0000
0000
,  // measure 80
0100
0000
0010
0000
,  // measure 81
1001
0000
0000
0000
,  // measure 82
0010
0000
0000
0000
,  // measure 83
1000
0000
0000
0000
,  // measure 84
0100
0000
0000
0000
,  // measure 85
1000
0000
0000
0000
,  // measure 86
0001
0000
0000
0000
,  // measure 87
0100
0000
0000
0000
,  // measure 88
0010
0000
0000
0000
,  // measure 89
0100
0100
0100
0000
,  // measure 90
0010
0000
0000
0000
,  // measure 91
1000
0000
0000
0000
,  // measure 92
0100
0000
0000
0000
,  // measure 93
1000
0000
0000
0000
,  // measure 94
0001
0000
0000
0000
,  // measure 95
0100
0000
0000
0000
,  // measure 96
0010
0000
0000
0000
,  // measure 97
0010
0000
0010
0000
;

//---------------dance-double - Pandemonium X-EDP----------------
#NOTEDATA:;
#CHARTNAME:Pandemonium X-EDP;
#STEPSTYPE:dance-double;
#DESCRIPTION:Pandemonium X-EDP;
#DIFFICULTY:Hard;
#METER:16;
#RADARVALUES:0.730677,1.057617,0.368197,0.160086,0.640343,639,593,46,20,0,0,0,0,0,0.730677,1.057617,0.368197,0.160086,0.640343,639,593,46,20,0,0,0,0,0;
#CREDIT:Pandemonium X;
#NOTES:
00000000
00000000
00000000
00000000
,
00000000
00000000
00000000
00000000
,
00000000
00000000
00000000
00000000
,
00000000
00000000
00000000
00000000
,
00022000
00000000
00000000
00000000
,
00000000
00000000
00000000
00000000
,
00000000
00000000
00033000
00000000
,
00000000
00000000
00000000
00000000
,
00102000
00000000
00000000
00000000
,
00023000
00000000
00000000
00000000
,
00030200
00000000
00001000
00000000
,
00000320
00000000
00000000
00000030
,
00000012
00000000
00000000
00000000
,
00000203
00000000
00000000
00000000
,
00000320
00000000
00000000
00000030
,
00000200
00000000
00000001
00000000
,
00000320
00001030
00000200
00010300
,
00001000
00100000
00001000
00100000
00010000
00100000
00010000
00100000
,
11000000
00000000
00000000
10000000
00000000
00000000
10000000
00000000
00010000
00000000
00000000
00010000
00000000
00000000
00010000
00000000
,
01000000
00000000
00000000
01000000
00000000
00000000
01000000
00000000
00100000
00000000
00000000
10000000
00000000
00000000
00010000
00000000
,
00100000
00000000
00000000
00100000
00000000
00000000
00100000
00000000
00001000
00000000
00000000
00001000
00000000
00000000
00001000
00000000
,
00010000
00000000
00000000
00010000
00000000
00000000
00010000
00000000
00000100
00000000
00000000
00001000
00000000
00000000
00000010
00000000
,
00000100
00000000
00000000
00000001
00000000
00000000
00000100
00000000
00000001
00000000
00000000
00000100
00000000
00000000
00000010
00000000
,
00001000
00000000
00000000
00000100
00000000
00000000
00000010
00000000
00000001
00000000
00000000
00001000
00000000
00000000
00000010
00000000
,
00010000
00000000
00000000
00001000
00000000
00000000
00100000
00000000
00010000
00000000
00000000
01000000
00000000
00000000
00010000
00000000
,
00100000
00000000
00000000
00001000
00000000
00000000
00100000
00000000
00010000
00000000
00000000
10000000
00000000
00000000
01000000
00000000
,
01100000
00000000
00000000
01000000
00000000
00000000
10000000
00000000
00100000
00000000
00000000
01000000
00000000
00000000
00010000
00000000
,
00110000
00000000
00000000
00100000
00000000
00000000
00001000
00000000
00010000
00000000
00000000
00000010
00000000
00000000
00000100
00000000
,
00000101
00000000
00000000
00000001
00000000
00000000
00000010
00000000
00000100
00000000
00000000
00001000
00000000
00000000
00000100
00000000
,
00010100
00000000
00000000
00000100
00000000
00000000
00010000
00000000
00001000
00000000
00000000
00100000
00000000
00000000
00001000
00000000
,
00011000
00000000
00000000
00001000
00000000
00000000
01000000
00000000
01100000
00000000
00000000
00100000
00000000
00000000
10000000
00000000
,
11000000
00000000
00000000
01000000
00000000
00000000
00100000
00000000
00110000
00000000
00000000
00001000
00000000
00000000
00010000
00000000
,
00010100
00000000
00000000
00000100
00000000
00000000
00001000
00000000
00001010
00000000
00000000
00000010
00000000
00000000
00000100
00000000
,
00000201
00000000
00000000
00000310
00000000
00000000
00001000
00000000
00000200
00000000
00000000
00010300
00000000
00000000
00001000
00000000
,
01000000
10000000
01000000
00010000
01000000
10000000
01000000
00100000
,
00000000
00000000
00000000
00000000
,
01000000
00010000
01000000
00010000
00100000
00010000
00100000
00001000
,
00010000
00000100
00001000
00000010
00000100
00000010
00001000
00000001
,
00001000
00000100
00000001
00000100
00001000
00000100
00000010
00000001
,
00000000
00000000
00000000
00000000
,
00000100
00000010
00000100
00000010
00001000
00000010
00001000
00000010
,
00001000
00000100
00010000
00001000
01000000
00100000
10000000
01000000
,
01100000
01000000
10000000
00010000
00100000
00001000
00010000
00001000
,
00011000
00010000
00000100
00001000
00000010
00000100
00000001
00000000
,
00000101
00000001
00000100
00000010
00001000
00000100
00010000
00001000
,
00101000
00100000
00010000
01000000
00100000
10000000
01000000
00000000
,
11000000
01000000
00100000
00010000
00110000
00100000
00001000
00010000
,
00011000
00010000
00000100
00001000
00001100
00000100
00000010
00000001
,
00000021
00000000
00000230
00000000
00000310
00000100
00001000
00000001
,
00000010
00000000
00000001
00001000
00000010
00000000
00001001
00000000
,
00001100
00000000
00000000
00000100
00000000
00000000
00010000
00001000
00010000
00000000
00000000
00001000
00000000
00000000
01000000
00010000
,
01000000
00000000
00000000
00100000
00000000
00000000
10000000
00100000
01000000
00000000
00000000
00010000
00000000
00000000
00100000
01000000
,
00100000
00000000
00000000
01000000
00000000
00000000
10000000
01000000
10000000
00000000
00000000
00010000
00000000
00000000
01000000
00010000
,
01000000
00000000
00000000
00010000
00000000
00000000
00100000
00001000
00010000
00000000
00000000
00000010
00000000
00000000
00000100
00000001
,
00000100
00000000
00000000
00000010
00000000
00000000
00001000
00000100
00001000
00000000
00000000
00000001
00000000
00000000
00000010
00000001
,
00000010
00000000
00000000
00000100
00000000
00000000
00001000
00000100
00010000
00000000
00000000
00001000
00000000
00000000
01000000
00100000
,
10000000
00000000
00000000
01000000
00000000
00000000
00100000
00010000
01000000
00000000
00000000
00100000
00000000
00000000
10000000
00010000
,
00100000
00000000
00000000
00001000
00000000
00000000
00010000
00000100
00001000
00000000
00000000
00000010
00000000
00000000
00000100
00000001
,
00001000
00000000
00000000
00000100
00000000
00000000
00000010
00000001
00000100
00000000
00000000
00000010
00000000
00000000
00001000
00000100
,
00000010
00000000
00000000
00000100
00000000
00000000
00001000
00000100
00010000
00000000
00000000
00001000
00000000
00000000
00010000
00001000
,
01000000
00000000
00000000
00100000
00000000
00000000
10000000
00100000
01000000
00000000
00000000
00010000
00000000
00000000
00100000
01000000
,
10000000
00000000
00000000
01000000
00000000
00000000
00100000
00001000
00010000
00000000
00000000
00000100
00000000
00000000
00001000
00000010
,
00000100
00000000
00000000
00000001
00000000
00000000
00000010
00000100
00001000
00000000
00000000
00000100
00000000
00000000
00001000
00000001
,
00000100
00000000
00000000
00000010
00000000
00000000
00001000
00000100
00010000
00000000
00000000
00001000
00000000
00000000
00010000
00001000
,
01000000
00000000
00000000
00100000
00000000
00000000
10000000
01000000
00100000
00000000
00000000
00010000
00000000
00000000
00100000
00001000
,
00010000
00000000
00000100
00000000
00000000
00000000
00022000
00000000
00000000
00000000
00033000
00000000
00010000
00001000
00010000
00001000
,
01000000
00000000
00100000
10000000
00000000
01000000
00100000
00000000
01000000
00000000
00100000
01000000
00000000
10000000
00100000
00000000
,
01000000
00000000
00010000
00100000
00000000
01000000
00100000
00000000
00010000
00000000
00100000
00001000
00000000
00010000
00000100
00000000
,
00001000
00000000
00000010
00001000
00000000
00000001
00000100
00000000
00000001
00000000
00000010
00000100
00000000
00000010
00000001
00000000
,
00000100
00000000
00000010
00001000
00000000
00000100
00001000
00000000
00000010
00000000
00001000
00000100
00000000
00010000
00001000
00000000
,
00100000
00000000
01000000
10000000
00000000
00100000
01000000
00000000
00010000
00000000
00100000
01000000
00000000
00100000
00010000
00000000
,
01000000
00000000
00010000
00100000
00000000
00010000
01000000
00000000
00010000
00000000
00100000
00001000
00000000
00010000
00000100
00000000
,
00001000
00000000
00000010
00001000
00000000
00000001
00000100
00000000
00000001
00000000
00000010
00000100
00000000
00000010
00000001
00000000
,
00000010
00000000
00000100
00001000
00000000
00000001
00000100
00000000
00000010
00000000
00001000
00000100
00000000
00010000
00001000
00000000
,
01000000
00000000
00100000
10000000
00000000
10000000
01000000
00000000
00100000
00000000
00100000
00010000
00000000
00010000
10000000
00000000
,
00010000
00000000
01000000
00100000
00000000
00100000
10000000
00000000
01000000
00000000
00100000
00010000
00000000
00010000
01000000
00000000
,
00100000
00000000
10000000
00010000
00000000
00010000
00100000
00000000
00010000
00000000
00100000
01000000
00000000
01000000
10000000
00000000
,
00010000
00000000
00100000
00001000
00000000
00001000
00010000
00000000
00000100
00000000
00010000
00001000
00000000
00001000
01000000
00000000
,
00001000
00000000
00010000
00000100
00000000
00000100
00001000
00000000
00000100
00000000
00000010
00000001
00000000
00000001
00000100
00000000
,
00000010
00000000
00001000
00000010
00000000
00000010
00000100
00000000
00000001
00000000
00000001
00001000
00000000
00001000
00000100
00000000
,
00000010
00000001
00000010
00000001
00000010
00000001
00000010
00000001
00001000
00000100
00001000
00000100
00001000
00000100
00001000
00000100
,
00001000
00000000
00000010
00000000
00000000
00000000
00022000
00000000
00000000
00000000
00033000
00000000
00001000
01000000
00001000
01000000
,
00100000
10000000
01000000
00100000
00010000
00000000
00100000
00000000
,
11000000
00000000
01010000
00000000
00000000
01001000
00000000
00000000
,
00011000
00010000
00000100
00001000
00000010
00000000
00000110
00000000
,
00000101
00000000
00001010
00000000
00000000
00010100
00000000
00000000
,
00011000
00001000
01000000
00001000
00010000
00000000
00000100
00000000
,
00001100
00000000
00000011
00000000
00000000
00000101
00000000
00000000
,
00000110
00000010
00001000
00000100
00010000
00000000
00001000
00000000
,
00011000
00011000
00011000
00011000
00011000
00000000
00000000
00000000
,
00100000
00001000
00010000
00000000
00000100
00001000
00000010
00000000
,
00000100
00000001
00000010
00000100
,
00001000
00000100
00010000
00000000
00001000
00100000
01000000
00000000
,
10000000
00100000
01000000
00010000
,
00100000
00001000
00010000
00000000
00001000
00010000
00000010
00000000
,
00000100
00000001
00001000
00000100
,
00001000
00000100
00010000
00001000
,
00100000
00001000
00010000
00000000
00010000
00001000
00100000
01000000
;

//---------------dance-double - Pandemonium X-DDP----------------
#NOTEDATA:;
#CHARTNAME:Pandemonium X-DDP;
#STEPSTYPE:dance-double;
#DESCRIPTION:Pandemonium X-DDP;
#DIFFICULTY:Medium;
#METER:12;
#RADARVALUES:0.509988,0.665907,0.280150,0.200107,0.132071,446,411,35,25,0,0,0,0,0,0.509988,0.665907,0.280150,0.200107,0.132071,446,411,35,25,0,0,0,0,0;
#CREDIT:Pandemonium X;
#NOTES:
00000000
00000000
00000000
00000000
,
00000000
00000000
00000000
00000000
,
00000000
00000000
00000000
00000000
,
00000000
00000000
00000000
00000000
,
02020000
00000000
00000000
00000000
,
00000000
00000000
00000000
00000000
,
00000000
00000000
03030000
00000000
,
00000000
00000000
00000000
00000000
,
00210000
00000000
00000000
00000000
,
00301000
00000000
00000000
00000000
,
00020000
00000000
00030020
00000000
,
00000230
00000000
00000000
00000300
,
00000102
00000000
00000000
00000000
,
00000023
00000000
00000000
00000000
,
00000230
00000000
00000000
00000000
,
00020300
00000000
00000000
00000000
,
00031000
00001000
01000000
01000000
,
00100000
10000000
00100000
10000000
00010000
01000000
00010000
01000000
,
01010000
00010000
10000000
00010000
,
00100000
00001000
00010000
00000100
,
00001000
00000010
00000001
00000010
,
00001000
00000100
00010000
00001000
,
00100000
10000000
00100000
00010000
,
01000000
10000000
01000000
00100000
,
01100000
01000000
00110000
00100000
,
00101000
00010000
00011000
00010000
,
00001100
00000000
00000100
00000000
00000010
00000000
00000010
00000001
,
00000100
00000000
00000010
00000000
00001000
00000000
00000100
00010000
,
00001000
00000000
00100000
00000000
00010000
00000000
01000000
00100000
,
10000000
00000000
00100000
00000000
01000000
00000000
00010000
00100000
,
01000000
00000000
00100000
00001000
00010000
00000000
00001000
00100000
,
01000000
00000000
00100000
01000000
10000000
00000000
01000000
00100000
,
00010000
00000000
00100000
00001000
00010000
00000000
00000100
00001000
,
00000010
00000000
00000100
00000001
00000010
00000000
00000100
00001000
,
00000100
00010000
00000100
00010000
00000100
00010000
00001000
00010000
,
00000000
00000000
00000000
00000000
,
00001000
01000000
00001000
01000000
00001000
01000000
00001000
01000000
,
00001000
01000000
00100000
10000000
00000000
10000000
01000000
00000000
,
00100000
00010000
00100000
00010000
00100000
00001000
00100000
00010000
,
00000000
00000000
00000000
00000000
,
00100000
00001000
00100000
00001000
00100000
00001000
00100000
00001000
,
00010000
00000100
00001000
00000010
00000000
00000100
00000010
00001000
,
00001001
00000000
00000101
00000000
00000001
00000100
00000010
00000000
,
00001010
00000000
00001100
00000000
00000100
00010000
00001000
00000000
,
00011000
00000000
00101000
00000000
00001000
01000000
00100000
00000000
,
10100000
00000000
01010000
00000000
00010000
00100000
00001000
00000000
,
00011000
00000000
00000100
00001000
00001010
00000000
00000010
00000100
,
00000101
00000000
00000001
00001000
00000100
00000000
00001000
00000100
,
00020000
00000000
00032000
00000000
01003000
00100000
10000000
01000000
,
00010000
00000000
10000000
01000000
00020000
00000000
10030000
00000000
,
00100000
00000000
00000000
00100000
00000000
00000000
01000000
00000000
00010000
00000000
00000000
00010000
00000000
00000000
00100000
00000000
,
01000000
00000000
00000000
01000000
00000000
00000000
00100000
00000000
00001000
00000000
00000000
00010000
00000000
00000000
00000100
00000000
,
00001000
00000000
00000000
00001000
00000000
00000000
00000010
00000000
00000100
00000000
00000000
00000100
00000000
00000000
00000001
00000000
,
00000010
00000000
00000000
00000010
00000000
00000000
00000100
00000000
00001000
00000000
00000000
00000100
00000000
00000000
00010000
00000000
,
00001000
00000000
00000000
01000000
00000000
00000000
00100000
00000000
10000000
00000000
00000000
10000000
00000000
00000000
01000000
00000000
,
00100000
00000000
00000000
00010000
00000000
00000000
00100000
00000000
00001000
00000000
00000000
00001000
00000000
00000000
00010000
00000000
,
00000100
00000000
00000000
00001000
00000000
00000000
00000010
00000000
00000100
00000000
00000000
00000001
00000000
00000000
00000010
00000000
,
00000100
00000000
00000000
00000010
00000000
00000000
00000001
00000000
00001000
00000000
00000000
00000010
00000000
00000000
00010000
00000000
,
00001000
00000000
00000000
01000000
00000000
00000000
00100000
00000000
10000000
00000000
00000000
00010000
00000000
00000000
00100000
00000000
,
00001000
00000000
00000000
00010000
00000000
00000000
00000100
00000000
00001000
00000000
00000000
00000010
00000000
00000000
00000100
00000000
,
00000001
00000000
00000000
00001000
00000000
00000000
00000100
00000000
00010000
00000000
00000000
00001000
00000000
00000000
01000000
00000000
,
00100000
00000000
00000000
10000000
00000000
00000000
00100000
00000000
01000000
00000000
00000000
00001000
00000000
00000000
00010000
00000000
,
00000100
00000000
00000000
00001000
00000000
00000000
00000010
00000000
00000100
00000000
00000000
00000001
00000000
00000000
00001000
00000000
,
00000100
00000000
00000000
00010000
00000000
00000000
00001000
00000000
01000000
00000000
00000000
00100000
00000000
00000000
10000000
00000000
,
01000000
00000000
00000000
00100000
00000000
00000000
00010000
00000000
00001000
00000000
00000000
00000100
00000000
00000000
00000010
00000000
,
00000001
00001000
00000000
00000220
00000000
00000000
00000330
00000000
,
00000001
00000100
00000010
00001000
,
00000100
00000000
00010000
00000000
00001000
00000000
00010000
00001000
,
01000000
00000000
00000000
00000000
00100000
00000000
00000000
00000000
10000000
00000000
00000000
00000000
01000000
00000000
00100000
01000000
,
00100000
00000000
00000000
00000000
01000000
00000000
00000000
10000000
01000000
00000000
01000000
00000000
00100000
00000000
00000000
00000000
,
00010000
00100000
00001000
00010000
,
00000100
00000000
00001000
00000000
00000010
00000000
00000100
00000001
,
00000010
00000000
00000100
00001000
00000010
00000000
00000100
00000001
,
00001000
00000000
00000001
00001000
00000100
00000000
00010000
00001000
,
00100000
01000000
10000000
00100000
,
01000000
00000000
00010000
00000000
00100000
00000000
00001000
00010000
,
00001000
00000000
00000000
00000000
00010000
00000000
00000000
00000000
00000100
00000000
00000000
00000000
00001000
00000000
00000000
00000010
,
00000100
00000000
00000001
00000000
00000010
00000100
00001000
00000000
,
00000100
00010000
00001000
00000000
01000000
00100000
10000000
00000000
,
01000000
00100000
00010000
00000000
00100000
00001000
00010000
00000000
,
00001000
00010000
00001000
00100000
00001000
00010000
00001000
00100000
,
00001000
00010000
00000000
00020020
00000000
00000000
00030030
00000000
,
00002020
00000000
00003030
00000000
,
00000101
00000000
00000011
00000000
00000000
00001001
00000000
00000000
,
00002200
00000000
00003300
00000000
,
00010100
00000000
00011000
00000000
00000000
00101000
00000000
00000000
,
00220000
00000000
00330000
00000000
,
01010000
00000000
10100000
00000000
00000000
10010000
00000000
00000000
,
00220000
00000000
00330000
00000000
,
00100000
00001000
00010000
00000100
00001000
00000000
00000000
00000000
,
00010000
00000000
00000100
00000000
,
00001000
00000010
00000100
00000001
,
00000010
00000000
00000100
00000000
,
00010000
00001000
00100000
00010000
,
01000000
00000000
00100000
00000000
,
10000000
01000000
00100000
00010000
,
00100000
00001000
00010000
00000100
,
00001000
00000010
00000001
00000010
00001000
00000100
00010000
00001000
;

//---------------dance-double - Pandemonium X-BDP----------------
#NOTEDATA:;
#CHARTNAME:Pandemonium X-BDP;
#STEPSTYPE:dance-double;
#DESCRIPTION:Pandemonium X-BDP;
#DIFFICULTY:Easy;
#METER:8;
#RADARVALUES:0.351045,0.547694,0.272146,0.176094,0,307,273,34,22,0,0,0,0,0,0.351045,0.547694,0.272146,0.176094,0,307,273,34,22,0,0,0,0,0;
#CREDIT:Pandemonium X;
#NOTES:
00000000
00000000
00000000
00000000
,
00000000
00000000
00000000
00000000
,
00000000
00000000
00000000
00000000
,
00000000
00000000
00000000
00000000
,
20020000
00000000
00000000
00000000
,
00000000
00000000
00000000
00000000
,
00000000
00000000
30030000
00000000
,
00000000
00000000
00000000
00000000
,
02010000
00000000
00000000
00000000
,
03200000
00000000
00000000
00000000
,
10300000
00000000
00010000
00000000
,
00200000
00000000
00000000
00300000
,
00021000
00000000
00000000
00000000
,
00030200
00000000
00000000
00000000
,
00002300
00000000
00000000
00000000
,
00003020
00000000
00000230
00000000
,
00000301
00000100
00000010
00001000
,
00000200
00010300
00002000
00103000
,
00110000
00000000
10000000
00000000
,
00100000
00000000
01000000
00000000
,
00010000
00000000
00100000
00000000
,
00001000
00000000
01000000
00000000
,
00001000
00000000
00010000
00000000
,
00000010
00000000
00000100
00000000
,
00001001
00000000
00000110
00000000
,
00001001
00000000
00000110
00000000
,
00001010
00000000
00001000
00000000
,
00001100
00000000
00000100
00000000
,
00010100
00000000
00010000
00000000
,
00011000
00000000
00001000
00000000
,
01001000
00000000
01100000
00000000
,
10100000
00000000
11000000
00000000
,
10010000
00000000
01100000
00000000
,
20010000
00000000
30020000
00000000
,
00130000
00100000
00001000
00010000
,
00000000
00000000
00000000
00000000
,
00001000
00010000
00000100
00001000
,
00000010
00000001
00000010
00001000
,
00000100
00000100
00010000
00001000
,
00000000
00000000
00000000
00000000
,
00100000
01000000
10000000
01000000
,
10000000
01000000
00010000
01000000
,
11000000
00000000
10000000
00100000
,
01100000
00000000
01000000
00010000
,
00110000
00000000
00100000
00001000
,
00011000
00000000
00010000
00000100
,
00001100
00000000
00000011
00000000
,
00000101
00000000
00001010
00000000
,
00000010
00000000
00010000
00000000
00001000
00000000
00100000
00010000
,
00100000
00000000
00100000
00010000
00100000
00000000
00000000
00000000
,
01000000
10000000
00100000
01000000
,
00010000
00100000
00001000
00010000
,
00000100
00001000
00000010
00000100
,
00000001
00000010
00000100
00001000
,
00000100
00010000
00000100
00001000
,
00000100
00010000
00001000
00100000
,
00001000
00010000
00001000
01000000
,
00001000
00010000
00001000
01000000
,
00100000
10000000
01000000
00100000
,
00010000
00100000
00001000
00010000
,
00000100
00001000
00000010
00000100
,
00000001
00000010
00000100
00001000
,
00000100
00010000
00001000
00100000
,
00001000
00010000
00000100
00001000
,
00000010
00010000
00001000
00100000
,
00022000
00000000
00000000
00033000
,
00001000
01000000
00100000
10000000
,
01000000
00000000
00100000
00000000
00010000
00000000
00100000
00001000
,
00010000
00000000
00001000
00000000
00010000
00000000
00000100
00001000
,
00000010
00000000
00000100
00000000
00000001
00000010
00000100
00000000
,
00001000
00000100
00010000
00001000
,
00100000
00000000
01000000
00000000
10000000
00000000
00100000
10000000
,
00010000
00000000
00100000
00001000
00010000
00000000
00000100
00001000
,
00000010
00000100
00000001
00000000
00001001
00000000
00000000
00000000
,
00000001
00000010
00000100
00000010
,
00000001
00000000
00001000
00000000
00000010
00000000
00000100
00000010
,
00001000
00000000
00000100
00000000
00010000
00000000
00001000
01000000
,
00001000
00000000
01000000
00000000
00100000
10000000
00100000
00000000
,
20000000
31000000
02000000
03100000
,
00200000
00310000
00020000
00031000
,
00010000
00000100
00010000
00000000
00000100
00010000
00000100
00000000
,
00022000
00000000
00000000
00033000
,
01010000
00000000
00000000
00000000
,
01000000
00000000
00010000
00000000
00000000
00100000
00000000
00000000
,
00101000
00000000
00000000
00000000
,
00010000
00000000
00000100
00000000
00000000
00001000
00000000
00000000
,
00000011
00000000
00000000
00000000
,
00000010
00000000
00000001
00000000
00000000
00000100
00000000
00000000
,
00001010
00000000
00000000
00000000
,
00000010
00000100
00000001
00001000
00000010
00000000
00000000
00000000
,
00000100
00000000
00010000
00000000
,
00001000
01000000
00001000
00000000
,
01000000
00000000
00100000
00000000
,
10000000
01000000
00100000
00010000
,
00100000
00000000
00001000
00000000
,
00010000
00000100
00001000
00000000
,
00000010
00000000
00000100
00000000
,
00000010
00001000
00000100
00001000
;
