#TITLE:BEYOND THE EARTH (STARDOM Remix);
#ARTIST:Sota F.;
#BANNER:BEYOND THE EARTH (STARDOM Remix).png;
#BACKGROUND:BEYOND THE EARTH (STARDOM Remix)-bg.png;
#MUSIC:BEYOND THE EARTH (STARDOM Remix).ogg;
#OFFSET:1.636;
#SAMPLESTART:32.65049;
#SAMPLELENGTH:15;
#SELECTABLE:YES;
#BPMS:0=133;

//---------------dance-single - NewbStepper-ESP----------------
#NOTES:
     dance-single:
     NewbStepper:
     Hard:
     13:
     0.606436,0.637918,0.479405,0.347955,0.487137,549,487,62,45,0,0,0.606436,0.637918,0.479405,0.347955,0.487137,549,487,62,45,0,0:
// measure 0
0000
0000
0000
0000
,  // measure 1
0000
0000
0000
0000
,  // measure 2
0101
0000
1010
0000
0110
0000
1001
0010
,  // measure 3
0100
0000
0000
0001
0000
0010
0100
0000
0000
1000
0000
0000
0010
0000
0000
0001
0000
0000
0010
0000
0000
1000
0000
0000
,  // measure 4
0100
0000
0000
0001
0000
0000
1000
0000
0000
0010
0000
0001
0010
0000
0000
0001
0000
0100
0001
0000
0000
0100
0000
0000
,  // measure 5
2010
0000
0000
3000
0000
0001
1000
0000
0000
0100
0000
0000
0012
0000
0000
0003
0000
1000
0100
0000
0000
0010
0000
0000
,  // measure 6
0011
0000
0000
1010
0000
0000
0110
0000
2002
0000
0000
0000
3003
0000
0010
0000
,  // measure 7
0100
0000
0000
1000
0000
0010
0100
0000
0000
0001
0000
0000
0010
0000
0000
1000
0000
0000
0010
0000
0000
0001
0000
0000
,  // measure 8
0100
0000
0000
1000
0000
0000
0001
0000
0000
0010
0000
1000
0010
0000
0000
1000
0000
0100
1000
0000
0000
0100
0000
0000
,  // measure 9
0012
0000
0000
0000
0000
0000
0003
0000
0000
0000
1000
0100
1000
0000
0000
0000
0001
0100
0001
0000
0000
0000
0000
0100
,  // measure 10
0010
0000
0000
0110
0000
0000
0220
0000
0000
0000
0330
0000
0000
0000
0010
0000
,  // measure 11
1000
0000
0000
0001
0100
0001
0100
0000
0000
0010
0000
0000
1000
0000
0000
0100
0000
0010
0100
0000
0000
1000
0000
0000
,  // measure 12
0001
0000
0000
0100
0000
0000
1000
0000
0000
0100
0000
0000
0001
0000
0000
0100
0000
0010
0100
0000
0000
0001
0000
0000
,  // measure 13
1000
0000
0000
0001
0000
0010
0100
0000
0000
1000
0000
0010
0100
0000
0000
0001
0000
1000
0001
0000
0000
1000
0000
0000
,  // measure 14
1010
0000
0000
0101
0000
0000
0110
0000
2002
0000
0000
0000
3003
0000
0010
0000
,  // measure 15
0001
0000
0000
1000
0100
1000
0100
0000
0000
0010
0000
0000
0001
0000
0000
0100
0000
0010
0100
0000
0000
0001
0000
0000
,  // measure 16
1000
0000
0000
0100
0000
0000
0001
0000
0000
0100
0000
0000
1000
0000
0000
0100
0000
0010
0100
0000
0000
1000
0000
0000
,  // measure 17
1002
0000
0000
0000
0000
0000
0003
0000
0000
0000
1000
0010
1000
0000
0000
0000
0001
0010
0001
0000
0000
0000
0000
0010
,  // measure 18
0100
0000
0000
0110
0000
0000
0220
0000
0000
0000
0330
0000
0000
0000
0000
0000
,  // measure 19
0001
0100
1000
0001
0010
1000
0100
0000
,  // measure 20
0010
0000
0000
0001
0000
0000
1000
0000
0010
1000
0000
0010
1000
0000
0000
0100
0000
0000
0110
0000
0000
0000
0000
0000
,  // measure 21
1000
0000
0000
0001
0000
0100
0000
0000
0001
0000
0000
0100
0010
0000
0000
1000
0000
0000
0001
0000
0010
0001
0000
0010
,  // measure 22
0001
0000
0000
1000
0000
0100
0000
0000
0010
0000
0000
0001
0100
0000
0000
0100
0000
0000
0110
0000
0000
0000
0000
0000
,  // measure 23
0002
0100
2003
0010
3002
0100
0023
0100
,  // measure 24
2030
0010
3001
1000
0010
0001
0100
0000
,  // measure 25
0010
0000
1000
0000
0000
0010
1000
0000
0001
1000
0000
0001
0100
0000
0000
0010
0000
0000
0110
0000
0000
0000
0000
0000
,  // measure 26
2002
0000
0000
3003
,  // measure 27
1010
0000
0000
0000
0000
1000
0010
0000
0000
0110
0000
0000
0000
0000
0001
0010
0000
0000
1000
0000
0000
0010
0000
0000
,  // measure 28
0011
0000
0000
0000
0000
0001
0100
0000
0000
0110
0000
0000
0000
0000
1000
0001
0000
0000
1000
0000
0001
1000
0000
0001
,  // measure 29
0010
0000
0000
0000
0000
0001
0010
0000
0000
0110
0000
0000
0000
0000
1000
0010
0000
0000
0001
0000
0000
0010
0000
0000
,  // measure 30
1010
0000
0000
0000
0000
1000
0100
0000
0000
0110
0000
0000
0000
0000
0001
1000
0000
0000
0001
0000
1000
0001
0000
1000
,  // measure 31
0010
0000
0000
0000
0000
0100
0010
0000
0000
1010
0000
0000
0000
0000
1000
0100
0000
0000
0001
0000
0000
0100
0000
0000
,  // measure 32
0110
0000
0000
0000
0000
0010
0001
0000
0000
0101
0000
0000
0000
0000
0100
0010
0000
0000
1000
0000
0001
1000
0000
0001
,  // measure 33
0010
0000
0000
0000
0000
0100
0010
0000
0000
0011
0000
0000
0000
0000
0001
0100
0000
0000
1000
0000
0000
0100
0000
0000
,  // measure 34
0110
0000
0000
0000
0000
0010
1000
0000
0000
2002
0000
0000
0000
0000
0000
0000
0000
0000
3003
0000
0000
0000
0000
0000
,  // measure 35
1001
0000
0000
0000
0000
0001
0000
0000
0010
0000
0000
0000
0100
0000
0000
0000
0000
0000
0100
0000
0000
0000
0000
0000
,  // measure 36
1001
0000
0000
0000
0000
1000
0000
0000
0010
0000
0000
0000
0100
0000
0000
0000
0000
0000
0100
0000
0000
0000
0000
0000
,  // measure 37
1001
0000
0000
0000
0000
0001
0000
0000
0100
0000
0000
0000
0010
0000
0000
0000
0000
0000
0010
0000
0000
0000
0000
0000
,  // measure 38
1001
0000
0000
0000
0000
1000
0000
0000
0100
0000
0000
0000
0010
0000
0000
0000
0000
0000
0010
0000
0000
0000
0000
0000
,  // measure 39
0101
0000
0000
0001
0000
0100
0001
0000
0000
1000
0000
0000
0010
0000
0100
0000
0000
0001
0000
0000
0100
0010
0000
0100
,  // measure 40
0010
0000
0000
0000
0000
1000
0000
0000
1000
0100
0000
0000
0110
0000
0000
0000
0000
0000
0110
0000
0000
0000
0000
0000
,  // measure 41
0001
0000
0100
0000
0000
1000
0000
0000
0000
0100
0000
0000
0001
0000
0000
0000
0000
0000
0010
0000
0000
0001
0000
0000
,  // measure 42
1000
0000
0001
0000
0000
0100
0000
0000
0001
0100
0000
0000
0010
0100
0000
0000
0000
0000
0110
0000
0000
0000
0000
0000
,  // measure 43
2002
0000
0000
0000
0000
0000
0000
0000
0000
0000
3003
0000
0000
0000
1000
0100
,  // measure 44
0020
0000
0000
0000
0030
0000
0001
0100
0020
0000
0000
0000
0030
0000
1000
0100
,  // measure 45
0002
0000
0000
0000
0003
0000
0100
1000
0010
0000
0100
0000
0002
0000
0003
0010
,  // measure 46
0200
0000
0000
0000
0300
0000
0010
0100
2000
0000
0000
0000
3000
0000
0100
0010
,  // measure 47
0200
0000
0000
0000
0010
0000
0000
0000
0010
0000
0000
0000
0310
0000
0001
0100
,  // measure 48
0020
0000
0000
0000
0030
0000
1000
0100
0020
0000
0000
0000
0030
0000
0001
0100
,  // measure 49
2000
0000
0000
0000
3000
0000
0100
0001
0010
0000
0100
0000
2000
0000
3000
0010
,  // measure 50
0200
0000
0000
0000
0010
0000
0000
0000
0010
0000
0000
0000
0310
0000
1000
0010
,  // measure 51
0200
0010
0000
0310
,  // measure 52
1020
0130
0021
0130
,  // measure 53
1020
0130
0001
1000
,  // measure 54
0010
0000
1000
0000
0000
1000
0100
0000
0000
0010
0000
0000
1000
0000
0000
0010
0000
0000
0001
0000
0000
0100
0000
0000
,  // measure 55
0020
0000
1000
0000
0130
0001
0001
0001
,  // measure 56
1000
0010
0001
1000
0001
0010
1000
0000
,  // measure 57
0001
0010
1000
0001
1000
0010
0001
0000
,  // measure 58
0101
1100
1010
0011
,  // measure 59
0010
0000
0001
0010
0000
0000
0100
0000
1000
0100
0000
0000
0010
0000
0100
0010
0000
0100
0010
0000
0000
0000
0000
0000
,  // measure 60
2002
0000
0000
0000
0000
0000
3003
0010
,  // measure 61
0001
0000
0000
1000
0100
1000
0100
0000
0000
0010
0000
0000
0001
0000
0000
0100
0000
0010
0100
0000
0000
0001
0000
0000
,  // measure 62
1000
0000
0000
0100
0000
0000
0001
0000
0000
0100
0000
0000
1000
0000
0000
0100
0000
0010
0100
0000
0000
1000
0000
0000
,  // measure 63
0001
0000
0000
1000
0000
0010
0100
0000
0000
0001
0000
0010
0100
0000
0000
1000
0000
0001
1000
0000
0000
0001
0000
0000
,  // measure 64
0011
0000
0000
1100
0000
0000
0110
0000
2002
0000
0000
0000
3003
0000
0010
0000
,  // measure 65
1000
0000
0000
0001
0100
0001
0100
0000
0000
0010
0000
0000
1000
0000
0000
0100
0000
0010
0100
0000
0000
1000
0000
0000
,  // measure 66
0001
0000
0000
0100
0000
0000
1000
0000
0000
0100
0000
0000
0001
0000
0000
0100
0000
0010
0100
0000
0000
0001
0000
0000
,  // measure 67
2001
0000
0000
0000
0000
0000
3000
0000
0000
0000
0001
0010
0001
0000
0000
0000
1000
0010
1000
0000
0000
0000
0000
0010
,  // measure 68
0100
0000
0000
0110
0000
0000
0110
0000
0000
0000
1000
0000
1001
0000
0000
0000
;

//---------------dance-single - NewbStepper-DSP----------------
#NOTES:
     dance-single:
     NewbStepper:
     Medium:
     9:
     0.412023,0.478438,0.378885,0.309294,0.065725,373,324,49,40,0,0,0.412023,0.478438,0.378885,0.309294,0.065725,373,324,49,40,0,0:
0000
0000
0000
0000
,
0000
0000
0000
0000
,
1001
1001
1001
1001
,
0010
2000
0000
3001
1000
0100
0010
0001
,
0100
1000
0100
0001
0010
0000
0001
0100
,
0010
0000
1000
0100
0010
0000
0001
0100
,
0010
0000
0000
0010
0000
0000
0100
0000
2002
0000
0000
0000
3003
0000
0000
0000
,
0010
0002
0000
1003
0001
0100
0010
1000
,
0100
0001
0100
1000
0010
0000
1000
0100
,
0010
0000
0000
0000
0000
0000
0001
0000
0000
0000
0000
0001
0100
0000
0000
0000
0000
1000
0100
0000
0000
0000
0000
0001
,
0100
0000
0000
0101
0000
0000
0101
0000
0000
0000
0000
0000
0000
0000
0010
0000
,
1000
0000
0101
0100
0010
1000
0100
0001
,
0100
0010
0001
0100
2000
0000
3100
0001
,
0020
0000
0130
1000
0200
0000
0310
0001
,
0100
0000
0000
0100
0000
0000
0010
0000
2002
0000
0000
0000
3003
0000
0010
0000
,
0001
0100
1000
0100
0001
0010
0100
1000
,
0010
1000
0100
0001
0200
0000
0310
0001
,
0100
0000
0000
0000
0000
0000
0010
0000
0000
0000
0000
1000
0010
0000
0000
0000
0000
0100
0001
0000
0000
0000
0000
0010
,
0100
0000
0000
0110
0000
0000
0110
0000
0000
0000
0000
0000
0000
0000
0000
0000
,
0001
0101
0000
1100
0000
0010
0001
0000
,
0100
0010
1000
0001
0010
0100
1000
0000
,
0001
0100
1000
0000
1000
0100
0001
0000
,
0010
0001
1000
0010
0100
0001
0010
0000
,
0002
0000
2003
0000
3010
0100
0010
0100
,
0001
0011
0110
1100
,
1000
0100
0001
0000
0001
0100
1000
0000
,
0220
0000
0000
0330
,
1001
0000
0001
0100
0000
0010
0100
0001
,
0101
0000
0010
1000
0000
0100
0010
0001
,
1001
0000
1000
0100
0000
0010
0100
1000
,
1100
0000
0010
0001
0000
1000
1001
0000
,
0110
1010
0110
0101
,
0011
1010
0011
0110
,
1001
1100
0101
0110
,
1001
0101
1100
0000
,
0022
0000
0003
0000
,
0200
0000
0030
0000
,
2000
0000
0300
0000
,
0002
0000
0000
3003
,
1000
0000
0100
0000
1000
0010
1000
0000
,
0001
0000
0100
0000
0001
0010
0001
0000
,
1000
0010
1000
0010
0100
0001
0100
0001
,
0010
0100
0010
0110
,
2002
0000
0000
3003
,
0020
0000
0030
1000
0200
0000
0300
0001
,
0200
0000
0000
0000
0300
0000
0010
0000
0001
0000
0100
0000
0010
0000
0000
1000
,
0002
0000
0003
0100
0020
0000
0030
1000
,
0002
0000
0000
0003
,
0020
0000
0030
0001
0200
0000
0300
1000
,
0200
0000
0000
0000
0300
0000
0010
0000
1000
0000
0100
0000
0010
0000
0000
0001
,
2000
0000
0000
0000
0000
0000
3000
0001
,
0200
0000
0000
0300
,
0110
1000
0110
0001
,
0110
1000
0001
1000
,
0001
0100
1000
0000
0001
0010
1000
0000
,
0020
0000
0030
1001
,
1000
0100
0001
0000
0100
1000
0001
0000
,
0010
0001
0100
0000
0010
1000
0100
0000
,
0010
0001
0100
1000
,
0020
0001
0100
0130
,
2002
0000
0000
3003
,
0010
0002
0000
1003
0001
0100
0010
1000
,
0100
0001
0100
1000
0010
0000
1000
0100
,
0010
0000
0001
0100
0010
0000
1000
0100
,
0010
0000
0000
0010
0000
0000
0100
0000
2002
0000
0000
0000
3003
0000
0000
0000
,
0010
2000
0000
3001
1000
0100
0010
0001
,
0100
1000
0100
0001
0010
0000
0001
0100
,
0010
0000
0000
0000
0000
0000
1000
0000
0000
0000
0000
1000
0100
0000
0000
0000
0000
0001
0100
0000
0000
0000
0000
1000
,
0100
0000
0000
1100
0000
0000
1100
0000
0000
0000
0000
0000
1001
0000
0000
0000
;

//---------------dance-single - NewbStepper-BSP----------------
#NOTES:
     dance-single:
     NewbStepper:
     Easy:
     6:
     0.290515,0.372119,0.456208,0.255167,0,263,204,59,33,0,0,0.290515,0.372119,0.456208,0.255167,0,263,204,59,33,0,0:
0000
0000
0000
0000
,
0000
0000
0000
0000
,
0000
0000
0000
0000
,
1000
0100
0001
0010
,
0110
1001
0110
0010
,
1000
0010
0001
0010
,
1001
0110
2002
3003
,
0001
0100
1000
0010
,
0110
1001
0110
0010
,
0002
0000
1000
1003
,
1001
0000
0000
1001
0000
0000
0000
0000
,
0001
0100
1000
0010
,
0110
1001
0110
0010
,
0001
0010
1000
0010
,
1001
0110
2002
3003
,
1000
0100
0001
0010
,
0110
1001
0110
0010
,
2000
0000
0001
3001
,
1001
0000
0000
1001
0000
0000
0000
0000
,
0010
1000
0100
0000
,
0010
0001
0100
0000
,
1000
0100
0001
0000
,
1000
0010
0001
0100
,
1000
0001
0100
0000
,
0001
1000
0100
0110
,
0001
1000
0001
1000
,
0220
0000
0000
0330
,
1001
0000
0000
0010
0000
0000
1000
0000
,
1100
0000
0000
0010
0000
0000
0001
0000
,
0101
0000
0000
0100
0000
0000
0010
0000
,
0110
0000
0000
1000
0000
0000
0001
0000
,
1001
1000
0001
1000
,
1001
0001
1000
0001
,
0101
0100
0010
1000
,
1100
0100
0010
0000
,
2002
0000
3003
0000
,
2200
0000
3300
0000
,
0022
0000
0033
0000
,
0220
0000
0000
0330
,
0001
0100
1000
0100
,
0001
1000
0100
0001
,
0100
1000
0010
0100
,
0110
1001
0110
1001
,
2002
0000
0000
3003
,
0020
0030
0001
0100
,
0020
0030
1000
0100
,
0020
0030
0001
1000
,
0002
0000
0003
1000
,
0020
0030
1000
0100
,
0020
0030
0001
0100
,
0020
0000
0030
0000
,
2002
0000
0000
3003
,
0010
0000
0010
0000
,
0010
0000
0000
0000
,
1000
0100
0001
0010
,
1000
0001
1001
0000
,
0001
0100
1000
0010
,
0001
0100
1000
0010
,
0001
0101
1000
1100
,
0020
0001
0130
0110
,
2002
0000
0000
3003
,
1000
0100
0001
0010
,
0110
1001
0110
0010
,
1000
0010
0001
0010
,
1001
0110
2002
3003
,
0001
0100
1000
0010
,
0110
1001
0110
0010
,
2000
0000
0001
3001
,
1001
0000
0000
1001
0000
0000
1001
0000
;

//---------------dance-single - NewbStepper-bSP----------------
#NOTES:
     dance-single:
     NewbStepper:
     Beginner:
     3:
     0.133659,0.212639,0.023197,0.061859,0,121,118,3,8,0,0,0.133659,0.212639,0.023197,0.061859,0,121,118,3,8,0,0:
0000
0000
0000
0000
,
0000
0000
0000
0000
,
0000
0000
0000
0000
,
0001
0000
0100
0000
,
0001
0001
0001
0000
,
1000
0000
0010
0000
,
1000
1000
1000
0000
,
1000
0000
0100
0000
,
1000
1000
1000
0000
,
0001
0000
1000
0000
,
0010
0000
0000
0000
,
1000
0000
0100
0000
,
1000
1000
1000
0000
,
0001
0000
0010
0000
,
0001
0001
0001
0000
,
0001
0000
0100
0000
,
0001
0001
0001
0000
,
1000
0000
0001
0000
,
0010
0000
0000
0000
,
0001
0000
1000
0000
,
0001
1000
0001
0000
,
0100
0000
0010
0000
,
0100
0010
0100
0000
,
1000
0000
0001
0000
,
1000
0001
1000
0000
,
0010
0000
0100
0000
,
0010
0100
0010
0000
,
0001
0000
0000
0000
,
0001
0000
0000
0000
,
0100
0000
0000
0000
,
0100
0000
0000
0000
,
0010
0000
0000
0000
,
0010
0000
0000
0000
,
1000
0000
0000
0000
,
1000
0000
0000
0000
,
1001
0000
0000
0000
,
0000
0000
0000
0000
,
0000
0000
0000
0000
,
0000
0000
0000
0000
,
1001
0000
0001
0000
,
1000
0000
0000
0000
,
1001
0000
1000
0000
,
0001
0001
0001
0001
,
0001
0000
0000
0000
,
1000
0000
1000
0000
,
0200
0000
0300
0000
,
0001
0000
0001
0000
,
0020
0000
0030
0000
,
0001
0000
0001
0000
,
0200
0000
0300
0000
,
1000
0000
1000
0000
,
0020
0000
0030
0000
,
0001
0000
0001
0000
,
0200
0000
0300
0000
,
1000
0000
1000
0000
,
0020
0000
0030
0000
,
1000
0000
1000
0000
,
0200
0000
0300
0000
,
0001
0000
0001
0000
,
0020
0000
0030
0000
,
0000
0000
0000
0000
,
0001
0000
0100
0000
,
0001
0001
0001
0000
,
1000
0000
0010
0000
,
1000
1000
1000
0000
,
1000
0000
0100
0000
,
1000
1000
1000
0000
,
0001
0000
1000
0000
,
0010
0000
0000
0100
;

//---------------dance-double - NewbStepper-EDP----------------
#NOTES:
     dance-double:
     NewbStepper:
     Hard:
     14:
     0.599809,0.611338,0.448476,0.255167,0.463940,543,485,58,33,0,0,0.599809,0.611338,0.448476,0.255167,0.463940,543,485,58,33,0,0:
00000000
00000000
00000000
00000000
,
00000000
00000000
00000000
00000000
,
00011000
00001001
00011000
10010000
,
01000000
00000000
00000000
10000000
00000000
00100000
01000000
00000000
00000000
00010000
00000000
00000000
10000000
00000000
00000000
01000000
00000000
00000000
00100000
00000000
00000000
00010000
00000000
00000000
,
00001000
00000000
00000000
00000001
00000000
00000000
00001000
00000000
00000000
00010000
00000000
00000000
00100000
00000000
00000000
00001000
00000000
00010000
00001000
00000000
00000000
00010000
00000000
00000000
,
00100000
00000000
00000000
00000000
00000000
00100000
00010000
00000000
00000000
00001000
00000000
00000000
00000010
00000000
00000000
00000000
00000000
00000010
00001000
00000000
00000000
00010000
00000000
00000000
,
00011000
00000000
00000000
00011000
00000000
00000000
00001100
00000000
00000202
00000000
00000000
00000000
00000303
00000000
00000000
00000000
,
00000100
00000000
00000000
00000001
00000000
00000010
00000100
00000000
00000000
00001000
00000000
00000000
00000001
00000000
00000000
00000100
00000000
00000000
00000010
00000000
00000000
00001000
00000000
00000000
,
00010000
00000000
00000000
10000000
00000000
00000000
00010000
00000000
00000000
00001000
00000000
00000000
00000010
00000000
00000000
00010000
00000000
00001000
00010000
00000000
00000000
00001000
00000000
00000000
,
00001020
00000000
00000000
00000000
00000000
00000000
00000030
00000000
00000000
00000000
00001000
00010000
00001000
00000000
00000000
00000000
01000000
00100000
01000000
00000000
00000000
00000000
00000000
00010000
,
01000000
00000000
00000000
01100000
00000000
00000000
02200000
00000000
00000000
00000000
00000000
00000000
03300000
00000000
00100000
00000000
,
10000000
00000000
00000000
00010000
01000000
00010000
01000000
00000000
00000000
00100000
00000000
00000000
00010000
00000000
00000000
00001000
00000000
00000010
00000100
00000000
00000000
00010000
00000000
00000000
,
00001000
00000000
00000000
00000001
00000000
00000000
00001000
00000000
00000000
00010000
00000000
00001000
00000010
00000000
00000000
00001000
00000000
00010000
00100000
00000000
00000000
10000000
00000000
00000000
,
01000000
00000000
00000000
00000000
00000000
01000000
00010000
00000000
00000000
00001000
00000000
00000000
00000100
00000000
00000000
00000000
00000000
00000100
00001000
00000000
00000000
00010000
00000000
00000000
,
00011000
00000000
00000000
00001010
00000000
00000000
00000011
00000000
00002002
00000000
00000000
00000000
00003003
00000000
00000010
00000000
,
00000001
00000000
00000000
00001000
00000100
00001000
00000100
00000000
00000000
00000010
00000000
00000000
00001000
00000000
00000000
00010000
00000000
00100000
01000000
00000000
00000000
00001000
00000000
00000000
,
00010000
00000000
00000000
10000000
00000000
00000000
00010000
00000000
00000000
00001000
00000000
00010000
00100000
00000000
00000000
00010000
00000000
00001000
00000010
00000000
00000000
00000001
00000000
00000000
,
00002001
00000000
00000000
00000000
00000000
00000000
00003000
00000000
00000000
00000000
00000001
00000100
00000001
00000000
00000000
00000000
00001000
00000100
00001000
00000000
00000000
00000000
00000000
00000100
,
00010000
00000000
00000000
00011000
00000000
00000000
00022000
00000000
00000000
00000000
00000000
00000000
00033000
00000000
00000000
00000000
,
00001000
00010000
00100000
10000000
00010000
00001000
00000100
00000000
,
00000010
00000000
00000000
00001000
00000000
00000000
00010000
00000000
00001000
00010000
00000000
00001000
00010000
00000000
00000000
00100000
00000000
00000000
01100000
00000000
00000000
00000000
00000000
00000000
,
10000000
00000000
00000000
00010000
00000000
00100000
00000000
00000000
00001000
00000000
00000000
00100000
00010000
00000000
00000000
00001000
00000000
00000000
00000100
00000000
00000010
00000100
00000000
00000010
,
00000001
00001000
00010000
10000000
00010000
00001000
00000001
00000000
,
00001000
00000100
00000010
00010000
00100000
00001000
00000100
00000010
,
00010000
01000000
00100000
10000000
00010000
00001000
00010000
00000000
,
00001000
00000000
00000010
00000000
00000000
00001000
00000010
00000000
00000001
00000010
00000000
00000001
00000100
00000000
00000000
00001000
00000000
00000000
00011000
00000000
00000000
00000000
00000000
00000000
,
02002000
00000000
00000000
03003000
,
01100000
00000000
00000000
00000000
00000000
00100000
00010000
00000000
00000000
00011000
00000000
00000000
00000000
00000000
00001000
00000010
00000000
00000000
00000001
00000000
00000000
00000010
00000000
00000000
,
00000110
00000000
00000000
00000000
00000000
00000100
00001000
00000000
00000000
00011000
00000000
00000000
00000000
00000000
00010000
00100000
00000000
00000000
01000000
00000000
10000000
01000000
00000000
10000000
,
00100000
00000000
00000000
00000000
00000000
00100000
00010000
00000000
00000000
00011000
00000000
00000000
00000000
00000000
00001000
00000010
00000000
00000000
00000001
00000000
00000000
00000010
00000000
00000000
,
00000110
00000000
00000000
00000000
00000000
00000100
00010000
00000000
00000000
00011000
00000000
00000000
00000000
00000000
00001000
00000100
00000000
00000000
00000001
00000000
00001000
00000100
00000000
00000000
,
00000110
00000000
00000000
00000000
00000000
00000010
00001000
00000000
00000000
00011000
00000000
00000000
00000000
00000000
00010000
00100000
00000000
00000000
10000000
00000000
00000000
00100000
00000000
00000000
,
01100000
00000000
00000000
00000000
00000000
01000000
00010000
00000000
00000000
00011000
00000000
00000000
00000000
00000000
00001000
00000010
00000000
00000000
00000100
00000000
00000001
00000100
00000000
00000001
,
00000010
00000000
00000000
00000000
00000000
00000010
00001000
00000000
00000000
00011000
00000000
00000000
00000000
00000000
00010000
00100000
00000000
00000000
10000000
00000000
00000000
00100000
00000000
00000000
,
01100000
00000000
00000000
00000000
00000000
01000000
00001000
00000000
00000000
00022000
00000000
00000000
00000000
00000000
00000000
00000000
00000000
00000000
00033000
00000000
00000000
00000000
00000000
00000000
,
00011000
00000000
00000000
00000000
00000000
00001000
00000000
00000000
00000100
00000000
00000000
00000000
00000001
00000000
00000000
00000000
00000000
00000000
00000010
00000000
00000000
00000000
00000000
00000000
,
00011000
00000000
00000000
00000000
00000000
00010000
00000000
00000000
01000000
00000000
00000000
00000000
10000000
00000000
00000000
00000000
00000000
00000000
00100000
00000000
00000000
00000000
00000000
00000000
,
00011000
00000000
00000000
00000000
00000000
00001000
00000000
00000000
00000010
00000000
00000000
00000000
00000001
00000000
00000000
00000000
00000000
00000000
00000100
00000000
00000000
00000000
00000000
00000000
,
00011000
00000000
00000000
00000000
00000000
00010000
00000000
00000000
00100000
00000000
00000000
00000000
10000000
00000000
00000000
00000000
00000000
00000000
01000000
00000000
00000000
00000000
00000000
00000000
,
11000000
00000000
00000000
10000000
00000000
01000000
10000000
00000000
00000000
00100000
00000000
00000000
00010000
00000000
00001000
00000000
00000000
00000010
00000000
00000000
00001000
00010000
00000000
00001000
,
00000100
00000000
00000000
00000000
00000001
00000000
00000000
00000000
00000000
00000010
00000000
00000000
00000110
00000000
00000000
00000000
00000000
00000000
00000110
00000000
00000000
00000000
00000000
00000000
,
00000001
00000000
00000100
00000000
00000000
00001000
00000000
00000000
00000000
00010000
00000000
00000000
00001000
00000000
00000000
00000000
00000000
00000000
00100000
00000000
00000000
00010000
00000000
00000000
,
10000000
00000000
01000000
00000000
00000000
00010000
00000000
00000000
00000000
00001000
00000000
00000000
00010000
00001000
00000000
00000000
00000000
00000000
00011000
00000000
00000000
00000000
00000000
00000000
,
00022000
00000000
00000000
00000000
00000000
00000000
00000000
00000000
00000000
00000000
00033000
00000000
00000000
00000000
00001000
00000100
,
00000002
00000000
00000000
00000000
00000003
00000000
00000010
00001000
00020000
00000000
00000000
00000000
00030000
00000000
00001000
00010000
,
00200000
00000000
00000000
00000000
00300000
00000000
10000000
01000000
00010000
00000000
00001000
00000000
00000010
00000000
00000000
00000001
,
00000200
00000000
00000000
00000000
00000300
00000000
00000010
00000100
00002000
00000000
00000000
00000000
00003000
00000000
00010000
00001000
,
00020000
00000000
00000000
00000000
00001000
00000000
00000000
00000000
00001000
00000000
00000000
00000000
00031000
00000000
00010000
01000000
,
20000000
00000000
00000000
00000000
30000000
00000000
00100000
00010000
00002000
00000000
00000000
00000000
00003000
00000000
00010000
00001000
,
00000020
00000000
00000000
00000000
00000030
00000000
00000001
00000100
00001000
00000000
00010000
00000000
00100000
00000000
00000000
10000000
,
02000000
00000000
00000000
00000000
00010000
00000000
00000000
00000000
10000000
00000000
00000000
00000000
03010000
00000000
00001000
00000010
,
00000002
00001000
00000003
00001001
,
00000001
00000100
00001000
01000000
00010000
10000000
00100000
00001000
,
00010000
00001000
00000010
00000100
00000001
00001000
00000100
00000010
,
00001000
00000000
00010000
00000000
00000000
00010000
00001000
00000000
00000000
00100000
00000000
00000000
00010000
00000000
00000000
00000010
00000000
00000000
00001000
00000000
00000000
00010000
00000000
00000000
,
00200000
00000000
10000000
00000000
01300000
00010000
00010000
00010000
,
10000000
00100000
00010000
00000010
00001000
00010000
00001000
00000000
,
00000001
00000010
00001000
00100000
00010000
00001000
00010000
00000000
,
00011000
10010000
00011000
00001001
,
00000010
00000000
00000100
00001000
00000000
00000000
00010000
00000000
00001000
00000010
00000000
00000000
00000001
00000000
00001000
00000001
00000000
00001000
00000100
00000000
00000000
00000000
00000000
00000000
,
00000220
00000000
00000000
00000000
00000000
00000330
00000000
00000010
,
00000001
00000000
00000000
00001000
00000100
00001000
00000100
00000000
00000000
00000010
00000000
00000000
00001000
00000000
00000000
00010000
00000000
00100000
01000000
00000000
00000000
00001000
00000000
00000000
,
00010000
00000000
00000000
10000000
00000000
00000000
00010000
00000000
00000000
00001000
00000000
00010000
00100000
00000000
00000000
00010000
00000000
00001000
00000010
00000000
00000000
00000001
00000000
00000000
,
00000100
00000000
00000000
00000000
00000000
00000100
00001000
00000000
00000000
00010000
00000000
00000000
01000000
00000000
00000000
00000000
00000000
01000000
00010000
00000000
00000000
00001000
00000000
00000000
,
00011000
00000000
00000000
00110000
00000000
00000000
10100000
00000000
20020000
00000000
00000000
00000000
30030000
00000000
00100000
00000000
,
10000000
00000000
00000000
00010000
01000000
00010000
01000000
00000000
00000000
00100000
00000000
00000000
00010000
00000000
00000000
00001000
00000000
00000010
00000100
00000000
00000000
00010000
00000000
00000000
,
00001000
00000000
00000000
00000001
00000000
00000000
00001000
00000000
00000000
00010000
00000000
00001000
00000010
00000000
00000000
00001000
00000000
00010000
00100000
00000000
00000000
10000000
00000000
00000000
,
10020000
00000000
00000000
00000000
00000000
00000000
00030000
00000000
00000000
00000000
10000000
01000000
10000000
00000000
00000000
00000000
00010000
01000000
00010000
00000000
00000000
00000000
00000000
01000000
,
00001000
00000000
00000000
00011000
00000000
00000000
00011000
00000000
00000000
00000000
00010000
00000000
00011000
00000000
00000000
00000000
;

//---------------dance-double - NewbStepper-DDP----------------
#NOTES:
     dance-double:
     NewbStepper:
     Medium:
     10:
     0.400977,0.425279,0.262899,0.301561,0.065725,363,329,34,39,0,0,0.400977,0.425279,0.262899,0.301561,0.065725,363,329,34,39,0,0:
00000000
00000000
00000000
00000000
,
00000000
00000000
00000000
00000000
,
00011000
00011000
00011000
00011000
,
00000010
00002000
00000000
00003001
00001000
00000100
00000010
00000001
,
00000100
00001000
00010000
01000000
10000000
00000000
00010000
01000000
,
00001000
00000000
00010000
00000100
00000010
00000000
00000001
00000100
,
00001000
00000000
00000000
00010000
00000000
00000000
01000000
00000000
02200000
00000000
00000000
00000000
03300000
00000000
00000000
00000000
,
00100000
00020000
00000000
10030000
00010000
01000000
00100000
10000000
,
01000000
00010000
00001000
00000100
00000001
00000000
00001000
00000100
,
00010000
00000000
00000000
00000000
00000000
00000000
00000100
00000000
00000000
00000000
00000000
00000100
00010000
00000000
00000000
00000000
00000000
00010000
00001000
00000000
00000000
00000000
00000000
00001000
,
00100000
00000000
00000000
00101000
00000000
00000000
00101000
00000000
00000000
00000000
00000000
00000000
00000000
00000000
01000000
00000000
,
00010000
00000000
10100000
00100000
10000000
01000000
00100000
00010000
,
10000000
01000000
00010000
00001000
00000020
00000000
00000130
00001000
,
00000002
00000000
00000013
00001000
00000020
00000000
00000130
00010000
,
00001000
00000000
00000000
00001000
00000000
00000000
00000100
00000000
00000020
00000000
00000000
00000000
00000030
00000000
00000100
00000000
,
00001000
00000100
00000001
00000010
00000001
00000100
00000010
00001000
,
00000001
00000100
00001000
00010000
00200000
00000000
01300000
00010000
,
10000000
00000000
00000000
00000000
00000000
00000000
01000000
00000000
00000000
00000000
00000000
01000000
00010000
00000000
00000000
00000000
00000000
00010000
00001000
00000000
00000000
00000000
00000000
00001000
,
00010000
00000000
00000000
00011000
00000000
00000000
00011000
00000000
00000000
00000000
00000000
00000000
00000000
00000000
00000000
00000000
,
00000010
00000110
00000000
00001001
00000000
00000001
00000100
00000000
,
00000010
00001000
00010000
01000000
00100000
00010000
00001000
00000000
,
00010000
00100000
10000000
00000000
10000000
01000000
00010000
00000000
,
00001000
00000100
00000001
00000010
00000100
00001000
00000001
00000000
,
00000200
00000000
00000320
00000000
00010030
00001000
00010000
00001000
,
00100000
00000000
01100000
00000000
00010000
10000000
00010000
00000000
,
10000000
01000000
00010000
00000000
00001000
00000100
00000001
00000000
,
00000220
00000000
00000000
00000330
,
00001001
00000000
00001000
00000100
00000000
00000010
00000001
00000100
,
00001000
00000000
00010000
00100000
00000000
00010000
00001000
00100000
,
01000000
00000000
10000000
00100000
00000000
00010000
00001000
00100000
,
00110000
00011000
00001001
00011000
,
10010000
00000000
00010000
01000000
00000000
00100000
10000000
01000000
,
00010000
00000000
00001000
00000010
00000000
00001000
00010000
00000010
,
00000100
00000000
00000001
00000010
00000000
00001000
00010000
00000010
,
00001010
00000101
00001001
00000000
,
00000002
00000000
00000000
00000000
,
00002003
00000000
00000000
00000000
,
00023000
00000000
00000000
00000000
,
20030000
00000000
00000000
00000000
,
30010000
00000000
01000000
00000000
00100000
10000000
00100000
00000000
,
10000000
00000000
01000000
00000000
00010000
00001000
00010000
00000000
,
00001000
00000010
00001000
00000010
00000001
00000010
00000001
00000100
,
00000010
00010000
00000010
00010000
,
00022000
00000000
00000000
00033000
,
00200000
00000000
00300000
00010000
02000000
00000000
03000000
00100000
,
20000000
00000000
00000000
00000000
30000000
00000000
01000000
00000000
00010000
00000000
00001000
00000000
00000100
00000000
00000000
00000001
,
00002000
00000000
00003000
00000001
00000200
00000000
00000300
00000010
,
00002000
00000000
00000000
00003000
,
00000020
00000000
00000030
00001000
00000200
00000000
00000300
00000010
,
00000002
00000000
00000000
00000000
00000003
00000000
00000100
00000000
00001000
00000000
00010000
00000000
01000000
00000000
00000000
10000000
,
00020000
00000000
00000000
00030000
,
20020000
00000000
00000000
30030000
,
01100000
00010000
00000110
00001000
,
01100000
00010000
00001000
00000100
,
00000001
00000010
00001000
00000000
00000001
00000100
00001000
00000000
,
00000020
00000000
00000030
00001001
,
00000001
00000100
00001000
00000000
00000100
00001000
00010000
00000000
,
01000000
00010000
00001000
00000000
00100000
01000000
10000000
00000000
,
00100000
00010000
00001000
00000010
,
00000200
00010000
00001000
00001300
,
00002002
00000000
00000000
00003003
,
00000010
00002000
00000000
00003001
00001000
00000100
00000010
00000001
,
00000100
00001000
00010000
01000000
10000000
00000000
00010000
01000000
,
00001000
00000000
00010000
00000100
00000010
00000000
00000001
00000100
,
00001000
00000000
00000000
00010000
00000000
00000000
01000000
00000000
02200000
00000000
00000000
00000000
03300000
00000000
00000000
00000000
,
00100000
00020000
00000000
10030000
00010000
01000000
00100000
10000000
,
01000000
00010000
00001000
00000100
00000001
00000000
00001000
00000100
,
00010000
00000000
00000000
00000000
00000000
00000000
00000100
00000000
00000000
00000000
00000000
00000100
00010000
00000000
00000000
00000000
00000000
00010000
00001000
00000000
00000000
00000000
00000000
00001000
,
00100000
00000000
00000000
00101000
00000000
00000000
00101000
00000000
00000000
00000000
00000000
00000000
00011000
00000000
00000000
00000000
;

//---------------dance-double - NewbStepper-BDP----------------
#NOTES:
     dance-double:
     NewbStepper:
     Easy:
     6:
     0.282783,0.345539,0.402082,0.255167,0,256,204,52,33,0,0,0.282783,0.345539,0.402082,0.255167,0,256,204,52,33,0,0:
00000000
00000000
00000000
00000000
,
00000000
00000000
00000000
00000000
,
00000000
00000000
00000000
00000000
,
00001000
00000100
00000001
00000010
,
00000110
00001001
00000110
00000010
,
00001000
00010000
00100000
01000000
,
01100000
10010000
02200000
03300000
,
00010000
01000000
10000000
00100000
,
01100000
10010000
01100000
00100000
,
00020000
00000000
00001000
00031000
,
00011000
00000000
00000000
00011000
00000000
00000000
00000000
00000000
,
00001000
00000100
00000001
00000010
,
00000110
00001001
00000110
00000010
,
00001000
00010000
00100000
01000000
,
01100000
10010000
02200000
03300000
,
00010000
01000000
10000000
00100000
,
01100000
10010000
01100000
00100000
,
00020000
00000000
00001000
00031000
,
00011000
00000000
00000000
00011000
00000000
00000000
00000000
00000000
,
00000010
00001000
00000100
00000000
,
00000010
00000001
00000100
00000000
,
00001000
00010000
01000000
00000000
,
00010000
00001000
00000100
00000010
,
00001000
00010000
01000000
00000000
,
00100000
10000000
01000000
00010000
,
00001000
00000100
00000001
00000010
,
00000220
00000000
00000000
00000330
,
00001001
00000000
00000000
00000010
00000000
00000000
00010000
00000000
,
00011000
00000000
00000000
01000000
00000000
00000000
00010000
00000000
,
10010000
00000000
00000000
00100000
00000000
00000000
00001000
00000000
,
00011000
00000000
00000000
00000100
00000000
00000000
00001000
00000000
,
00001001
00000001
00000100
00001000
,
00011000
00010000
00100000
10000000
,
10010000
10000000
01000000
00010000
,
00011000
00001000
00000010
00000000
,
00000220
00000000
00000000
00000330
,
00022000
00000000
00000000
00033000
,
02200000
00000000
00000000
03300000
,
00022000
00000000
00000000
00033000
,
00010000
01000000
10000000
01000000
,
00010000
00001000
00000100
00000001
,
00000100
00001000
00010000
00100000
,
10000000
00100000
00010000
00001000
,
00022000
00000000
00000000
00033000
,
00000020
00000030
00001000
00000100
,
00000020
00000030
00000001
00000100
,
00002000
00003000
00010000
01000000
,
20000000
00000000
30000000
00010000
,
00200000
00300000
00010000
01000000
,
00200000
00300000
10000000
01000000
,
00020000
00000000
00030000
00000000
,
00022000
00000000
00000000
00033000
,
00000010
00000000
00000010
00000000
,
00000010
00000000
00000000
00000000
,
00001000
00010000
01000000
10000000
,
00100000
01000000
01100000
00000000
,
00010000
00001000
00000010
00000001
,
00000100
00001000
00010000
00100000
,
10000000
01000000
00010000
00001000
,
00020000
00000010
00031000
00011000
,
00022000
00000000
00000000
00033000
,
00010000
01000000
10000000
00100000
,
01100000
10010000
01100000
00100000
,
00010000
00001000
00000010
00000100
,
00000110
00001001
00000220
00000330
,
00001000
00000100
00000001
00000010
,
00000110
00001001
00000110
00000010
,
00002000
00000000
00010000
00013000
,
00011000
00000000
00000000
00011000
00000000
00000000
00011000
00000000
;
