#TITLE:BBoom BBoom;
#ARTIST:MOMOLAND;
#BANNER:BBoom BBoom.png;
#BACKGROUND:BBoom BBoom-bg.png;
#MUSIC:BBoom BBoom.ogg;
#OFFSET:-0.226;
#SAMPLESTART:67.845;
#SAMPLELENGTH:15;
#BPMS:0=126;
#STOPS:140=0.476;
#BGCHANGES:-0.250=BBoom BBoom.avi=1=0=0=0=StretchNoLoop====,99999=-nosongbg-=1=0=0=0 // don't automatically add -songbackground-;

//---------------dance-single - NewbStepper-ESP----------------
#NOTES:
     dance-single:
     NewbStepper:
     Hard:
     11:
     0.497456,0.558827,0.463634,0.138104,0.083849,353,306,47,14,0,0,0.497456,0.558827,0.463634,0.138104,0.083849,353,306,47,14,0,0:
// measure 0
0000
0000
0000
0000
,  // measure 1
0000
0000
0000
0000
,  // measure 2
0000
0000
0000
0000
,  // measure 3
0000
0000
0000
0000
1000
0100
0001
0100
,  // measure 4
1100
0010
0000
0010
0001
0001
0100
0001
,  // measure 5
0020
0000
0030
0001
0001
0010
1000
0010
,  // measure 6
0011
0100
0000
0100
1000
1000
0001
1000
,  // measure 7
0010
1000
0100
0010
0011
0000
1010
0000
,  // measure 8
0101
0010
0000
0010
1000
1000
0100
1000
,  // measure 9
0020
0000
0030
1000
1000
0010
0001
0010
,  // measure 10
1010
0000
0000
1010
0000
0000
0001
0100
0000
0000
0010
0000
1000
0001
0000
0000
,  // measure 11
1000
0100
0010
0001
1001
0000
1001
0000
,  // measure 12
0001
0000
1000
0010
0100
0010
0001
0010
,  // measure 13
1000
0000
0001
1000
1001
0000
0000
0010
,  // measure 14
1000
1000
0001
0010
0100
0010
1000
0010
,  // measure 15
0001
0101
1010
0110
,  // measure 16
0001
0000
0001
0000
0100
0000
0100
0000
0010
0000
0000
1000
0000
0000
0001
0000
,  // measure 17
1000
0100
0000
0000
0100
0001
0000
0000
0110
0000
0000
0000
1001
0000
0000
0000
,  // measure 18
1000
0100
0010
0001
0100
0000
0001
1000
,  // measure 19
0010
0100
0001
0100
0010
0000
1010
0000
,  // measure 20
0101
0000
0101
0000
1000
0100
0001
0100
,  // measure 21
1100
0000
1100
0000
0001
0010
1000
0010
,  // measure 22
0011
0000
0011
0000
1000
0010
0001
0010
,  // measure 23
1000
0100
0000
0000
0100
0010
0000
0000
0010
0001
0000
0000
1001
0000
0000
0000
,  // measure 24
2000
0000
3200
0000
0320
0000
0031
0100
,  // measure 25
0010
0000
0100
0000
0001
0000
1000
0100
0000
0000
0010
0000
0010
0000
0010
0000
,  // measure 26
0100
1000
0100
0010
0002
0000
0003
1000
,  // measure 27
0100
0010
1001
0010
,  // measure 28
0002
0000
0203
0000
2300
0000
3100
0001
,  // measure 29
0020
0000
0230
0000
2300
0000
3001
1000
,  // measure 30
0001
0010
0001
0100
1000
0100
0001
1000
,  // measure 31
0100
0001
0100
1000
0010
0100
0001
0010
,  // measure 32
1000
0010
0001
1000
0010
0001
0010
1000
,  // measure 33
0100
0010
0001
0100
1000
0100
0001
1000
,  // measure 34
0010
0100
0001
1000
0100
0001
0100
1000
,  // measure 35
0000
0010
0010
1000
,  // measure 36
0001
0000
0001
0000
0100
0000
0100
0000
0010
0000
0100
0000
1000
0000
0000
1100
,  // measure 37
0000
0000
0001
0010
1000
0010
0001
0000
,  // measure 38
1000
1000
0100
0100
0010
0010
1001
0000
,  // measure 39
0000
0000
0001
0100
1000
0100
0001
0000
,  // measure 40
1000
0000
1000
0000
0100
0000
0100
0000
0010
0000
0100
0000
0001
0000
0000
0101
,  // measure 41
0000
0000
0000
0000
1000
0000
0010
0000
0001
0000
0010
0000
1010
0000
0000
1001
,  // measure 42
0000
0000
1100
0000
0001
0000
0010
0000
1000
0000
0010
0000
0011
0000
0000
0101
,  // measure 43
0000
0000
1010
0000
0000
0110
0000
0000
1001
0000
0000
0000
0101
0000
0010
0000
,  // measure 44
0000
0010
1000
1000
0100
1000
0020
0000
,  // measure 45
0030
1000
1000
0010
0001
0010
1010
0100
,  // measure 46
0000
0100
0001
0001
1000
0001
0010
0001
,  // measure 47
0100
0010
1010
0000
0011
0000
1100
0010
,  // measure 48
0000
0010
0001
0001
0100
0001
0020
0000
,  // measure 49
0030
0000
0001
0000
0001
0000
0010
0000
1000
0000
0010
0000
0011
0000
0000
1001
,  // measure 50
0000
0000
0000
0000
1000
0000
0010
0000
0001
0000
0010
0000
1010
0000
0000
1100
,  // measure 51
0000
0011
1001
0000
1001
0000
0000
0000
;

//---------------dance-single - NewbStepper-DSP----------------
#NOTES:
     dance-single:
     NewbStepper:
     Medium:
     7:
     0.343850,0.406420,0.236749,0.118375,0.009865,244,220,24,12,0,0,0.343850,0.406420,0.236749,0.118375,0.009865,244,220,24,12,0,0:
0000
0000
0000
0000
,
0000
0000
0000
0000
,
0000
0000
0000
0000
,
0000
0000
1000
0001
,
0010
0001
0000
1000
0010
0000
1000
0100
,
0020
0030
0001
1000
,
0100
1000
0000
0001
0100
0000
0001
0010
,
0100
1000
0001
1001
,
0010
1000
0000
0001
0010
0000
0001
0100
,
0020
0030
1000
0001
,
0010
0000
0000
0001
0000
0100
0100
0000
,
0010
0110
1001
1001
,
1000
0100
0001
0100
,
1000
0001
0100
0000
,
0001
0100
1000
0100
,
0001
1000
0100
0000
,
0010
0100
0010
0000
,
0001
1000
0001
1001
,
0010
1000
0010
1000
0100
0000
0000
0010
,
0001
0000
1000
0100
0001
0000
0100
0000
,
1100
0000
1100
0000
0001
0100
0001
0000
,
0101
0000
0101
0000
1000
0010
1000
0000
,
1010
0000
1010
0000
0001
0010
0001
0000
,
0100
0010
0100
1001
,
2000
3200
0320
0032
,
1003
0000
0010
0100
0001
0000
1000
0000
,
0001
0100
0010
0100
0001
0000
0000
1000
,
0010
0100
0110
1001
,
2000
3100
0002
0103
,
2000
3010
0002
0013
,
1000
0100
1000
0000
0001
0000
0100
0000
,
0001
0100
0001
0000
1000
0000
0100
0000
,
0010
0100
1000
0000
0010
0100
0001
0000
,
1000
0100
0010
0000
0001
0100
0010
0000
,
1000
0100
0001
0100
,
0000
0000
0000
1010
,
1000
0100
1000
0100
0010
0000
0001
0000
,
1010
0000
0010
0100
0001
0000
0011
0000
,
0001
0100
0001
0100
0010
0000
0110
0000
,
0000
1000
0001
1001
,
1000
0001
1000
0001
0010
0000
0100
0000
,
0110
0000
0001
1000
0001
1000
0010
0000
,
0000
0000
1000
0001
1000
0001
0010
0000
,
1100
0000
0010
0000
0101
0000
0010
1000
,
0000
0001
0010
0000
0001
0100
0020
0000
,
0030
0000
1000
0000
0001
0000
0100
0001
,
0000
1000
0100
0000
1000
0010
0100
0000
,
0001
0000
1000
0000
1001
0000
0010
0001
,
0000
1000
0010
0000
1000
0100
0020
0000
,
0030
0000
0000
0000
0001
0000
0000
0000
1000
0000
0000
0000
0010
0000
0000
0010
,
0000
0000
0000
0000
1000
0000
0000
0000
0001
0000
0000
0000
0010
0000
0000
0010
,
0000
0010
0100
0000
1001
0000
0000
0000
;

//---------------dance-single - NewbStepper-BSP----------------
#NOTES:
     dance-single:
     NewbStepper:
     Easy:
     5:
     0.249432,0.279414,0.157833,0,0,177,161,16,0,0,0,0.249432,0.279414,0.157833,0,0,177,161,16,0,0,0:
0000
0000
0000
0000
,
0000
0000
0000
0000
,
0000
0000
0000
0000
,
0000
0000
0001
0000
,
1000
0100
0010
0000
,
0001
0000
0001
1000
,
0001
0100
0010
0000
,
1000
0001
1001
1001
,
0001
0100
0010
0000
,
1000
0000
1000
0001
,
1000
0100
0010
0001
,
1000
0001
1001
1001
,
0010
0001
0100
1000
,
0100
0000
0000
0000
,
0010
1000
0100
0001
,
0100
0000
0000
0000
,
1000
0100
0001
0000
,
0100
0010
0100
0110
,
1000
0001
1000
0000
,
0010
0100
0010
0000
,
1000
0100
1100
0000
,
0001
0100
0101
0000
,
1000
0010
1010
0000
,
0001
1000
0001
1001
,
1000
0001
1000
0010
,
0100
0010
1000
0000
,
0001
1000
0001
0010
,
0100
0010
0001
0100
,
0010
0010
1000
0100
,
0001
0100
1000
1000
,
0001
0100
1000
0100
,
0001
0001
0010
0001
,
0100
0010
1000
0010
,
0001
0010
1000
0001
,
0100
0010
1000
0001
,
0000
0000
0000
1001
,
1000
0010
0100
0001
,
0000
0010
0010
1001
,
0001
0010
0100
1000
,
0000
0010
0010
1001
,
1000
0100
0001
0010
,
1000
0001
0100
0010
,
0000
1000
0100
0010
,
0000
0001
1000
0001
,
0100
0010
0000
1000
,
0000
1000
0001
1000
,
0100
0010
0000
0001
,
1000
1001
1001
1000
,
0100
0010
0000
0001
,
0000
0001
1000
0001
,
0000
1000
0100
0010
,
0001
1001
1001
0000
;

//---------------dance-single - NewbStepper-bSP----------------
#NOTES:
     dance-single:
     NewbStepper:
     Beginner:
     1:
     0.090190,0.152407,0.009865,0.059187,0,64,63,1,6,0,0,0.090190,0.152407,0.009865,0.059187,0,64,63,1,6,0,0:
0000
0000
0000
0000
,
0000
0000
0000
0000
,
0000
0000
0000
0000
,
0000
0000
0000
0000
,
1000
0000
0000
0000
,
0000
0000
0000
0000
,
0001
0000
0000
0000
,
0000
0000
0010
0010
,
0010
0000
0000
0000
,
0000
0000
0000
0000
,
0001
0000
0000
0000
,
1000
0000
0100
0100
,
0100
0000
0100
0000
,
0100
0000
0000
0000
,
0010
0000
0010
0000
,
0010
0000
0000
0000
,
0001
0000
0000
0000
,
0001
0000
0000
0000
,
1000
0000
0000
0000
,
1000
0000
0000
0000
,
0001
0001
0000
0000
,
1000
1000
0000
0000
,
0010
0010
0000
0000
,
0100
0100
0100
0000
,
0001
0000
1000
0000
,
0001
0000
0000
0000
,
1000
0000
0000
0000
,
1000
0000
0000
0000
,
0002
0000
0003
0000
,
2000
0000
3000
0000
,
0001
0000
1000
0000
,
0001
0000
0000
0000
,
2000
0000
3000
0000
,
0002
0000
0003
0000
,
2002
0000
0000
3003
,
0000
0000
0000
1000
,
0000
0000
0000
0100
,
0000
0001
0001
0001
,
0000
0000
0000
0010
,
0000
0000
0000
1000
,
0000
0000
0000
0001
,
0001
0000
0000
1000
,
1000
0000
0000
0010
,
0000
0000
0000
1000
,
0000
0000
0000
0000
,
0000
0000
0000
0001
,
0000
0000
0000
0000
,
0010
0010
0010
0000
,
0000
0000
0000
0000
,
0000
0000
0000
0001
,
0001
0000
0000
1000
,
0000
0100
0100
0000
;

//---------------dance-double - NewbStepper-EDP----------------
#NOTES:
     dance-double:
     NewbStepper:
     Hard:
     12:
     0.517185,0.533426,0.503093,0.088781,0.083849,367,316,51,9,0,0,0.517185,0.533426,0.503093,0.088781,0.083849,367,316,51,9,0,0:
00000000
00000000
00000000
00000000
,
00000000
00000000
00000000
00000000
,
00000000
00000000
00000000
00000000
,
00000000
00000000
00000000
00000000
00001000
00010000
01000000
00010000
,
00011000
00000010
00000000
00000010
00001000
00000001
00000100
00001000
,
00020000
00000000
00030000
01000000
00010000
00001000
00000100
00001000
,
00011000
00100000
00000000
00100000
00010000
10000000
01000000
00010000
,
00001000
00000100
00000001
00000100
00000110
00000000
00001001
00000000
,
00010100
00001000
00000000
00001000
00000010
00000100
00001000
00010000
,
00200000
00000000
10300000
00010000
01000000
10000000
01000000
00010000
,
01010000
00000000
00000000
00101000
00000000
00000000
00010000
00001000
00000000
00000000
00000100
00000000
00000010
00000100
00000000
00000000
,
00000101
00001100
00011000
00011000
,
00010000
00000000
01000000
10000000
00100000
00100000
00001000
00010000
,
00000100
00000000
00000001
00000100
00001000
00000000
00000000
00000001
,
00000010
00000010
00000100
00000001
00000010
00000010
00010000
00001000
,
01000000
00000000
10000000
01000000
00010000
00000000
00100000
00001000
,
00010000
00000000
00100000
00000000
00010000
00000000
00001000
00000000
00000010
00000000
00000000
00000110
00000000
00000000
00000001
00000000
,
00000100
00001000
00000000
00000000
00010000
00001000
00000000
00000000
00100000
00000000
00000000
00000000
10010000
00000000
00000000
00000000
,
00100000
10000000
01000000
01000000
00002000
00000000
00003000
00010000
,
00100000
00100000
00010000
00001000
00000100
00000000
00001001
00000000
,
00000011
00000000
00001100
00000000
00000001
00000100
00010000
01000000
,
01010000
00000000
10100000
00000000
10000000
01000000
00001000
00000100
,
00001100
00000000
00000011
00000000
00000001
00000010
00001000
00000010
,
00000001
00001000
00000000
00000000
00001000
00010000
00000000
00000000
00010000
10000000
00000000
00000000
01100000
00000000
00000000
00000000
,
20000000
00000000
32000000
00000000
03002000
00000000
00003100
00000010
,
00000001
00000000
00000100
00000000
00010000
00000000
00001000
00000010
00000000
00000000
00000100
00000000
00000100
00000000
00000010
00000000
,
00001000
00010000
01000000
01000000
00020000
00000000
00030000
00100000
,
00010000
00011000
00000110
00001001
,
00000001
00000100
00000010
00001000
00010000
01000000
00100000
10000000
,
01000000
00100000
00010000
00001000
00000100
00000001
00000100
00001000
,
00000010
00001000
00010000
00000100
00001000
00010000
01000000
00001000
,
00010000
00100000
00010000
10000000
01000000
00010000
00001000
00000100
,
00000001
00001000
00000100
00010000
01000000
10000000
00100000
01000000
,
00001000
00000100
00000001
00000010
00001000
00010000
01000000
10000000
,
00100000
00010000
00001000
00100000
00010000
00000010
00000100
00010000
,
00000000
00000000
00001000
00010000
01000000
00010000
00011000
00000000
,
00000100
00000000
00000100
00000000
00000001
00000000
00000001
00000000
00000010
00000000
00000010
00000000
00001010
00000000
00000000
00011000
,
00000000
00000000
00010000
00001000
00000100
00001000
00011000
00000000
,
01000000
01000000
10000000
10000000
00100000
00100000
00110000
00000000
,
00000000
00000000
00001000
00010000
00100000
00010000
00011000
00000000
,
00000010
00000000
00000010
00000000
00000001
00000000
00000001
00000000
00000100
00000000
00000100
00000000
00001100
00000000
00000000
00011000
,
00000000
00000000
00010000
00000000
00001000
00000000
00000010
00000000
00001000
00000000
00010000
00000000
00011000
00000000
00000000
00011000
,
00000000
00000000
00001000
00000000
00010000
00000000
00100000
00000000
00010000
00000000
00001000
00000000
00011000
00000000
00000000
01010000
,
00000000
00000000
11000000
00000000
00000000
10100000
00000000
00000000
00110000
00000000
00000000
00000000
00011000
00000000
00100000
00000000
,
00000000
00100000
00010000
10000000
01000000
00010000
00002000
00000000
,
00003000
00000100
00001000
00010000
01000000
00010000
00011000
00000010
,
00000000
00000010
00001000
00000001
00000100
00001000
00010000
01000000
,
10000000
01000000
01100000
00000000
10010000
00000000
01001000
00010000
,
00000000
00010000
00100000
01000000
00010000
00001000
00000020
00000030
,
00000001
00000000
00001000
00000000
00000100
00000000
00000001
00000000
00000100
00000000
00001000
00000000
00001100
00000000
00000000
00010010
,
00000000
00000000
00000000
00000000
00010000
00000000
01000000
00000000
10000000
00000000
01000000
00000000
01010000
00000000
00000000
00101000
,
00000000
00010100
00001100
00000000
00011000
00000000
00000000
00000000
;

//---------------dance-double - NewbStepper-DDP----------------
#NOTES:
     dance-double:
     NewbStepper:
     Medium:
     8:
     0.322712,0.406420,0.138104,0.118375,0.009865,229,215,14,12,0,0,0.322712,0.406420,0.138104,0.118375,0.009865,229,215,14,12,0,0:
00000000
00000000
00000000
00000000
,
00000000
00000000
00000000
00000000
,
00000000
00000000
00000000
00000000
,
00000000
00000000
00001000
00010000
,
00100000
00010000
00000000
00001000
00010000
00000000
01000000
10000000
,
00200000
00300000
00010000
00001000
,
00000010
00001000
00000000
00010000
00001000
00000000
00000010
00000001
,
00001000
00000010
00000100
00000100
,
00001000
00010000
00000000
00100000
00010000
00000000
00001000
00000100
,
00000002
00000003
00000100
00001000
,
00010000
00000000
00000000
01000000
00000000
00100000
00100000
00000000
,
00001000
00010000
00011000
00011000
,
00100000
10000000
01000000
00010000
,
00000100
00000010
00000100
00000000
,
00000010
00000001
00000100
00001000
,
01000000
00100000
01000000
00000000
,
00100000
10000000
00010000
00000000
,
00100000
00001000
00000010
00000110
,
00000001
00000000
00000100
00001000
00010000
00000000
00000000
00100000
,
00010000
00000000
00001000
00100000
01000000
00000000
00000000
00000000
,
11000000
00000000
11000000
00000000
10000000
01000000
00010000
00000000
,
00011000
00000000
00011000
00000000
00001000
00000010
00000001
00000000
,
00000011
00000000
00000011
00000000
00000001
00000100
00000010
00000000
,
00001000
00010000
00001000
00011000
,
00200000
00320000
00032000
00003200
,
00000310
00000000
00000001
00000100
00000001
00000000
00001000
00000000
,
00000100
00000000
00010000
00001000
00010000
00000000
00000000
00100000
,
01000000
00010000
10000000
00010000
,
20000000
31000000
00020000
01030000
,
20000000
30100000
00020000
00031000
,
00000010
00000100
00000010
00000000
00000001
00000000
00001000
00000000
,
00000100
00010000
00000100
00000000
00001000
00000000
00010000
00000000
,
00100000
01000000
00100000
00000000
00010000
00000000
10000000
00000000
,
00100000
01000000
00100000
00000000
00010000
00000000
00001000
00000000
,
00000010
00000001
00001000
00000010
,
00000000
00000000
00000000
00000110
,
00000001
00000100
00000001
00000100
00001000
00010000
00001000
00000000
,
00100000
01000000
00100000
01100000
,
10000000
01000000
10000000
01000000
00010000
00001000
00010000
00000000
,
00000000
00000010
00001000
00000001
,
00000100
00001000
00000100
00001000
00010000
00001000
00010000
00000000
,
00100000
00000000
10000000
00010000
10000000
00000000
01000000
00000000
,
00000000
00000000
00010000
00001000
00010000
00000000
00011000
00000000
,
00000010
00000000
00010000
00000000
00001000
00000000
00000010
00001000
,
00000000
00010000
00001000
00000000
00000100
00000001
00000020
00000000
,
00000030
00000000
00001000
00000000
00010000
00000000
00100000
00010000
,
00000000
00001000
00010000
00000000
00100000
10000000
00010000
00000000
,
00100000
00000000
01000000
00000000
01000000
00000000
00010000
00001000
,
00000000
00000010
00001000
00000000
00010000
01000000
20000000
00000000
,
30000000
00000000
00000000
00000000
01000000
00000000
00000000
00000000
00010000
00000000
00000000
00000000
00001000
00000000
00000000
00001000
,
00000000
00000000
00000000
00000000
00000100
00000000
00000000
00000000
00001000
00000000
00000000
00000000
00010000
00000000
00000000
00010000
,
00000000
00010000
00001000
00000000
00011000
00000000
00000000
00000000
;

//---------------dance-double - NewbStepper-BDP----------------
#NOTES:
     dance-double:
     NewbStepper:
     Easy:
     5:
     0.221248,0.279414,0.059187,0,0,157,151,6,0,0,0,0.221248,0.279414,0.059187,0,0,157,151,6,0,0,0:
00000000
00000000
00000000
00000000
,
00000000
00000000
00000000
00000000
,
00000000
00000000
00000000
00000000
,
00000000
00000000
00010000
00000000
,
10000000
00000000
00100000
00000000
,
00010000
00000100
00001000
00000000
,
00000001
00000000
00000100
00000000
,
00001000
00010000
00000010
00000100
,
00000001
00000000
00000010
00000000
,
00001000
01000000
00010000
00000000
,
10000000
00000000
00010000
00000000
,
10000000
01000000
01100000
01100000
,
10000000
01000000
00010000
00001000
,
00000100
00000000
00000000
00000000
,
00000001
00000100
00001000
00010000
,
01000000
00000000
00000000
00000000
,
10000000
01000000
00010000
00000000
,
00000100
00000010
00000100
00000110
,
00000001
00001000
00000001
00000000
,
00000010
00000100
00000010
00000000
,
00001000
00010000
00100000
00000000
,
00010000
00001000
00000010
00000000
,
00001000
00010000
01000000
10000000
,
00010000
10000000
00010000
10010000
,
10000000
01000000
00010000
00001000
,
00010000
00000010
00000100
00000000
,
00000001
00000100
00001000
00010000
,
00001000
00100000
01000000
00000000
,
10000000
01000000
10000000
00010000
,
01000000
00010000
00100000
00001000
,
00100000
00001000
00010000
00000100
,
00010000
00000100
00001000
00000010
,
00001000
00000010
00000100
00000001
,
00001000
00000100
00010000
00001000
,
00100000
00010000
10000000
00100000
,
00000000
00000000
00000000
10010000
,
10000000
00100000
01000000
00010000
,
00000000
00001000
00000010
00000100
,
00000001
00000010
00000100
00001000
,
00000000
00010000
01000000
00100000
,
10000000
01000000
00100000
00010000
,
00000000
00000100
00000100
00001001
,
00000000
00000001
00000100
00001000
,
00000000
00010000
01000000
10000000
,
00000000
00100000
00000000
00010000
,
00000100
00001000
00000000
00000001
,
00000000
00000100
00000000
00001000
,
00010000
00000010
00000100
00000001
,
00000000
00000010
00000000
00001000
,
01000000
00010000
00000000
10000000
,
00000000
00010000
00000000
10000000
,
01000000
00010000
00001000
00000000
;
