#VERSION:0.83;
#TITLE:BARBARON;
#ARTIST:dj VERTICAI;
#BANNER:BARBARON.png;
#BACKGROUND:BARBARON-bg.png;
#JACKET:BARBARON-jacket.png;
#MUSIC:BARBARON.ogg;
#OFFSET:-0.023201;
#SAMPLESTART:91.63623;
#SAMPLELENGTH:15;
#BPMS:0=165,319=155,322=145,325=135,328=110,332=90;
#TIMESIGNATURES:0=4=4,136=3=4,184=4=4,316=3=4,328=4=4;

//---------------dance-single - NewbStepper-bSP----------------
#NOTEDATA:;
#CHARTNAME:NewbStepper-bSP;
#STEPSTYPE:dance-single;
#DESCRIPTION:NewbStepper-bSP;
#DIFFICULTY:Beginner;
#METER:4;
#CREDIT:NewbStepper;
#NOTES:
0000
0000
0000
0000
,
0000
0000
0000
0000
,
0000
0000
0000
0000
,
0000
0000
0000
0000
,
0000
0000
0000
0000
,
1000
0000
0000
0000
,
0000
0000
0000
0000
,
0001
0000
0000
0000
,
1000
0000
0000
0000
,
0001
0000
0001
0000
,
0001
0001
0001
0000
,
1000
0000
1000
0000
,
1000
1000
1000
0000
,
0100
0000
0100
0000
,
0100
0000
0100
0000
,
0010
0000
0010
0000
,
0001
0000
1000
1000
,
0000
0000
0000
0000
,
0001
0000
0001
0000
,
0100
0000
0100
0000
,
1000
0000
1000
0000
,
0100
0000
0100
0000
,
0001
0000
0001
0000
,
0010
0000
0010
0000
,
1000
0000
1000
0000
,
0010
0000
0010
0000
,
0002
0000
0000
0003
,
2000
0000
0000
3000
,
0002
0000
0000
0003
,
0020
0000
0000
0030
,
0200
0000
0000
0300
,
0020
0000
0000
0030
,
0200
0000
0000
0300
,
0002
0000
0000
0003
,
1001
0000
0010
0000
,
1001
0000
0100
0000
,
1001
0000
0010
0000
,
1001
0000
0100
0000
,
1001
0000
0010
0000
,
1001
0000
0100
0000
,
0001
0001
0001
0000
,
1000
0000
0001
0001
,
0001
0000
1000
0000
,
0010
0010
0010
0000
,
0100
0000
0010
0010
,
0010
0010
0010
0100
,
0220
0000
0000
0330
,
0000
0000
0000
0000
,
0000
0000
0000
0000
,
0000
0000
0000
0000
,
0000
0000
0000
0000
,
0000
0000
0000
0000
,
0000
0000
0000
0000
,
0000
0000
0000
0000
,
0000
0000
0000
0000
,
1000
0000
1000
0000
,
0010
0000
0010
0000
,
0001
0000
0001
0000
,
0100
0000
0100
0000
,
1000
1000
1000
1000
,
2000
0000
0000
3000
,
0001
0001
0001
0001
,
0002
0000
0000
0003
,
1000
0001
1000
0001
,
1000
0000
1001
0000
,
0001
0000
1001
0000
,
1000
0010
1000
0000
,
0001
0001
0001
0001
,
0010
0000
0110
0000
,
1000
0000
1001
0000
,
0220
0000
0000
0330
,
0001
1000
0001
1000
,
0001
0000
1001
0000
,
1000
0000
1001
0000
,
0001
0010
0001
0000
,
1000
1000
1000
1000
,
0010
0000
0110
0000
,
0001
0000
1001
0000
,
0220
0000
0000
0330
,
1000
0000
1000
0100
,
0000
0100
0010
0000
,
0010
0001
0000
0001
,
0200
0000
0000
0000
,
0000
0000
0000
0000
,
0300
0000
0000
0000
;

//---------------dance-single - NewbStepper-BSP----------------
#NOTEDATA:;
#CHARTNAME:NewbStepper-BSP;
#STEPSTYPE:dance-single;
#DESCRIPTION:NewbStepper-BSP;
#DIFFICULTY:Easy;
#METER:8;
#CREDIT:NewbStepper;
#NOTES:
0000
0000
0000
0000
,
0000
0000
0000
0000
,
0000
0000
0000
0000
,
0000
0000
0000
0000
,
0000
0000
0000
0000
,
0002
0000
0000
0000
,
0000
0000
0000
0000
,
2000
0000
0000
3003
,
1001
0000
0000
0000
,
0010
1000
0100
0100
,
0010
0001
0100
0100
,
0010
1000
0001
0001
,
0010
0001
0101
0101
,
1000
0000
0100
0000
0010
0001
1000
0000
,
0001
0000
0100
0000
0010
1000
0001
0000
,
1000
0100
0001
0010
,
1000
0100
0001
0010
,
2000
0000
0000
3000
,
0001
0001
0100
0100
,
0001
0001
0010
0010
,
0001
0001
1000
1000
,
0001
0001
0010
0100
,
1000
0100
0010
0000
0001
0000
0100
0000
,
0001
0100
0010
0000
1000
0000
0100
0000
,
0010
0000
0001
0000
0100
0010
0100
0000
,
0010
0000
1000
0000
0100
0010
0100
0000
,
1100
1000
1010
0010
,
0110
0100
0101
0001
,
0011
0010
0110
0100
,
1100
1000
1010
0010
,
1001
0000
1000
0100
1000
0000
0001
0100
,
0001
0101
1010
0110
,
1001
0000
0001
0100
0001
0000
1000
0100
,
1000
1100
0011
0110
,
1001
0000
1000
1000
0000
0001
0001
0000
,
0100
0100
0000
0010
0010
0000
0100
0100
,
0000
0001
0001
0000
1000
0000
0100
0000
,
1002
0000
0000
0103
0000
0000
2001
0000
,
0000
3100
0000
0000
0120
0000
0000
0031
,
0000
0000
0120
0000
0000
1030
0000
0000
,
1001
1000
0010
0001
,
0010
1000
1001
0001
,
0010
1000
0010
0001
,
1001
0000
1000
0010
0000
0100
0010
0000
,
1000
0000
0100
0000
0011
0000
0000
0101
,
0000
0000
1100
0000
0000
1010
0000
0000
,
0220
0000
0000
0330
,
1001
0000
0000
0000
,
0000
0000
0000
0000
,
0000
0000
0000
0000
,
0000
0000
0000
0000
,
0000
0000
0000
0000
,
0000
0000
0000
0000
,
0000
0000
0000
0000
,
0000
0000
0000
0000
,
1001
0100
0100
0100
,
1001
0100
0100
0100
,
0010
0000
1000
0000
0100
0010
0100
0000
,
0010
0001
0100
0010
,
1000
0100
0010
0001
1000
0000
0001
0000
,
0010
0011
0100
1100
,
0001
0220
0000
0330
,
1001
0000
0000
0000
,
1000
0100
0010
0001
,
1000
0010
1000
0000
0001
0000
0101
0000
,
0001
0010
0001
0000
1000
0000
1100
0000
,
0010
0101
0010
1001
,
0010
0001
0010
0100
0010
0000
0001
0000
,
1000
1100
0001
0101
,
2000
3100
0002
0103
,
2002
0000
0000
3003
,
0001
0100
0010
1000
,
0001
0010
0001
0000
1000
0000
1100
0000
,
1000
0010
1000
0000
0001
0000
0101
0000
,
0010
1100
0010
1001
,
0010
1000
0010
0100
0010
0000
1000
0000
,
0001
0101
1000
1100
,
0002
0103
2000
3100
,
0110
0000
0000
1001
0000
0000
0110
0000
,
0002
0203
2300
3200
,
0302
0000
0013
0010
,
0200
0000
2300
3002
,
0023
0000
0000
0000
,
0000
0000
0000
0000
,
0030
0000
0000
0000
;

//---------------dance-single - Marten-DSP----------------
#NOTEDATA:;
#CHARTNAME:Marten-DSP;
#STEPSTYPE:dance-single;
#DESCRIPTION:Marten-DSP;
#DIFFICULTY:Medium;
#METER:12;
#CREDIT:Marten;
#NOTES:
0000
0000
0000
0000
,
0000
0000
0000
0000
,
0000
0000
0000
0000
,
0000
0000
0000
0000
,
0000
0000
0000
0000
,
2001
0000
0000
0000
,
0000
0000
0000
3000
,
0120
0000
0100
0000
,
1030
0000
1000
0000
0001
0010
0100
1000
,
0001
0000
0000
0010
0000
0000
0001
0000
0000
0100
0000
0000
0010
0000
0010
0000
,
1000
0000
0000
0100
0000
0000
0010
0000
0000
0100
0000
0000
2000
0000
0000
0000
,
3010
0000
0000
1000
0000
0000
0100
0000
0000
1000
0000
0000
0001
0000
0001
0000
,
0010
0000
0000
0100
0000
0000
1000
0000
0000
1010
0000
0000
1002
0000
0000
0000
,
0103
0000
0101
0000
1001
0000
1000
0100
,
0010
0000
0011
0000
1001
0000
0001
0100
,
0010
1000
0010
1000
0001
0100
0001
0100
,
0010
0100
0001
0010
0100
1000
0001
2000
,
0000
0000
0000
0000
,
3001
0100
0001
0000
1000
0100
1000
0000
,
0001
0010
0001
0000
1000
0010
1000
0000
,
0010
0100
0010
0000
1000
0001
1000
0000
,
0100
0010
0100
0000
0001
1000
0001
0000
,
1000
0000
0000
0001
0000
0000
0021
0000
0000
0000
0130
0000
1000
0000
0100
0000
,
1000
0000
0000
0001
0000
0000
0201
0000
0000
0310
0000
0000
1000
0000
0000
0000
,
0001
0000
0000
1000
0000
0000
1020
0000
0000
0130
0000
0000
0001
0000
0100
0000
,
0001
1000
0100
0100
0010
0001
2000
0000
,
3001
0010
0001
0100
0001
1000
0001
0001
,
2000
0000
3010
0100
0010
0100
0002
1000
,
1003
0010
1000
0100
1000
0001
1000
1000
,
0002
0000
0013
0100
0010
0100
2000
0001
,
3001
0100
1000
0100
0001
1000
0001
0001
,
0020
0000
0031
1000
0001
1000
0200
0000
,
1300
0100
1000
0001
0100
0001
1000
0010
,
0001
0010
1000
0001
0010
0100
1000
0001
,
0021
0000
0000
0001
0000
0000
0031
0000
0000
0000
0001
0000
0200
0000
0000
0001
,
0000
0000
0301
0000
0000
0000
1000
0000
1020
0000
0000
1000
0000
0000
1030
0000
,
0000
0000
1000
0000
0200
0000
0000
1000
0000
0000
1300
0000
0100
0000
0010
0000
,
0012
0000
0000
1000
0000
0000
1003
0000
0000
0000
0001
0000
0102
0000
0000
1000
,
0000
0000
1003
0000
0000
0000
1000
0000
2010
0000
0000
0001
0000
0000
3001
0000
,
0000
0000
1000
0000
2100
0000
0000
0001
0000
0000
3001
0000
0100
0000
0100
0000
,
0010
0000
0000
0010
0000
0000
0010
0000
1000
0000
0100
0000
0010
0000
0000
0010
,
0000
0000
0010
0000
0001
0000
1000
0000
0100
0000
0000
0100
0000
0000
0100
0000
,
1000
0000
0010
0000
0100
0000
0000
0100
0000
0000
0100
0000
0001
0000
0100
0000
,
0001
0000
0000
0001
0000
0000
0001
0000
0010
0000
0100
0000
1000
0000
0000
1000
,
0000
0000
1000
0000
0100
0000
1000
0000
1100
0000
0000
1001
0000
0000
0011
0000
,
0000
1001
0000
0000
1010
0000
0010
0000
0100
0000
0001
0000
1000
0000
0100
0000
,
0010
0001
1000
0010
0100
0001
0010
0100
,
2000
0000
0000
0000
,
0000
0000
0000
0000
,
0000
0000
0000
0000
,
0000
0000
0000
0000
,
3002
0100
1000
0010
,
0100
0100
1000
0100
,
2003
0000
3002
0000
,
2003
3020
0230
0301
,
0011
0100
1010
0100
,
1001
0010
0110
0100
,
0101
0010
1100
0010
,
1001
0000
0011
0000
1100
0000
0001
0100
,
0101
0000
0010
1000
1010
0000
1000
0100
,
1100
0000
0010
0001
0011
0000
0001
0100
,
0010
1000
0001
0010
0100
0010
0001
1000
,
1100
0000
0000
0110
0000
0000
0011
0000
2002
0000
0000
0000
3003
0000
0000
0000
,
0001
0100
0010
1000
0001
0001
0001
0001
,
0001
0000
1002
0000
1003
0000
0100
1000
,
0010
0000
0210
0000
0301
0010
0100
0010
,
0001
0100
0001
0100
0020
0000
2030
0000
,
3001
0100
0001
1000
0200
0000
0310
0001
,
0020
0000
0230
0000
1300
0100
1000
0010
,
0100
0000
0000
0101
0000
0000
0000
0000
0010
0000
0000
1010
0000
0000
0000
0000
,
1001
0000
0000
0101
0000
0000
0110
0000
0000
1010
0000
0000
1001
0000
0001
0000
,
0010
0100
1000
0100
0010
0001
0100
0001
,
1000
0000
1000
0000
1000
0000
0000
0001
0000
0000
0010
0000
0012
0000
0000
0000
,
1003
0000
2001
0000
3010
1000
0100
1000
,
0001
0100
1000
0100
0002
0000
2003
0000
,
3001
0010
0001
0010
0100
1000
0100
1000
,
0010
1000
0010
1000
0001
0100
0001
0100
,
0010
0000
0010
0000
1000
0100
0010
0001
,
1001
0000
0000
0011
0000
0000
1100
0000
0000
0101
0000
0000
1010
0000
0010
0000
,
0120
0000
0000
1030
0000
0000
1000
0100
0010
0002
0000
0000
,
0103
0000
0000
0001
0100
0010
0200
0000
0000
0310
0000
0000
,
1000
0010
0100
0020
0000
0000
1030
0000
0000
0001
0010
0100
,
2000
0000
0000
0000
,
0000
0000
0000
0000
,
3000
0000
0000
0000
;

//---------------dance-single - Marten-ESP----------------
#NOTEDATA:;
#CHARTNAME:Marten-ESP;
#STEPSTYPE:dance-single;
#DESCRIPTION:Marten-ESP;
#DIFFICULTY:Hard;
#METER:14;
#CREDIT:Marten;
#NOTES:
0000
0000
0000
0000
,
0000
0000
0000
0000
,
0000
0000
0000
0000
,
0000
0000
0000
0000
,
0000
0000
0000
0000
0000
0000
0000
0001
,
1002
0000
0000
0000
,
0000
0000
0000
0000
0000
0000
0000
0103
,
0210
0000
0010
0000
,
0301
0000
0001
0000
1000
0010
0100
0001
,
1000
0100
0000
1000
0001
0000
1000
0100
0000
1000
0010
0000
0100
0000
0001
0000
,
1000
0010
0000
0100
0001
0000
0001
0010
0000
0001
1000
0000
0020
0000
0000
0000
,
0130
0001
0000
0010
0001
0000
0100
0010
0000
1000
0010
0000
0100
0000
0001
0000
,
1000
0000
0000
1100
0000
0000
0101
0000
0000
0110
0000
0000
1001
0000
0000
0000
,
0012
0000
0103
0000
0010
1000
0001
1000
,
2010
0000
0000
0000
3100
0000
0000
0000
1000
0100
0000
0010
0001
0000
0001
0000
,
1000
0000
0100
0000
0001
0000
0100
0000
1000
0000
0010
0000
0100
0000
0001
0010
,
0001
0000
1000
0000
0100
0000
0010
0000
0001
0000
1000
0000
0010
0100
0010
0000
,
0200
0000
0000
0000
,
0301
0100
1000
0100
0001
1000
0010
1000
,
0001
0010
1000
0010
0001
0100
0010
1000
,
0100
1000
0010
1000
0100
0010
0001
1000
,
0001
0100
0001
0010
0001
0100
0010
1000
,
0002
0000
0000
0010
0000
0000
2003
0000
0000
0000
3010
0000
0100
0000
0001
0000
,
2000
0000
0000
3002
0000
0000
0203
0000
0000
0320
0000
0000
1030
0000
0100
0000
,
2000
0000
0000
0010
0000
0000
3002
0000
0000
0023
0000
0000
0130
0000
0010
0000
,
0001
0000
1000
0000
0001
0000
1000
0000
0010
0100
0010
0100
0002
0000
0000
0000
,
1003
0100
1000
0000
0001
0000
0100
0000
0010
0000
0100
0000
0001
0000
0001
0000
,
0020
0000
0000
0000
0130
0000
0100
0000
1000
0001
1000
0000
0100
0000
1000
0000
,
0001
0100
0001
0000
1000
0000
0100
0000
0010
0000
0100
0000
1000
0000
1000
0000
,
0020
0000
0000
0000
0130
0000
0100
0000
0001
1000
0001
0000
0100
0000
0001
0000
,
0011
0000
0000
0000
1001
0000
0000
0000
1010
0000
0000
1000
0010
0000
0100
0000
,
0110
0000
0000
0000
0101
0000
0000
0000
1001
0000
0000
1000
0100
0000
1000
0000
,
0001
0000
0010
0000
1000
0000
0010
0000
0001
0000
0100
0000
0001
0000
1000
0010
,
1000
0001
0100
1000
0100
0001
1000
0100
,
0020
0000
0000
0001
0000
0000
0031
0000
0000
0000
0100
0000
0020
0000
0000
1000
,
0000
0000
1030
0000
0001
0000
1000
0000
0200
0000
0000
0010
0000
0000
0310
0000
,
0000
0000
0001
0000
0200
0000
0000
0010
0000
0000
0310
0000
1000
0000
0100
1000
,
0200
0000
0000
1000
0000
0000
1300
0000
0000
0000
0010
0000
0200
0000
0000
0001
,
0000
0000
0301
0000
1000
0000
0100
0000
0020
0000
0000
0100
0000
0000
0130
0000
,
0000
0000
1000
0000
0020
0000
0000
0100
0000
0000
0130
0000
0001
0100
0001
0100
,
0020
0000
0000
1030
0010
0000
0100
0000
0001
0000
1000
0000
0200
0000
0000
0310
,
0100
0000
1000
0000
0001
0000
0001
0000
2000
0000
0000
3010
1000
0000
0100
0000
,
1000
0000
0010
0000
0200
0000
0000
0301
0100
0000
0001
0000
1000
0100
1000
0100
,
0020
0000
0000
0031
0010
0000
0100
0000
1000
0000
0001
0000
0200
0000
0000
0310
,
0100
0000
0001
0000
1000
0000
1000
0000
1010
0000
0000
1001
0000
0000
0011
0000
,
0000
0110
0000
0000
1100
0000
1000
0000
0010
0000
0100
0000
0001
0000
1000
0000
,
0100
1000
0100
0000
0010
0001
0010
0000
0100
0000
0100
0000
1000
0001
1000
0001
,
0200
0000
0000
0000
,
0000
0000
0000
0000
,
0000
0000
0000
0000
,
0000
0000
0000
0000
,
0310
0000
1000
0000
0001
0000
0010
0001
,
1000
0000
0000
1000
0100
0000
0000
0000
1000
0000
0010
0000
0100
0000
0001
0000
,
1000
0000
0000
1000
0000
0000
0000
0000
0001
0000
0000
0001
0000
0000
0000
0000
,
1000
0000
0000
0010
0000
0000
0100
0000
0000
0001
0000
0000
1000
0000
0100
0000
,
0011
1000
1010
0001
,
0101
1000
1100
0001
,
0110
1000
0110
0001
,
1001
0000
0000
0000
0110
0000
0000
0000
1001
0000
0000
0001
0010
0000
0100
0000
,
1100
0000
0000
1000
0010
0000
0100
0000
0101
0000
0000
0001
1000
0000
0010
0000
,
1010
0000
0000
1000
0001
0000
0010
0000
0011
0000
0000
0001
1000
0000
0100
0000
,
0010
0000
1000
0000
0010
0000
0001
0000
1000
0010
0100
0010
1000
0100
0010
0001
,
0010
0000
0000
0011
0000
0000
1100
0000
1001
0000
0000
0000
0000
0000
0000
0000
,
0001
0000
0100
0000
0010
0000
1000
0000
0001
1000
0001
1000
0001
1000
0001
1000
,
0001
0000
0000
0001
0020
0000
0000
0000
0130
0000
1000
0000
0100
0000
1000
0000
,
0001
0000
0000
0001
2000
0000
0000
0000
3010
0000
1000
0000
0100
0000
1000
0000
,
0010
0000
0100
0001
0100
0000
0001
0000
0020
0000
0000
0000
0230
0000
0000
0000
,
1300
0000
0100
0000
0001
0000
0100
0000
2000
0000
0000
3100
1000
0000
0010
0000
,
1000
0000
0000
1000
0020
0000
0000
0000
1030
0000
0010
0000
0001
0000
0010
0000
,
1000
0001
0000
0011
0000
0000
0000
0000
0001
1000
0000
1010
0000
0000
0000
0000
,
1001
0000
0000
0011
0000
0000
1100
0000
0000
0101
0000
0000
1010
0000
0010
0000
,
0110
0100
0001
1000
0100
0001
0100
1000
,
0001
0000
1000
0010
1000
0010
0000
0100
0000
0001
1000
0000
2000
0000
0000
0000
,
3100
0000
0000
0100
0020
0000
0000
0000
0031
0000
0010
0000
1000
0000
0010
0000
,
0001
0000
0100
0001
0100
0000
0010
0000
2000
0000
0000
0000
3020
0000
0000
0000
,
1030
0100
0001
1000
0010
0001
0100
1000
,
0001
0010
1000
0100
0001
1000
0010
0001
,
1000
0000
1000
0000
0001
0000
0001
0000
1000
0010
1000
0010
0100
0001
0100
0000
,
0101
0000
0000
1001
0000
0000
1010
0000
0000
1100
0000
0000
0110
0000
0010
0000
,
0001
0000
0001
1000
0000
1000
0001
0100
0001
0010
0000
0010
,
0100
0000
0100
0010
0001
1000
0010
0000
0010
0100
0000
0100
,
0010
1000
0100
1000
0000
1000
0001
0000
0001
0100
0010
0100
,
0002
0000
0000
0000
,
2000
0000
0000
0000
,
3003
0000
0000
0000
;

//---------------dance-single - NewbStepper-CSP----------------
#NOTEDATA:;
#CHARTNAME:NewbStepper-CSP;
#STEPSTYPE:dance-single;
#DESCRIPTION:NewbStepper-CSP;
#DIFFICULTY:Challenge;
#METER:17;
#CREDIT:NewbStepper;
#NOTES:
0000
0000
0000
0000
,
0000
0000
0000
0000
,
0000
0000
0000
0000
,
0000
0000
0000
0000
,
0000
0000
0000
0000
,
0021
0000
0000
0000
,
0000
0000
0000
0000
,
0230
0000
0000
0000
,
1300
0000
0001
0000
1000
0100
0010
0001
,
1000
0010
0000
1000
0100
0000
1000
0010
0000
1000
0100
0000
0010
0100
1000
0010
,
0100
0001
0000
0100
0010
0000
0100
1000
0100
0001
0000
0000
0021
0000
0000
0000
,
0031
0010
0000
0001
0100
0000
0001
0010
0000
0001
0100
0000
0010
0100
0001
0010
,
0100
1000
0000
0100
0010
0000
0100
0001
0100
1000
0000
0000
1020
0000
0000
0000
,
1030
0000
0100
1000
0000
0100
0001
0000
0100
1000
0000
0100
0010
0000
1000
0010
,
0001
0000
0100
0001
0000
0100
1000
0000
0100
0001
0000
0100
0010
0000
0001
0010
,
1000
0000
0100
0000
1100
0000
0001
0000
0100
0000
0101
0000
1000
0001
0100
0000
,
0001
0010
0001
0100
0010
1000
0100
0010
0001
0100
0010
0100
1000
0100
0010
0100
,
0002
0000
0000
0003
,
1000
0000
0000
1000
0100
0000
0000
0100
0010
0000
0000
0010
0001
0000
0000
0001
,
0100
0000
0000
0100
1000
0000
0000
1000
0001
0000
0000
0001
0010
0000
0000
0010
,
1000
0000
0000
1000
0100
0000
0000
0100
0010
0000
0000
0010
1000
0000
0000
1000
,
0001
0000
0000
0001
0100
0000
0000
0100
1000
0000
0000
1000
0010
0000
0010
0100
,
0010
1000
0100
0210
0000
0301
0100
1000
,
0010
0100
0001
1000
1000
0100
0001
0001
,
0100
1000
0010
0210
0000
1300
0100
0001
,
0010
0000
0010
0000
1000
0000
0100
0000
0010
0001
0010
0001
0200
0000
0000
0000
,
0310
1000
0100
0100
0001
0010
0100
0100
,
0001
0010
1000
0000
1000
0010
0001
0000
0001
0100
1000
0000
1000
0100
0001
0000
,
0010
0001
0100
0100
1000
0010
0100
0100
,
1000
0010
0001
0000
0001
0010
1000
0000
1000
0100
0001
0000
0001
0100
1000
0000
,
0010
1000
1100
0010
0001
0101
1000
0100
,
0110
0000
1000
0100
0001
0000
1000
0010
0001
0000
1000
0100
0001
0100
1000
0100
,
0010
0001
0101
0010
1000
1100
0001
0100
,
0010
1000
0010
0100
0001
0010
1000
0001
0100
1000
0100
0001
1000
0010
0001
0100
,
0020
0000
0030
0001
0010
0000
1020
0000
1000
0000
0130
0000
0110
0000
0000
1001
,
0000
0000
1010
0000
0100
0000
0001
0000
0020
0000
0030
1000
0010
0000
0021
0000
,
0001
0000
0130
0000
0110
0000
0000
1001
0000
0000
0011
0000
0100
0000
1000
0010
,
1000
0000
0001
0100
0010
0000
1000
0000
0100
0000
0100
0000
0001
0000
1000
0100
,
0010
0000
0001
0000
0100
0000
0100
0000
1010
0000
0000
0101
0000
0000
1001
0000
,
0000
0000
1000
0100
0010
0000
0000
0011
0000
0000
0110
0000
0001
1000
0010
0000
,
1010
0000
1000
0100
0001
0000
0001
0000
0010
0001
0100
0000
0100
0000
1000
0010
,
0100
0000
0100
0000
1000
0001
0010
0000
0011
0000
0001
0100
1000
0000
1000
0000
,
0010
1000
0100
0000
0100
0000
0001
0010
0100
0000
0100
0000
0001
1000
0010
0000
,
1010
0000
0100
0001
0010
0000
0010
0000
1000
0100
0010
0000
0010
0000
1000
0001
,
1000
0100
0001
0100
0010
0001
0100
0000
0001
0010
0000
0010
1000
0000
1000
0100
,
0000
0100
0001
0000
0001
0000
0010
0000
0001
0000
0100
0000
0010
1000
0010
0000
,
1000
0100
1000
0010
0100
0001
0010
0001
0100
0010
1000
0010
0100
0001
0010
0100
,
2000
0000
0000
0000
,
0000
0000
0000
0000
,
0000
0000
0000
0000
,
0000
0000
3000
0000
,
0001
0000
0100
0000
0010
0000
1000
0000
0001
0000
0000
1000
0010
0000
0100
0000
,
0001
0000
0000
0100
0010
0000
0000
0000
1000
0000
0100
0000
0010
0000
0000
0000
,
0001
0010
0000
0011
0000
0000
0000
0000
1000
0010
0000
1010
0000
0000
0000
0000
,
1000
0100
0000
0011
0000
0000
1100
0000
0000
0110
0000
0000
0001
0100
0001
0100
,
0010
0000
0000
1000
0100
0000
0000
0000
0010
0000
0000
0001
0100
0000
0000
0000
,
0010
0000
0000
1000
0100
0000
0000
0000
0010
0000
0000
0000
1001
0000
0000
0000
,
0010
0000
0000
0001
0100
0000
0000
0000
1000
0000
0100
0000
0001
0000
0010
0000
,
0001
0000
1000
0010
1000
0000
0001
0000
0010
0000
0000
0000
0110
0000
0000
0000
,
0001
0000
0100
0000
1000
0000
0010
0000
0001
0000
0000
0100
0001
0000
0010
0000
,
1000
0000
0000
0010
0001
0000
0000
0000
1000
0000
0010
0000
0100
0000
0001
0000
,
0010
0001
0010
0001
1000
0010
1000
0010
0100
0001
0100
0001
0010
0100
0010
0100
,
2000
0000
0000
0001
0000
0000
0100
0000
3001
0000
0000
0000
1001
0000
0000
0000
,
0010
1000
0010
0100
0001
1000
0010
0100
0001
0010
0100
1000
0100
0001
0100
1000
,
0010
0000
0000
0100
0001
0000
0010
0000
1010
0000
0000
0000
0011
0000
1000
0000
,
1100
0000
0000
0100
1000
0000
0010
0000
0110
0000
0100
0001
0010
0000
0010
0000
,
1000
0000
1000
0010
0001
0000
0010
0000
0110
0000
0000
0000
1001
0000
0000
0000
,
0001
0000
0100
0000
0010
0000
1000
0000
0100
0000
0000
1000
0010
0000
0001
0000
,
0010
0000
0000
1000
0100
0000
0000
0000
0001
0000
0100
0000
1000
0010
1000
0000
,
0001
0100
0000
1010
0000
0000
1000
0001
1000
0100
0000
0011
0000
0000
0001
1000
,
0001
0100
0000
1010
0000
0000
0110
0000
0000
0101
0000
0000
1000
0100
0010
0001
,
0100
0010
1000
0001
0010
1000
0010
0001
1000
0010
0001
0010
1000
0100
0010
0001
,
0100
0000
1000
0100
0001
0010
0000
0110
0000
0001
1000
0000
0001
1000
0100
1000
,
0001
0000
0000
0100
0001
0000
0010
0000
0110
0000
0100
1000
0010
0000
0010
0000
,
0001
0000
0001
0010
1000
0000
0010
0000
0110
0000
0000
0000
1001
0000
0000
0000
,
1000
0000
0100
0000
0010
0000
0001
0000
0100
0000
0000
0001
0010
0000
1000
0000
,
0010
0000
0000
0001
0100
0000
0000
0000
1000
0000
0100
0000
0001
0010
0001
0000
,
1000
0010
1000
0001
0010
0100
1000
0001
0100
1000
0001
0010
1000
0100
0001
1000
,
0010
0001
0000
0100
1000
0000
0100
0010
0000
0100
0001
0000
0010
0001
0010
0001
,
1000
0100
0001
0100
1000
0001
0100
0010
0110
0001
0100
1000
,
0100
0001
1000
0100
0010
0110
1000
0100
0001
1000
0010
0001
,
0100
0010
0110
0001
0100
1000
0001
0010
1000
0100
0010
0001
,
2002
0000
0000
0000
,
0000
0000
0000
0000
,
3003
0000
0000
0000
;

//---------------dance-double - NewbStepper-BDP----------------
#NOTEDATA:;
#CHARTNAME:NewbStepper-BDP;
#STEPSTYPE:dance-double;
#DESCRIPTION:NewbStepper-BDP;
#DIFFICULTY:Easy;
#METER:9;
#CREDIT:NewbStepper;
#NOTES:
00000000
00000000
00000000
00000000
,
00000000
00000000
00000000
00000000
,
00000000
00000000
00000000
00000000
,
00000000
00000000
00000000
00000000
,
00000000
00000000
00000000
00000000
,
00000002
00000000
00000000
00000000
,
00000000
00000000
00000000
00000000
,
00002000
00000000
00000000
00003003
,
00001001
00000000
00000000
00000000
,
00000010
00000000
00000001
00000000
,
00000100
00001000
00010000
00110000
,
00100000
00000000
10000000
00000000
,
01000000
00010000
00001000
00001100
,
00000100
00000001
00000100
00001000
,
00010000
01000000
10000000
01000000
,
00010000
00001000
00000010
00000000
00000001
00000000
00000100
00000000
,
00001000
00010000
00100000
00000000
00010000
00001000
00010000
00001000
,
00000000
00000000
00000000
00000000
,
00011000
00010000
01000000
01000000
,
00010000
00010000
00001000
00001000
,
00000010
00000010
00000001
00000001
,
00000100
00000100
00001000
00001000
,
00010000
01000000
00100000
00000000
00010000
00000000
10000000
00000000
,
01000000
00010000
00001000
00000000
00000100
00000000
00000001
00000000
,
00001000
00000100
00000010
00000000
00000001
00000000
00000100
00000000
,
00001000
00000000
00010000
00000000
00001000
00010000
00001000
00000000
,
00011000
00001000
00000100
00000100
,
00001000
00001000
00010000
00010000
,
00100000
00100000
10000000
10000000
,
11000000
01100000
00110000
10010000
,
11000000
01000000
00010000
00001000
,
00011000
00010000
00001000
00000010
,
00000011
00000001
00000100
00001100
,
00001000
00010000
00001000
00100000
00010000
10000000
00010000
00000000
,
10010000
00000000
10000000
10000000
00000000
01000000
01000000
00000000
,
00010000
00010000
00000000
00001000
00001000
00000000
00000010
00000010
,
00000000
00000001
00000001
00000000
00000100
00000000
00001000
00000000
,
00012000
00000000
00000000
01003000
00000000
00000000
00021000
00000000
,
00000000
00030100
00000000
00000000
00000120
00000000
00000000
00001030
,
00000000
00000000
01200000
00000000
00000000
00310000
00000000
00000000
,
10010000
00010000
01000000
10000000
,
01000000
00010000
00011000
00001000
,
00000010
00000001
00000010
00001000
,
00011000
00000000
00010000
01000000
00000000
00100000
10000000
00000000
,
01000000
00000000
00010000
00000000
00011000
00000000
00000000
00001010
,
00000000
00000000
00000011
00000000
00000000
00000101
00000000
00000000
,
00002200
00000000
00000000
00003300
,
00011000
00000000
00000000
00000000
,
00000000
00000000
00000000
00000000
,
00000000
00000000
00000000
00000000
,
00000000
00000000
00000000
00000000
,
00000000
00000000
00000000
00000000
,
00000000
00000000
00000000
00000000
,
00000000
00000000
00000000
00000000
,
00000000
00000000
00000000
00000000
,
00000000
00000000
00000000
00000000
,
10000000
01000000
01000000
01000000
,
00010000
00001000
00001000
00001000
,
00000010
00000000
00000001
00000000
00000100
00000010
00000100
00000000
,
00000001
00000010
00001000
00010000
,
00100000
10000000
00010000
00100000
00001000
00000000
00010000
00000000
,
00011000
00000100
00000110
00000001
,
00002002
00000000
00000000
00003003
,
00000001
00000010
00000100
00001000
,
00000001
00000100
00000001
00000000
00001000
00000000
00001100
00000000
,
00000100
00010000
00000100
00000000
00010000
00000000
00011000
00000000
,
00001000
00010000
01000000
00000000
10000000
00000000
10010000
00000000
,
01000000
00010000
00001000
00000000
00000100
00000000
00001001
00000000
,
00000001
00000011
00001000
00001010
,
00000200
00010300
02000000
03010000
,
00022000
00000000
00000000
00033000
,
10000000
00100000
01000000
00010000
,
10000000
01000000
10000000
00000000
00010000
00000000
01010000
00000000
,
01000000
00001000
01000000
00000000
00001000
00000000
00011000
00000000
,
00010000
00001000
00000100
00000000
00000001
00000000
00001001
00000000
,
00000100
00001000
00010000
00000000
01000000
00000000
10010000
00000000
,
00200000
00301000
00000020
00001030
,
00020000
00031000
00000200
00001300
,
00011000
00000000
00000000
00001010
00000000
00000000
00000110
00000000
,
00000002
00000203
00002300
00023000
,
02030000
00000000
13000000
10000000
,
00200000
00000000
00320000
00032000
,
00203000
00000000
00000000
00000000
,
00000000
00000000
00000000
00000000
,
00300000
00000000
00000000
00000000
;

//---------------dance-double - NewbStepper-DDP----------------
#NOTEDATA:;
#CHARTNAME:NewbStepper-DDP;
#STEPSTYPE:dance-double;
#DESCRIPTION:NewbStepper-DDP;
#CHARTSTYLE:;
#DIFFICULTY:Medium;
#METER:11;
#CREDIT:NewbStepper;
#NOTES:
00000000
00000000
00000000
00000000
,
00000000
00000000
00000000
00000000
,
00000000
00000000
00000000
00000000
,
00000000
00000000
00000000
00000000
,
00000000
00000000
00000000
00000000
,
20000000
00000000
00000000
00000000
,
00000000
00000000
00000000
00000000
,
30020000
00000000
00000000
00000000
,
00032000
00000000
00003002
00000000
,
00001003
00000000
00000000
00001000
00000000
00000000
00001000
00000000
00000000
00000001
00000000
00000000
00000100
00000000
00001000
00000000
,
00010000
00000000
00000000
00010000
00000000
00000000
00010000
00000000
00001000
00000000
00000000
00000000
01001000
00000000
00000000
00000000
,
00010000
00000000
00000000
00010000
00000000
00000000
00010000
00000000
00000000
10000000
00000000
00000000
01000000
00000000
00010000
00000000
,
00001000
00000000
00000000
00001000
00000000
00000000
00001000
00000000
00000010
00000000
00000000
00000000
00001001
00000000
00000000
00000000
,
00000100
00000000
00000101
00000000
00000001
00000100
00001000
00010000
,
01000000
00000000
11000000
00000000
10000000
01000000
00010000
00001000
,
00000100
00000000
00000000
00000001
00000000
00000000
00001000
00000000
00000100
00000000
00000000
00000000
00000010
00000000
00001000
00000000
,
00000000
00010000
00100000
00000000
10000000
01000000
00100000
00010000
,
00000000
00000000
00000000
00000000
,
00020000
01000000
10000000
00100000
,
00032000
00000100
00000001
00000010
,
00023000
01000000
10000000
00100000
,
00032000
00000100
00000001
00000010
,
00013000
00000000
00000000
01000000
00000000
00000000
10000000
00000000
00000000
00000000
01000000
00000000
00010000
00000000
00100000
00000000
,
00001000
00000000
00000000
00010000
00000000
00000000
00001000
00000000
00000100
00000000
00000001
00000000
00000010
00000000
00000100
00000000
,
00001000
00000000
00000000
00000100
00000000
00000000
00000001
00000000
00000000
00000100
00000000
00000000
00000010
00000000
00000001
00000000
,
00001000
00000000
00000000
00000100
00000000
00000000
00010000
00000000
00001000
00000000
00000100
00000000
00000110
00000000
00000000
00000000
,
00002000
00000100
00000001
00000010
,
00023000
01000000
10000000
00100000
,
00032000
00000100
00000001
00000010
,
00023000
01000000
10000000
00100000
,
00031000
00000100
00000010
00000001
00000020
00001000
00001030
00000000
,
00010000
00001000
00000010
00001000
00020000
00100000
00130000
00000000
,
10000000
01000000
00010000
00000000
00001000
00000100
00000001
00000000
,
00000010
00000001
00000100
00001000
00010000
01000000
00010000
00001000
,
00200000
00000000
00000000
00010000
00000000
00000000
00310000
00000000
00000000
00000000
10000000
00000000
00100000
00000000
00000000
00010000
,
00000000
00000000
00001000
00000000
00000000
00000000
00010000
00000000
00000020
00000000
00000000
00001000
00000000
00000000
00001030
00000000
,
00000000
00000000
00000001
00000000
00000010
00000000
00000000
00001000
00000000
00000000
00010000
00000000
00000000
00000000
00001000
00000000
,
02000000
00000000
00000000
00010000
00000000
00000000
03010000
00000000
00000000
00000000
10000000
00000000
01000000
00000000
00000000
00010000
,
00000000
00000000
00001000
00000000
00000000
00000000
00010000
00000000
00000200
00000000
00000000
00001000
00000000
00000000
00001300
00000000
,
00000000
00000000
00000001
00000000
00000100
00000000
00000000
00001000
00000000
00000000
00010000
00000000
00001000
00000000
00100000
00000000
,
00001000
01000000
00010000
10000000
01000000
00010000
00001000
01000000
,
00001000
00010000
00000100
00000010
00000001
00000100
00000001
00000010
,
00001000
00010000
00100000
10000000
01000000
00100000
00001000
00000000
,
00010000
00000100
00001000
00000001
00000100
00001000
00010000
00000100
,
00010000
00000000
00001000
00000000
01000000
00000000
00100000
00000000
10100000
00000000
00000000
01010000
00000000
00000000
00101000
00000000
,
00000000
00010100
00000000
00000000
00001000
00000000
00000010
00000000
00000100
00000000
00000001
00000000
00001001
00000000
00000000
00000000
,
00000001
00000100
00000010
00001000
00010000
01000000
00100000
10000000
,
00020000
00000000
00000000
00000000
,
00030000
00000000
00000000
00000000
,
00000000
00000000
00000000
00000000
,
00000000
00000000
00000000
00000000
,
00010000
00000000
01000000
00000000
,
00010000
00000000
00000000
00000000
,
00001000
00000000
00000100
00000000
,
00001000
00000000
00000000
00000000
,
00000001
00000010
00001000
00000000
00010000
00100000
10000000
00000000
,
00020000
00100000
10000000
01000000
,
00032000
00000010
00000001
00000100
,
00023000
00100000
10000000
01000000
,
00031000
00000100
00000001
00000000
00000100
00001000
00000010
00000000
,
00010000
00001000
00000010
00000000
00001000
00010000
00100000
00000000
,
10000000
00100000
01000000
00010000
00100000
00001000
00010000
00000100
,
00001000
00000000
00000000
00000001
00000000
00000000
00000010
00000000
00000001
00000000
00000000
00000000
00001001
00000000
00000000
00000000
,
00000001
00000100
00001000
00000000
00010000
01000000
10000000
00000000
,
00100000
00000000
00000000
10000000
01000000
00000000
00000000
00000000
00010000
00000000
00000000
00000000
00001000
00000000
00000000
00000000
,
00100000
00000000
00000000
00010000
00100000
00000000
00000000
00000000
00001000
00000000
00010000
00000000
00000100
00000000
00001000
00000000
,
00000001
00000100
00001000
00000100
00000001
00000000
00001001
00000000
,
00001000
00000100
00000010
00000001
00000100
00000000
00001000
00000000
,
00010000
00100000
10000000
00000000
01000000
00100000
01000000
00000000
,
00010000
00000000
00000000
00010010
00000000
00000000
00000000
00000000
00001000
00000000
00000000
00101000
00000000
00000000
00000000
00000000
,
00100000
00000000
00000000
00010000
00000000
00000000
10000000
00000000
00000000
00010000
00000000
00000000
01000000
00000000
00100000
00000000
,
10000000
01000000
00010000
00000000
00001000
00000100
00000001
00000000
,
00000010
00000001
00000100
00001000
00010000
00001000
00000100
00000000
,
00000010
00000000
00000000
00001000
00000010
00000000
00000000
00000000
00010000
00000000
00001000
00000000
01000000
00000000
00010000
00000000
,
10000000
01000000
00010000
01000000
10000000
00000000
10010000
00000000
,
00010000
01000000
00100000
10000000
01000000
00000000
00010000
00000000
,
00001000
00000010
00000001
00000000
00000100
00000010
00000100
00000000
,
00001000
00000000
00101000
00000000
00100000
00010000
10000000
00100000
,
00010000
00000000
00000000
00001000
00000000
00000000
00000010
00000000
00000000
00001000
00000000
00000000
00010000
00000000
01000000
00000000
,
20000000
00000000
00000000
32000000
00000000
00000000
03010000
00001000
00010000
00000020
00000000
00000000
,
00002030
00000000
00000000
00003001
00000100
00000010
00000200
00000000
00000000
00001300
00000000
00000000
,
00010000
00001000
01000000
00020000
00000000
00000000
10030000
00000000
00000000
00010000
00100000
01000000
,
20000000
00000000
00000000
00000000
,
00000000
00000000
00000000
00000000
,
30000000
00000000
00000000
00000000
;

//---------------dance-double - NewbStepper-EDP----------------
#NOTEDATA:;
#CHARTNAME:NewbStepper-EDP;
#STEPSTYPE:dance-double;
#DESCRIPTION:NewbStepper-EDP;
#DIFFICULTY:Hard;
#METER:14;
#CREDIT:NewbStepper;
#NOTES:
00000000
00000000
00000000
00000000
,
00000000
00000000
00000000
00000000
,
00000000
00000000
00000000
00000000
,
00000000
00000000
00000000
00000000
,
00000000
00000000
00000000
00000000
,
00020000
00000000
00000000
00000000
,
00000000
00000000
00000000
00000000
,
00032000
00000000
00000000
00000000
,
00013000
00100000
10000000
00010000
,
10000000
00000000
01000000
10000000
00000000
00010000
01000000
00000000
00001000
00010000
00000000
00000010
00001000
00000000
00000001
00001000
,
00000001
00000000
00000010
00000001
00000000
00001000
00000010
00000000
00010000
00001000
00000000
00001000
00000200
00000000
00000000
00000000
,
00000301
00000000
00000100
00000001
00000000
00001000
00000100
00000000
00010000
00001000
00000000
00100000
00010000
00000000
10000000
00010000
,
10000000
00000000
00100000
10000000
00000000
00010000
00100000
00000000
00001000
00010000
00000000
00000000
00011000
00000000
00000000
00000000
,
00010000
00000000
00000000
00100000
00000000
00000000
10000000
00000000
01000000
00010000
00000000
00000000
00001000
00000000
00010000
00000000
,
00011000
00000000
00000000
00000010
00000000
00000000
00000001
00000000
00000100
00001000
00000000
00000000
00010000
00000000
00001000
00000000
,
00010000
00000000
00000000
00011000
00000000
00000000
01000000
00000000
00000000
00110000
00000000
00000000
10000000
00000000
00000000
01100000
,
00000000
00000000
00010000
00000000
00000000
01001000
00000000
00000000
00010000
00000000
00001000
00000000
00000100
00000000
00000001
00000000
,
00002000
00000000
00000000
00003000
,
00000001
00000000
00000000
00000001
00000100
00000000
00000000
00000100
00001000
00000000
00000000
00001000
00010000
00000000
00000000
00010000
,
00001000
00000000
00000000
00001000
00000010
00000000
00000000
00000010
00001000
00000000
00000000
00001000
00010000
00000000
00000000
00010000
,
00100000
00000000
00000000
00100000
10000000
00000000
00000000
10000000
00010000
00000000
00000000
00010000
00001000
00000000
00000000
00001000
,
00000001
00000000
00000000
00000001
00000010
00000000
00000000
00000010
00001000
00000000
00000000
00001000
00010000
00000000
00000000
00000000
,
00001000
00000010
00000001
00000200
00000000
00001300
00010000
00100000
,
00010000
00000000
00000000
00010000
00001000
00000000
00000000
00001000
00000010
00000000
00000000
00000010
00001000
00000000
00000000
00000000
,
00010000
00100000
10000000
02000000
00000000
03010000
00001000
00100000
,
00010000
00000000
00001000
00000000
00000100
00000000
00000010
00000000
00000001
00000100
00000001
00000100
00000020
00000000
00000000
00000000
,
00001030
00000100
00000010
00001000
00010000
00000100
00010000
00100000
,
00010000
00001000
00000100
00000001
00001000
00000010
00000100
00001000
,
00010000
01000000
10000000
00100000
01000000
00001000
00000010
00000100
,
00001000
00000000
00000010
00000100
00000010
00000000
00010000
00001000
00010000
00000000
01000000
00000000
00100000
00000000
00000000
00000000
,
00010000
01000000
00100000
00010000
00001000
01000000
00001000
00000010
,
00001000
00010000
01000000
10000000
00010000
00100000
01000000
00010000
,
00001000
00000100
00000001
00000010
00000100
00010000
00100000
01000000
,
00010000
10000000
01000000
00100000
00010000
00001000
00000100
00000010
,
00000002
00000000
00000000
00001000
00000000
00000000
00001003
00000000
00000000
00000000
00000100
00000000
00000020
00000000
00000000
00001000
,
00000000
00000000
00001030
00000000
00010000
00000000
01000000
00000000
20000000
00000000
00000000
00010000
00000000
00000000
30010000
00000000
,
00000000
00000000
01000000
00000000
00200000
00000000
00000000
00010000
00000000
00000000
00310000
00000000
00001000
00000000
00000010
00000000
,
00000001
00000000
00000000
00000100
00001000
00000000
00010000
00000000
00000000
00000000
00100000
00000000
00010000
00000000
00000000
00011000
,
00000000
00000000
00001000
00000000
00000100
00000000
00001000
00000000
00010000
00000000
00000000
01000000
00010000
00000000
00001000
00000000
,
00000000
00000000
00000010
00000000
00001000
00000000
00000000
00011000
00000000
00000000
00010000
00000000
01000000
00000000
10000000
00000000
,
00100000
00000000
00010000
00001000
00010000
00000000
00100000
00000000
01000000
00000000
00010000
00000000
00100000
00000000
10000000
00000000
,
00100000
00000000
00001000
00000000
00010000
00000000
00000100
00000000
00000010
00000000
00001000
00010000
00001000
00000000
00000010
00000000
,
00000100
00001000
00000010
00000001
00000010
00010000
00001000
01000000
,
00100000
00000000
10000000
01000000
00010000
00000000
00001000
00000000
00100000
00000000
00010000
00000000
00001000
00000000
00000100
00000000
,
00000010
00000000
00000001
00000000
00000100
00000010
00000100
00000010
00001000
00000000
00000001
00000100
00000000
00000100
00001000
00000000
,
00001000
00010000
00000000
00010000
01000000
00000000
10000000
00000000
00100000
00000000
01000000
00000000
00001000
00010000
00001000
00000000
,
00010000
00001000
00000100
00000001
00000010
00001000
00010000
00100000
,
20000000
00000000
00000000
00000000
,
30000000
00000000
00000000
00000000
,
00000000
00000000
00000000
00000000
,
00000000
00000000
00000000
00000000
,
00010000
00000000
00001000
00000000
,
00000001
00000001
00000001
00000000
,
00001000
00000000
00010000
00000000
,
10000000
10000000
10000000
00000000
,
10100000
00010000
00110000
01000000
,
01001000
00000100
00010100
00001000
,
00001010
00000001
00000101
00000010
,
00010010
00100000
00101000
00011000
,
00010000
00000000
01000000
00000000
10000000
00000000
00100000
00000000
00010000
00000000
00000000
00001000
00010000
00000000
00001000
00000000
,
00000010
00000000
00000000
00000001
00000010
00000000
00000000
00000000
00001000
00000000
00010000
00000000
00001000
00000000
00000100
00000000
,
00000001
00000000
00000000
00000001
00001000
00000000
00000100
00000000
00010000
00000000
00001000
00000000
00100000
00010000
00100000
01000000
,
10000000
00000000
00000000
11000000
00000000
00000000
01010000
00000000
00011000
00000000
00000000
00000000
00000000
00000000
00000000
00000000
,
00000010
00000001
00000010
00000000
00000100
00001000
00000100
00000000
00010000
00001000
00010000
00001000
01000000
00001000
01000000
00000000
,
00001000
00000000
00000000
00001000
00010000
00000000
00100000
00000000
10100000
00000000
00000000
00000000
11000000
00000000
00000000
00000000
,
00010000
00000000
00000000
00010000
00001000
00000000
00000010
00000000
00000001
00000000
00000100
00000000
00001000
00000000
00010000
00000000
,
00100000
00000000
10000000
01000000
10000000
00000000
00100000
00000000
00010000
00000000
00000000
00000000
00011000
00000000
00000000
00000000
,
00001000
00000000
00000010
00000000
00000001
00000000
00000100
00000000
00001000
00000000
00000000
00001000
00000100
00000000
00000001
00000000
,
00000010
00000000
00000000
00000010
00001000
00000000
00000000
00000000
00010000
00000000
00100000
00000000
10000000
00000000
01000000
00000000
,
00010000
00001000
00000000
00000010
00000000
00000000
00000000
00000000
00001000
00010000
00000000
00100000
00000000
00000000
00000000
00000000
,
00110000
00000000
00000000
00011000
00000000
00000000
00001010
00000000
00000000
00011000
00000000
00000000
00110000
00000000
10000000
00000000
,
00100000
10000000
00100000
00000000
01000000
00010000
01000000
00000000
00001000
00010000
00001000
00010000
00000100
00010000
00000100
00000000
,
00010000
00000000
00000010
00000100
00000010
00000100
00000000
00000001
00000000
00001000
00000100
00000000
00000110
00000000
00000000
00000000
,
00001000
00000000
00000000
00001000
00010000
00000000
00100000
00000000
10000000
00000000
01000000
00000000
00010000
00000000
00001000
00000000
,
00000010
00000000
00000001
00000100
00000001
00000000
00000010
00000000
00001000
00000000
00000000
00000000
00011000
00000000
00000000
00000000
,
00010000
00000000
00100000
00000000
10000000
00000000
01000000
00000000
00010000
00000000
00000000
00010000
01000000
00000000
10000000
00000000
,
00100000
00000000
00000000
00100000
00010000
00000000
00000000
00000000
00001000
00000000
00000010
00000000
00000001
00000000
00000100
00000000
,
00001000
00010000
00000000
00100000
00000000
00000000
10000000
00000000
01000000
00000000
00010000
00000000
00001000
00000000
00000100
00000000
,
00000001
00000010
00000000
00000010
00001000
00000000
00001000
00010000
00000000
00010000
00100000
00000000
10000000
00010000
10000000
00010000
,
00100000
00000000
00100000
01000000
00000000
01000000
00010000
00001000
00010000
00001000
00000010
00000001
,
00000010
00000000
00000010
00000100
00000000
00000100
00001000
00000001
00000100
00000010
00010000
00001000
,
00100000
00010000
10000000
00100000
10000000
01000000
00010000
00001000
00000100
00000001
00000010
00000100
,
00002000
00000000
00000000
00000000
,
00000000
00000000
00000000
00000000
,
00003000
00000000
00000000
00000000
;

//---------------dance-double - NewbStepper-CDP----------------
#NOTEDATA:;
#CHARTNAME:NewbStepper-CDP;
#STEPSTYPE:dance-double;
#DESCRIPTION:NewbStepper-CDP;
#CHARTSTYLE:;
#DIFFICULTY:Challenge;
#METER:18;
#CREDIT:NewbStepper;
#NOTES:
00000000
00000000
00000000
00000000
,
00000000
00000000
00000000
00000000
,
00000000
00000000
00000000
00000000
,
00000000
00000000
00000000
00000000
,
00000000
00000000
00000000
00000000
,
00002001
00000000
00000000
00000000
,
00000000
00000000
00000000
00000000
,
00023000
00000000
00000000
00000000
,
10030000
00000000
00010000
00000000
10000000
01000000
00100000
00010000
,
10000000
00100000
00000000
10000000
01000000
00000000
10000000
00100000
00000000
01000000
00010000
00000000
00100000
00001000
00010000
00000000
,
00000100
00001000
00000000
00000100
00000010
00000000
00000001
00000100
00000010
00001000
00000000
00000000
00002100
00000000
00000000
00000000
,
00003001
00000010
00000000
00000001
00000100
00000000
00000001
00000010
00000000
00000100
00001000
00000000
00000010
00010000
00001000
00000000
,
01000000
00010000
00000000
01000000
00100000
00000000
10000000
01000000
00100000
00010000
00000000
00000000
01020000
00000000
00000000
00000000
,
10030000
00000000
01000000
10000000
00000000
01000000
00010000
00000000
00001000
00010000
00000000
00000100
00000010
00000000
00001000
00000010
,
00000001
00000000
00000100
00000001
00000000
00000100
00001000
00000000
00010000
00001000
00000000
01000000
00100000
00000000
00010000
00100000
,
10000000
00000000
00000000
11000000
00000000
00000000
00110000
00000000
00000000
01100000
00000000
00000000
00011000
00000000
00000000
00101000
,
00000000
00000000
00100000
00010000
00100000
00001000
00010000
00000100
00010000
00001000
00000010
00000001
00000100
00000010
00001000
00000001
,
00002000
00000000
00000000
00003000
,
00000001
00000000
00000000
00000001
00000100
00000000
00000000
00000100
00000010
00000000
00000000
00000010
00001000
00000000
00000000
00001000
,
00010000
00000000
00000000
00010000
01000000
00000000
00000000
01000000
00100000
00000000
00000000
00100000
10000000
00000000
00000000
10000000
,
01000000
00000000
00000000
01000000
00010000
00000000
00000000
00010000
10000000
00000000
00000000
10000000
00100000
00000000
00000000
00100000
,
00010000
00000000
00000000
00010000
00001000
00000000
00000000
00001000
00000100
00000000
00000000
00000100
00000010
00000000
00000000
00000010
,
00000001
00000100
00010000
00002000
00000000
00003010
00001000
00010000
,
01000000
10000000
01000000
00010000
00100000
00100000
01000000
00010000
,
10000000
01000000
00001000
00020000
00000000
00031000
00000010
00000100
,
00000001
00000000
00000010
00000000
00010000
00000000
00001000
00000000
00000100
00000010
00000100
00000010
00000002
00000000
00000000
00000000
,
00000103
00000100
00001000
00000010
00000010
00001000
00010000
00100000
,
00100000
00010000
01000000
00000000
01000000
10000000
00100000
00000000
01000000
00010000
01000000
00010000
00100000
01000000
10000000
00000000
,
01000000
01000000
00010000
00100000
00100000
00010000
00001000
00000010
,
00000010
00001000
00000100
00000000
00000100
00000001
00000010
00000000
00000100
00001000
00000100
00001000
00000010
00000100
00000001
00000100
,
00000001
00000100
00010000
00001000
00100000
00010000
00001000
00000010
,
00001000
00010000
00100000
00000000
00010000
00001000
00000010
00000000
00001000
00010000
01000000
00000000
00010000
00001000
00000100
00000000
,
00001000
00000000
00010000
00000000
00100000
00000000
10000000
01000000
00100000
00000000
00010000
00000000
01000000
00000000
00010000
00000000
,
00001000
00000100
00000010
00000000
00000001
00000100
00000010
00000000
00010000
00001000
00000010
00001000
00010000
00001000
00100000
00001000
,
00020000
00000000
00030000
00100000
10000000
00000000
12000000
00000000
00000000
00000000
03100000
00000000
00110000
00000000
00000000
00101000
,
00000000
00000000
00011000
00000000
00100000
00000000
00010000
00000000
00001000
00000000
00000000
00000010
00000001
00000000
00000201
00000000
,
00000000
00000000
00000310
00000000
00001010
00000000
00000000
00010010
00000000
00000000
00011000
00000000
00000010
00000000
00001000
00000000
,
00010000
00000000
00001000
00000000
00000010
00000000
00001000
00000000
00010000
00000000
00010000
00000000
01000000
00000000
00100000
01000000
,
00010000
00000000
00001000
00000000
00010000
00000000
00100000
00000000
00110000
00000000
00000000
00101000
00000000
00000000
00011000
00000000
,
00000000
00000000
00001000
00100000
00010000
00000000
00000000
01010000
00000000
00000000
01100000
00000000
00010000
10000000
00100000
00000000
,
10100000
00000000
10000000
01000000
00010000
00000000
00010000
00000000
00100000
00001000
00010000
00000000
00010000
00000000
00001000
00000010
,
00000100
00000000
00000100
00000000
00010000
00001000
00000010
00000000
00000011
00000000
00000001
00000100
00001000
00000000
00001000
00000000
,
00000010
00010000
00001000
00000000
00001000
00000000
00010000
00100000
01000000
00000000
01000000
00000000
00001000
00010000
00100000
00000000
,
10100000
00000000
01000000
00010000
00100000
00000000
00100000
00000000
00010000
00001000
00000010
00000000
00000010
00000000
00001000
00000001
,
00000100
00000000
00000100
00000000
00000010
00001000
00000100
00000000
00001100
00000000
00000000
00000101
00000000
00000000
00000011
00000000
,
00000000
00001010
00000000
00000000
00011000
00000000
00101000
00000000
00010000
00000000
01000000
00000000
00100000
10000000
00100000
00000000
,
10000000
01000000
10000000
01000000
00010000
00001000
00010000
00001000
00000100
00000001
00000100
00000001
00000010
00000100
00000010
00000100
,
00002000
00000000
00000000
00000000
,
00003000
00000000
00000000
00000000
,
00000000
00000000
00000000
00000000
,
00000000
00000000
00000000
00000000
,
00000001
00000000
00000100
00000000
00001000
00000000
00010000
00000000
00100000
00000000
00000000
00010000
00100000
00000000
10000000
00000000
,
01000000
00000000
00000000
00010000
00001000
00000000
00000000
00000000
00100000
00000000
00010000
00000000
00001000
00000000
00010000
00000000
,
01000000
00010000
00000000
01010000
00000000
00000000
00000000
00000000
10000000
00100000
00000000
10100000
00000000
00000000
00000000
00000000
,
10000000
01000000
00000000
01000000
00010000
00000000
00010000
00001000
00000000
00001000
00000010
00000000
00000010
00000001
00000010
00000001
,
00001000
00000000
00000000
00000001
00000100
00000000
00000000
00000000
00000001
00000000
00000000
00001000
00000100
00000000
00000000
00000000
,
00010000
00000000
00000000
00001000
00100000
00000000
00000000
00000000
01000000
00000000
00000000
00000000
10010000
00000000
00000000
00000000
,
00100000
00000000
00000000
10000000
01000000
00000000
00000000
00000000
00010000
00000000
00001000
00000000
00000100
00000000
00000001
00000000
,
00000010
00000000
00000001
00001000
00000001
00000000
00000100
00000000
00001000
00000000
00000000
00000000
00011000
00000000
00000000
00000000
,
00010000
00000000
01000000
00000000
10000000
00000000
00100000
00000000
00010000
00000000
00000000
00001000
00010000
00000000
00100000
00000000
,
00010000
00000000
00000000
00000010
00001000
00000000
00000000
00000000
00000001
00000000
00000010
00000000
00001000
00000000
00010000
00000000
,
00100000
10000000
00010000
10000000
01000000
00100000
01000000
00100000
00010000
00001000
00010000
00001000
00000100
00000010
00000100
00000010
,
00000002
00000000
00000000
00001000
00000000
00000000
00000100
00000000
00001003
00000000
00000000
00000000
00001001
00000000
00000000
00000000
,
00000001
00000010
00000001
00000000
00000010
00001000
00000010
00000000
00001000
00010000
00001000
00010000
00100000
10000000
00100000
10000000
,
00010000
00000000
00000000
10000000
01000000
00000000
00010000
00000000
00011000
00000000
00000000
00000000
00000110
00000000
00000000
00000000
,
00001000
00000000
00000000
00000001
00000100
00000000
00001000
00000000
00011000
00000000
01000000
00010000
00100000
00000000
00100000
00000000
,
10000000
00000000
10000000
00100000
00010000
00000000
00100000
00000000
01100000
00000000
00000000
00000000
10010000
00000000
00000000
00000000
,
10000000
00000000
01000000
00000000
00100000
00000000
00010000
00000000
00001000
00000000
00000000
00000100
00001000
00000000
00000010
00000000
,
00000001
00000000
00000000
00000010
00001000
00000000
00000000
00000000
00000001
00000000
00000100
00001000
00010000
00000000
00100000
00010000
,
00100000
00010000
00000000
00011000
00000000
00000000
00000010
00001000
00000010
00001000
00000000
00011000
00000000
00000000
00100000
10000000
,
00100000
10000000
00000000
01010000
00000000
00000000
01100000
00000000
00000000
10010000
00000000
00000000
00010000
00100000
00010000
00000000
,
10000000
00100000
10000000
00000000
00100000
00010000
00100000
00000000
00010000
00001000
00010000
00001000
00000010
00000001
00000010
00000001
,
00001000
00000000
00000010
00000100
00001000
00010000
00000000
00011000
00000000
00100000
01000000
00000000
01100000
00000000
00000000
00000000
,
00010000
00000000
00000000
10000000
01000000
00000000
00010000
00000000
00011000
00000000
00000100
00001000
00000010
00000000
00000010
00000000
,
00000001
00000000
00000001
00000010
00001000
00000000
00000010
00000000
00000110
00000000
00000000
00000000
00001001
00000000
00000000
00000000
,
00000001
00000000
00000100
00000000
00000010
00000000
00001000
00000000
00010000
00000000
00000000
01000000
00010000
00000000
00100000
00000000
,
10000000
00000000
00000000
00100000
00010000
00000000
00000000
00000000
10000000
00000000
01000000
00000000
00010000
00000000
00001000
00000000
,
00000010
00000001
00000010
00001000
00010000
01000000
10000000
00100000
01000000
00100000
00010000
00001000
00010000
01000000
10000000
00010000
,
01000000
00100000
00000000
10000000
01000000
00000000
00100000
00010000
00000000
01000000
00100000
00000000
10000000
01000000
00010000
00000000
,
00011000
00001000
00000100
00000001
00000100
00010000
00001000
00000010
00000001
00000010
00001000
00000100
,
00010000
01000000
10000000
01000000
00001000
00010000
00100000
10000000
00100000
00010000
01000000
00001000
,
00000010
00000001
00000010
00010000
00001000
00000100
00000001
00000100
00001000
00000010
00010000
00100000
,
20000000
00000000
00000000
00000000
,
00000000
00000000
00000000
00000000
,
30000000
00000000
00000000
00000000
;
