#VERSION:0.83;
#TITLE:BACK COVER;
#ARTIST:USAO;
#BANNER:BACK COVER.png;
#BACKGROUND:BACK COVER-bg.png;
#JACKET:BACK COVER-jacket.png;
#MUSIC:BACK COVER.ogg;
#OFFSET:-0.117;
#SAMPLESTART:37.579216;
#SAMPLELENGTH:15;
#BPMS:0=205;
#STOPS:120=2.048;
#TIMESIGNATURES:0=4=4,120=1=4,121=4=4;

//---------------dance-single - Pandemonium X-DSP----------------
#NOTEDATA:;
#CHARTNAME:Pandemonium X-DSP;
#STEPSTYPE:dance-single;
#DESCRIPTION:Pandemonium X-DSP;
#DIFFICULTY:Medium;
#METER:10;
#RADARVALUES:0.443602,0.693244,0.175593,0.101659,0.018483,336,317,19,11,0,0,0,0,0,0.443602,0.693244,0.175593,0.101659,0.018483,336,317,19,11,0,0,0,0,0;
#CREDIT:Pandemonium X;
#NOTES:
0000
0000
0000
0000
,
0000
0000
0000
0000
,
0000
0000
0000
0000
,
0000
0000
0000
0000
,
0000
0000
0000
0000
,
0000
0000
0000
0000
,
0000
0000
0000
0000
,
0000
0000
0000
0000
,
1010
0000
0000
0000
,
0000
0000
0000
0000
,
0000
0000
0000
0000
0001
0100
0000
0100
,
0001
0000
1000
0100
0001
0000
0100
0000
,
1100
0000
0000
0000
,
0000
0000
0000
0000
,
0001
0000
0000
0000
0100
0010
0000
0010
,
1000
0000
0001
0010
1000
0000
0010
0000
,
0011
0001
0100
0001
,
1000
0010
1000
0001
,
0010
0100
0010
0001
,
1000
0000
0010
0000
1000
0000
0100
1000
,
0010
0100
0001
0010
,
0001
0000
1000
0000
0100
0000
1000
0010
,
0100
0001
0100
0001
0100
0001
0100
0001
,
0100
0010
0100
0010
0100
0010
0100
0010
,
1000
0010
0100
0001
,
0010
0001
1000
0100
,
1000
0010
0100
0001
,
0010
0000
0100
0000
0010
0000
0001
0010
,
0001
1000
0001
0100
,
0001
0000
0010
0000
0100
0000
0010
0001
,
1000
0000
1001
0000
0000
0000
1000
0010
,
0000
0100
0001
0000
0010
0100
1000
0000
,
0010
0000
1001
0000
0000
0000
0001
0100
,
0000
0010
1000
0000
0100
0010
0001
0000
,
0100
0000
1001
0000
0000
0000
0010
1000
,
0000
0010
0100
0000
0001
1000
0100
0000
,
0010
0000
1001
0000
0000
0000
0100
0001
,
0000
0100
0020
0000
1030
0001
0200
0000
,
0320
0000
0130
0000
0000
0000
0001
0100
,
0000
0100
1000
0000
0100
0010
1000
0000
,
0001
0000
0011
0000
0000
0000
0001
0010
,
0000
0010
1000
0000
0010
0001
0100
0000
,
0010
0000
1001
0000
0000
0000
0001
0010
,
0000
0010
1000
0000
0010
0100
1000
0000
,
0100
0000
0010
0001
0100
0001
1000
0001
,
0100
0010
2000
0000
0000
0000
0000
0000
,
3000
0110
0000
0000
,
0000
0000
0000
0000
0000
0000
0000
0001
,
0000
1000
1001
0000
0000
0000
0000
0000
,
0000
0000
0000
0000
,
0110
1001
0000
0000
,
0000
0000
0000
0000
0000
0000
0000
0001
,
0000
1000
1001
0000
0000
0000
0000
0000
,
0000
0000
0000
0000
,
0010
1001
0001
0001
,
0001
0001
0001
0001
,
0001
0001
0100
0000
0100
0000
0100
0000
,
0100
0100
0100
0100
,
0100
0100
0010
0000
0010
0000
0010
0000
,
0010
0010
0010
0010
,
0010
0010
1000
0000
1000
0000
1000
0000
,
1000
0000
1000
0001
0100
0000
0010
1000
,
0100
0011
0010
0010
,
0010
0000
0010
0000
0010
0000
0010
0100
,
0000
0100
1000
0000
1000
0000
1000
0000
,
1000
1000
1000
1000
,
1001
0110
0010
0010
,
0010
0000
0010
0000
0010
0000
0010
0100
,
0000
0100
0001
0000
0001
0000
0001
0000
,
0100
0020
0000
0000
,
0000
0000
1030
0000
0010
0000
0100
0001
,
0100
0000
0010
0000
1000
0000
0001
0010
,
0001
0000
0010
0000
0100
0000
1000
0010
,
1000
0000
0001
0000
1000
0000
0100
1000
,
0100
0010
0100
0000
0010
0000
0001
0100
,
0001
0000
0100
0000
0010
0000
1000
0100
,
1000
0001
1000
0000
0001
0000
0100
0010
,
0100
0002
1000
1000
,
1003
0010
1000
0010
,
0100
0001
0010
0100
,
0010
0000
0001
0100
0000
0000
0001
0000
0000
0100
0000
0000
,
0010
1000
0010
0100
,
0001
0000
0000
1000
0000
0000
0001
0000
0100
0010
0000
0000
,
1000
0000
0001
0100
0000
0000
0001
0000
1000
0100
0000
0000
,
1000
0010
0100
0010
,
1000
0002
0023
0230
,
2300
3020
0000
0000
,
0000
0000
0000
0000
,
0030
1001
0000
0000
;

//---------------dance-single - Pandemonium X-ESP----------------
#NOTEDATA:;
#CHARTNAME:Pandemonium X-ESP;
#STEPSTYPE:dance-single;
#DESCRIPTION:Pandemonium X-ESP;
#DIFFICULTY:Hard;
#METER:15;
#RADARVALUES:0.631077,1.061758,0.258768,0.221801,0.272631,478,450,28,24,0,0,0,0,0,0.631077,1.061758,0.258768,0.221801,0.272631,478,450,28,24,0,0,0,0,0;
#CREDIT:Pandemonium X;
#NOTES:
0000
0000
0000
0000
,
0000
0000
0000
0000
,
0000
0000
0000
0000
,
0000
0000
0000
0000
,
0000
0000
0000
0000
,
0000
0000
0000
0000
,
0000
0000
0000
0000
,
0000
0000
0000
0000
,
1001
0000
0000
0000
,
0000
0000
0000
0000
,
0000
0000
0000
0000
0001
0010
0000
0010
,
1000
0000
0010
0001
0100
0000
1000
0000
,
1100
0000
0000
0000
,
0000
0000
0000
0000
,
0110
0000
0000
0000
0100
0010
0000
1000
,
0001
0000
0010
1000
0010
0000
0001
0000
,
1000
0010
1000
0010
1000
0010
1000
0000
,
0001
0100
0001
0100
0001
0100
0001
0000
,
0010
0001
0010
0001
0010
0001
0010
0000
,
1000
0100
1000
0100
1000
0100
0010
0001
,
1000
0001
0010
0001
1000
0010
1000
0000
,
0001
0000
1000
0000
0100
0000
1000
0000
0001
0000
0100
0000
0001
0000
1000
0001
,
1000
1100
0001
0101
,
1000
0000
1010
0000
0001
0000
0011
0001
,
1000
0001
0010
0100
0010
0001
1000
0000
,
0001
1000
0100
0010
0100
1000
0001
0000
,
1000
0001
0010
0001
1000
0010
0100
0000
,
0001
1000
0010
1000
0001
0010
0100
0010
,
0001
1000
0100
0010
0100
1000
0001
0000
,
0100
0000
0010
0000
1000
0000
0001
0000
0010
0000
0001
0000
1000
0000
0010
0100
,
0010
0000
1001
0000
0000
0000
0001
0010
,
0000
0000
0100
0000
0010
0000
0000
0000
0001
0100
0010
0000
1000
0000
0000
0000
,
0001
1000
0100
0000
1001
0000
0000
0000
0000
0000
0000
0000
0001
0000
0010
0000
,
0000
0000
0001
0000
0100
0000
0000
0000
0010
0100
0001
1000
0100
0000
0000
0000
,
0010
0000
1001
0000
0000
0000
0100
0010
,
0000
0000
1000
0000
0001
0000
0000
0000
0010
0001
0100
0000
0010
0000
0000
0000
,
0100
0010
1000
0000
1001
0000
0000
0000
0000
0000
0000
0000
0001
0000
0010
0000
,
0000
0100
0010
0000
0100
1000
0020
0000
,
0230
0000
0301
0000
0000
0000
1000
0010
,
0000
0000
0010
0000
0001
0000
0000
0000
0010
0100
0010
0000
1000
0000
0000
0000
,
0001
0010
0100
0000
0110
0000
0000
0000
0000
0000
0000
0000
0010
0000
0001
0000
,
0000
0000
1000
0000
0010
0000
0000
0000
0100
0010
1000
0100
0010
0000
0000
0000
,
0001
0000
1100
0000
0000
0000
1000
0010
,
0000
0000
0010
0000
0001
0000
0000
0000
0010
0100
0001
0000
1000
0000
0000
0000
,
0100
0010
0001
0000
1000
0000
0100
0000
1000
0000
0001
0000
0100
0000
0010
0000
,
1000
0001
0020
0000
0000
0000
0000
0000
,
0000
0030
1001
0000
0000
0000
0000
0000
,
0000
0000
1000
0010
0000
2000
0000
3100
,
0000
0010
1001
0000
0000
0000
0000
0000
,
0001
0010
0001
1000
0010
0100
0001
1000
,
1001
0110
0000
0000
,
0000
0000
0100
0020
0000
1030
0001
0100
,
0000
0010
1001
0000
0000
0000
0000
0000
,
0000
0000
0001
0010
0001
1000
0010
1000
,
0001
0201
0001
0001
,
0001
0001
0001
0001
,
0301
1000
0020
0000
1000
0000
1000
0000
,
1000
1000
1000
1000
,
1030
0001
2000
0000
0001
0000
0001
0000
,
0001
0001
0001
0001
,
3001
0010
0200
0000
0010
0000
0010
0000
,
0010
0000
0310
0001
1000
0010
0100
0001
,
0010
0100
2000
0000
0010
0000
0001
0000
,
0010
0000
0001
0000
0010
0000
3001
1000
,
0000
1000
0002
0000
0100
0000
0010
0000
,
0100
0010
0100
0010
,
0103
0010
2000
0000
0100
0000
0001
0000
,
0100
0000
0001
0000
0100
0000
3001
1000
,
0000
0010
0200
0000
0320
0000
2030
0000
,
3002
2000
0000
0000
,
3003
0000
0000
0000
0001
0000
1000
0000
0010
0000
0100
0001
0000
0010
0100
0000
,
0010
0000
0001
0000
1000
0000
0010
0000
0100
0000
0001
0010
0000
0100
1000
0000
,
0010
0000
0100
0000
0001
0000
1000
0000
0100
0000
0010
0100
0000
0010
0001
0000
,
1000
0000
0001
0000
0100
0000
0010
0000
1000
0000
0010
0100
0000
0001
0010
0000
,
0100
0000
0010
0000
0001
0000
1000
0000
0010
0000
0100
0001
0000
0010
0100
0000
,
0010
0000
0001
0000
1000
0000
0100
0000
1000
0000
0010
1000
0000
0001
0100
0000
,
0001
0000
0010
0000
0100
0000
0010
0000
0001
0000
1000
0001
0000
0100
0010
0000
,
1000
0100
0020
0000
0000
0000
0000
0000
,
0130
1001
0101
0011
,
0110
1100
1010
0101
,
1001
0000
1000
0020
0000
0000
0031
0000
0010
0200
0000
0301
,
0000
0000
0010
0200
0000
1300
0020
0000
0130
0002
0000
1003
,
0100
0001
0100
1000
0000
0000
0001
0000
0100
0001
0000
0010
,
0000
0000
0100
0010
0000
0010
0001
0000
0001
1000
0001
1000
,
0010
0000
0010
0200
0000
0301
0100
1000
0100
0010
0000
1000
,
0010
0000
0000
0000
1000
0000
0000
0000
0010
0000
0000
0000
1000
0000
0000
0100
0000
0000
0010
0000
0000
0001
0000
0000
1000
0000
0000
0000
0001
0000
0000
0000
1000
0000
0000
0000
0010
0000
0000
0100
0000
0000
0010
0000
0000
0100
0000
0000
,
0010
0100
0010
0100
0010
0000
0000
0000
1000
0000
0001
0000
0010
0000
0000
0000
,
0010
0001
1000
0001
0000
0100
0000
0000
,
0010
0000
1001
0100
0000
0000
0000
0000
;

//---------------dance-single - Pandemonium X-BSP----------------
#NOTEDATA:;
#CHARTNAME:Pandemonium X-BSP;
#STEPSTYPE:dance-single;
#DESCRIPTION:Pandemonium X-BSP;
#DIFFICULTY:Easy;
#METER:7;
#RADARVALUES:0.299696,0.448570,0.055450,0.027725,0,227,221,6,3,0,0,0,0,0,0.299696,0.448570,0.055450,0.027725,0,227,221,6,3,0,0,0,0,0;
#CREDIT:Pandemonium X;
#NOTES:
// measure 0
0000
0000
0000
0000
,  // measure 1
0000
0000
0000
0000
,  // measure 2
0000
0000
0000
0000
,  // measure 3
0000
0000
0000
0000
,  // measure 4
0000
0000
0000
0000
,  // measure 5
0000
0000
0000
0000
,  // measure 6
0000
0000
0000
0000
,  // measure 7
0000
0000
0000
0000
,  // measure 8
1001
0000
0000
0000
,  // measure 9
0000
0000
0000
0000
,  // measure 10
0000
0000
0001
0000
,  // measure 11
0100
0000
0001
0000
,  // measure 12
1001
0000
0000
0000
,  // measure 13
0000
0000
0000
0000
,  // measure 14
1000
0000
0010
0000
,  // measure 15
0100
0010
1000
0000
,  // measure 16
0001
1000
0010
1000
,  // measure 17
0001
0010
0001
1000
,  // measure 18
0100
1000
0001
0100
,  // measure 19
0001
0000
1000
0000
0100
0000
0010
0100
,  // measure 20
0010
0100
1000
0010
,  // measure 21
0100
0001
0010
0100
,  // measure 22
1000
1000
1000
1000
,  // measure 23
0001
0001
0001
0001
,  // measure 24
1000
0010
1000
0010
,  // measure 25
0100
0010
0100
0001
,  // measure 26
0100
0001
1000
0100
,  // measure 27
1000
0000
0001
0000
1000
0000
0010
1000
,  // measure 28
0010
1000
0100
0010
,  // measure 29
0100
0000
1000
0000
0001
0000
1000
0010
,  // measure 30
0100
1001
0000
0010
,  // measure 31
0100
0001
1000
0100
,  // measure 32
1000
0001
0000
1000
,  // measure 33
0001
0100
0001
0010
,  // measure 34
0001
1000
0000
0010
,  // measure 35
1000
0100
0010
0100
,  // measure 36
1000
0001
0000
0010
,  // measure 37
0001
0100
0010
1000
,  // measure 38
0001
0010
0000
0001
,  // measure 39
0100
0010
1000
0100
,  // measure 40
1000
0001
0000
1000
,  // measure 41
0001
1000
0010
1000
,  // measure 42
0100
0010
0000
0100
,  // measure 43
1000
0001
0010
0001
,  // measure 44
0100
0001
1000
0001
,  // measure 45
0100
0020
0000
0000
,  // measure 46
0030
1001
0000
0000
,  // measure 47
0000
0000
0000
0000
0000
0000
0000
1000
,  // measure 48
0000
0001
0100
0000
0000
0000
0000
0000
,  // measure 49
0000
0000
0000
0000
,  // measure 50
0010
1000
0000
0000
,  // measure 51
0000
0000
0000
0000
0000
0000
0000
0100
,  // measure 52
0000
0010
0001
0000
0000
0000
0000
0000
,  // measure 53
0000
0000
0000
0000
,  // measure 54
0001
1000
0000
1000
,  // measure 55
0000
1000
0000
1000
,  // measure 56
0000
0001
0000
0001
,  // measure 57
0000
0001
0000
0001
,  // measure 58
0000
0100
0000
0100
,  // measure 59
0000
0100
0000
0100
,  // measure 60
0000
0010
0000
0010
,  // measure 61
0000
0010
0000
0010
,  // measure 62
0000
1000
0000
0010
,  // measure 63
0000
0100
0000
0001
,  // measure 64
0000
0010
0000
0100
,  // measure 65
0000
0010
0000
0001
,  // measure 66
0000
1000
0000
0001
,  // measure 67
0000
0100
0000
0010
,  // measure 68
0000
1000
0000
0010
,  // measure 69
0000
0200
0000
0000
,  // measure 70
0000
0301
0100
0010
,  // measure 71
0000
1000
0010
0100
,  // measure 72
0000
0010
1000
0001
,  // measure 73
0000
0010
0100
1000
,  // measure 74
0000
0100
1000
0010
,  // measure 75
0000
0100
0001
0010
,  // measure 76
0000
0100
0010
0001
,  // measure 77
0000
2000
0000
0000
,  // measure 78
0000
3001
1000
0010
,  // measure 79
1000
0001
0010
0100
,  // measure 80
0010
0001
0100
0010
,  // measure 81
1000
0001
0010
0100
,  // measure 82
0010
0001
0001
1000
,  // measure 83
1000
0010
0010
0100
,  // measure 84
0100
0001
0100
0010
,  // measure 85
1000
0001
0010
0100
,  // measure 86
1000
1001
0000
0000
,  // measure 87
0000
0000
0000
0000
,  // measure 88
0000
0110
0000
0000
;

//---------------dance-single - Pandemonium X-bSP----------------
#NOTEDATA:;
#CHARTNAME:Pandemonium X-bSP;
#STEPSTYPE:dance-single;
#DESCRIPTION:Pandemonium X-bSP;
#DIFFICULTY:Beginner;
#METER:3;
#RADARVALUES:0.121463,0.244674,0.073934,0,0,92,84,8,0,0,0,0,0,0,0.121463,0.244674,0.073934,0,0,92,84,8,0,0,0,0,0,0;
#CREDIT:Pandemonium X;
#NOTES:
0000
0000
0000
0000
,
0000
0000
0000
0000
,
0000
0000
0000
0000
,
0000
0000
0000
0000
,
0000
0000
0000
0000
,
0000
0000
0000
0000
,
0000
0000
0000
0000
,
0000
0000
0000
0000
,
0001
0000
0000
0000
,
0000
0000
0000
0000
,
0000
0000
1000
0000
,
0000
0000
0000
0000
,
0010
0000
0000
0000
,
0000
0000
0000
0000
,
0100
0000
0000
0000
,
1001
0000
0000
0000
,
1000
0000
0000
0000
,
0001
0000
0000
0000
,
1000
0000
0000
0000
,
0001
0000
0000
0000
,
0100
0000
0000
0000
,
0010
0000
0000
0000
,
0100
0000
0100
0000
,
0010
0000
0010
0000
,
1000
0000
0000
0000
,
0100
0000
0000
0000
,
1000
0000
0000
0000
,
0001
0000
0000
0000
,
0100
0000
0000
0000
,
0010
0000
0000
0000
,
1000
0001
0000
0000
,
0000
1000
0000
1000
,
0000
1000
0000
0000
,
0000
0010
0000
0010
,
0000
0010
0000
0000
,
0000
0100
0000
0100
,
0000
0100
0000
0000
,
0000
0001
0000
0000
,
0000
1001
0000
0000
,
0000
0001
0000
0001
,
0000
0001
0000
0000
,
0000
1000
0000
1000
,
0000
1000
0000
0000
,
0000
0010
0000
0010
,
0000
0100
0000
0100
,
0000
0010
0000
0000
,
0000
1001
0000
0000
,
0000
0000
0000
0000
,
0000
1000
0000
0000
,
0000
0000
0000
0000
,
0001
0001
0000
0000
,
0000
0000
0000
0000
,
0000
0100
0000
0000
,
0000
0000
0000
0000
,
0010
0010
0000
0000
,
0000
0000
0000
0000
,
0000
1000
0000
0000
,
0000
0000
0000
0000
,
0000
1001
0000
0000
,
0000
0000
0000
0000
,
0000
0001
0000
0000
,
0000
0010
0000
0000
,
0000
0001
0000
0000
,
0000
0001
0000
0000
,
0000
1000
0000
0000
,
0000
1000
0000
0000
,
0000
0010
0000
0000
,
0000
0010
0000
0000
,
0000
0100
0000
0000
,
0000
0100
0000
0000
,
0000
1001
0000
0000
,
0000
1000
0000
0000
,
0000
0010
0000
0000
,
0000
0100
0000
0000
,
0000
0001
0000
0000
,
0000
0010
0000
0000
,
0000
0001
0000
0000
,
0000
1000
0000
0000
,
0000
1001
0000
0000
,
0000
0001
0000
0000
,
0000
1000
0000
0000
,
0000
0010
0000
0000
,
0000
0100
0000
0000
,
0000
0010
0000
0000
,
0000
1000
0000
0001
,
0000
0100
0000
0010
,
0000
1001
0000
0000
,
0000
0000
0000
0000
,
0000
0110
0000
0000
;

//---------------dance-double - NewbStepper-EDP----------------
#NOTEDATA:;
#CHARTNAME:NewbStepper-EDP;
#STEPSTYPE:dance-double;
#DESCRIPTION:NewbStepper-EDP;
#DIFFICULTY:Hard;
#METER:16;
#RADARVALUES:0.675966,0.978698,0.406636,0.046209,0.217180,512,468,44,5,0,0,0,0,0,0.675966,0.978698,0.406636,0.046209,0.217180,512,468,44,5,0,0,0,0,0;
#CREDIT:NewbStepper;
#NOTES:
00000000
00000000
00000000
00000000
,
00000000
00000000
00000000
00000000
,
00000000
00000000
00000000
00000000
,
00000000
00000000
00000000
00000000
,
00000000
00000000
00000000
00000000
,
00000000
00000000
00000000
00000000
,
00000000
00000000
00000000
00000000
,
00000000
00000000
00000000
00000000
,
10010000
00000000
00000000
00000000
,
00000000
00000000
00000000
00000000
,
00000000
00000000
00000000
00000000
00100000
10000000
00000000
10000000
,
01000000
00000000
00010000
00001000
00000010
00000000
00000100
00000000
,
00001001
00000000
00000000
00000000
,
00000000
00000000
00000000
00000000
,
00000110
00000000
00000000
00000000
00000010
00000001
00000000
00000001
,
00000100
00000000
00001000
00010000
01000000
00000000
00100000
00000000
,
10010000
00000000
00010000
10000000
00100000
00010000
00001000
00000010
,
00000001
00000000
00001000
00000001
00000010
00001000
00010000
00100000
,
10000000
00000000
00100000
01000000
00001000
00010000
01000000
00010000
,
00001000
00000100
00000001
00001000
00000100
00000010
00000001
00000000
,
00001000
00000001
00000100
00001000
00010000
01000000
10000000
00000000
,
00010000
00000000
10000000
00000000
01000000
00000000
00010000
00000000
00001000
00000000
00000100
00000000
00000001
00000000
00000010
00000100
,
00000010
00000001
00000100
00001000
00000001
00000010
00001000
00010000
,
01000000
10000000
00010000
00100000
10000000
01000000
01100000
00000000
,
10010000
00010000
00100000
01000000
00010000
10000000
00100000
00010000
,
00001000
00000100
00000010
00000001
00000100
00001000
00000001
00000010
,
00001000
00010000
00001000
00000010
00010000
00001000
00000010
00001000
,
00010000
00100000
10000000
01000000
00010000
00001000
00000100
00000000
,
00001001
00001000
00000010
00000100
00001000
00000001
00000010
00001000
,
00010000
00000000
01000000
00000000
00100000
00000000
10000000
00000000
01000000
00000000
00010000
00000000
00001000
00000000
00000100
00000010
,
00000100
00000000
00001001
00000000
00000000
00000000
00000001
00000010
,
00000000
00000000
00000010
00000000
00001000
00000000
00000000
00000000
00010000
00001000
00010000
00000000
00100000
00000000
10000000
00000000
,
00010000
00000000
10010000
00000000
00000000
00000000
10000000
00100000
,
00000000
00000000
00100000
00000000
00010000
00000000
00000000
00000000
00001000
00010000
00001000
00000000
00000010
00000000
00000001
00000000
,
00000101
00000100
00000110
00000000
00000000
00000000
00000001
00000100
,
00000000
00000000
00000100
00000000
00001000
00000000
00000000
00000000
00010000
00001000
00010000
00000000
01000000
00000000
10000000
00000000
,
00100000
00000000
01000000
00010000
01000000
00000000
00000000
00000000
00100000
00000000
00000000
00000000
10000000
00000000
01000000
00000000
,
00000000
00000000
01000000
00000000
00010000
00000000
00000000
00000000
00001000
00010000
00001000
00010000
00001000
00000000
00000000
00000000
,
00000010
00000000
00000001
00000100
00000001
00000100
00000010
00001000
,
00000010
00000000
00001000
00000000
00010000
00000000
01000000
00000000
00100000
10000000
00100000
10000000
00100000
00000000
00000000
00000000
,
01100000
00000000
10000000
01000000
10000000
01000000
00100000
00010000
,
00100000
00000000
00010000
00000000
00001000
00000000
00000100
00000000
00000010
00000001
00000010
00000001
00000010
00000000
00000000
00000000
,
00000110
00000000
00001001
00000000
00000010
00010000
00000100
00001000
,
00010000
00000000
00001000
00000000
00000100
00000000
00010000
00000000
01000000
00100000
01000000
00000000
01100000
00000000
00000000
00000000
,
10010000
00000000
10000000
01000000
00100000
00000000
00001000
00000000
00010000
00000000
00001000
00000000
00100000
00000000
01000000
00000000
,
00010000
00001000
00000020
00000000
00000000
00000000
00000000
00000000
,
00000030
00001001
00000000
00000000
,
00000000
00000000
00000000
00000000
00000000
00000000
00000000
00100000
,
00000000
01000000
10010000
00000000
00000000
00000000
00000000
00000000
,
00000000
00000000
00000000
00000000
,
00000110
00001001
00000000
00000000
,
00000000
00000000
00000000
00000000
00000000
00000000
00000000
00100000
,
01000000
00100000
10010000
00000000
00000000
00000000
00000000
00000000
,
00000000
00000000
00000000
00000000
,
00000000
00000000
00001000
00000100
00000001
00000000
00000100
00010000
,
01000000
00000000
10000000
01000000
00100000
00000000
10000000
00010000
,
00100000
00000000
01000000
00010000
00001000
00000000
00000010
00010000
,
01000000
00000000
00100000
00010000
00001000
00010000
00000010
00010000
,
00001000
00000010
00000001
00000000
00000101
00000000
00000100
00000000
,
00001100
00001000
00011000
00010000
,
00100000
10000000
11000000
00000000
01000000
00000000
01010000
00000000
,
00010000
00000000
00011000
00000000
00001000
00000000
00000010
00000001
,
00001000
00000010
00000110
00000000
00000001
00000100
00001000
01000000
,
10000000
01000000
00010000
00100000
00001000
00000010
00000100
00010000
,
00001000
00000100
00000001
00000010
00001000
00100000
10000000
00100000
,
00010000
00001000
00000100
00010000
00001000
00100000
01000000
00100000
,
00001000
00010000
00011000
00000000
10010000
00000000
00011000
00000000
,
00001001
00000011
00001010
00011000
,
00110000
00000000
10000000
01000000
00100000
00010000
00001000
00000100
,
00000010
00000001
00002000
00000000
00000000
00000000
00000000
00000000
,
00003000
00000000
00000001
00000100
00001000
00000000
00010000
00000010
,
00000100
00000000
00000001
00001000
00010000
00000000
00100000
00001000
,
00010000
00000000
01000000
10000000
00100000
00000000
01000000
00010000
,
00001000
00000000
00000010
00010000
00001000
00000000
00000100
00000001
,
00001000
00000100
00000010
00000100
00010000
00001000
00000010
00001000
,
00010000
00001000
00000010
00001000
00010000
01000000
10000000
00100000
,
00001000
00100000
01000000
00100000
00010000
00001000
00000010
00000001
,
00000100
00001000
00000001
00000010
00001000
00010000
01000000
00100000
,
10100000
10010000
01010000
00011000
,
00001010
00000000
00000000
00001001
00000000
00000000
00001100
00000000
00000000
00010000
00001000
00010000
,
00001000
00000000
00001000
00000020
00000000
00000000
00000031
00000000
00000010
00000200
00000000
00010300
,
00000000
00000000
00001000
00010000
00000000
00010000
01000000
00000000
01000000
10000000
00000000
10000000
,
00100000
00000000
01000000
00010000
00000000
00001000
00000010
00000000
00000100
00000001
00000100
00000001
,
00000010
00000000
00000100
00001000
00000000
00000010
00001000
00000000
00010000
01000000
00001000
00010000
,
00100000
00000000
10000000
01000000
00000000
00100000
00010000
00100000
00001000
00010000
00000000
00010000
,
00000010
00000000
00000000
00000000
00001000
00000000
00000000
00000000
00000010
00000000
00000000
00000000
00000200
00000000
00000000
00000000
00000000
00000000
00000000
00000000
00000301
00000000
00000000
00000000
00000100
00000000
00000000
00000000
00000001
00000000
00000000
00000000
00000100
00000000
00000000
00000000
00001000
00000000
00000000
00010000
00000000
00000000
00001000
00000000
00000000
00010000
00000000
00000000
,
00001000
00010000
00001000
00010000
00001000
00000000
00000000
00000000
00010000
00000000
01000000
00000000
10000000
00000000
00000000
00000000
,
10000000
00100000
00010000
00001000
00000000
01000000
00000000
00000000
,
00010000
00101000
00000000
00000000
;

//---------------dance-double - NewbStepper-DDP----------------
#NOTEDATA:;
#CHARTNAME:NewbStepper-DDP;
#STEPSTYPE:dance-double;
#DESCRIPTION:NewbStepper-DDP;
#DIFFICULTY:Medium;
#METER:10;
#RADARVALUES:0.403995,0.570907,0.147867,0.110901,0.018483,306,290,16,12,0,0,0,0,0,0.403995,0.570907,0.147867,0.110901,0.018483,306,290,16,12,0,0,0,0,0;
#CREDIT:NewbStepper;
#NOTES:
00000000
00000000
00000000
00000000
,
00000000
00000000
00000000
00000000
,
00000000
00000000
00000000
00000000
,
00000000
00000000
00000000
00000000
,
00000000
00000000
00000000
00000000
,
00000000
00000000
00000000
00000000
,
00000000
00000000
00000000
00000000
,
00000000
00000000
00000000
00000000
,
00000011
00000000
00000000
00000000
,
00000000
00000000
00000000
00000000
,
00000000
00000000
00000000
00000000
00000001
00000100
00000000
00000100
,
00000010
00000000
00000100
00001000
00010000
00000000
01000000
00000000
,
01100000
00000000
00000000
00000000
,
00000000
00000000
00000000
00000000
,
00010000
00000000
00000000
00000000
10000000
01000000
00000000
01000000
,
00100000
00000000
01000000
00010000
00001000
00000000
00000100
00000000
,
00001010
00001000
00000100
00001000
,
00000001
00000100
00001000
01000000
,
00001000
00000100
00001000
01000000
,
10000000
00000000
01000000
00000000
00010000
00000000
00100000
00010000
,
10000000
00010000
01000000
00010000
,
10000000
01000000
00010000
00000100
,
00010000
01000000
00010000
00000000
00001000
00010000
00001000
00000000
,
00000100
00000010
00000100
00000000
00000001
00001000
00000001
00001000
,
00000001
00000100
00010000
00000100
,
00000001
00000100
00010000
00001000
,
00100000
10000000
00100000
00001000
,
00100000
00000000
10000000
00000000
00100000
00000000
01000000
00010000
,
10000000
01000000
00001000
01000000
,
10000000
01000000
00010000
00001000
,
00011000
00000000
00000000
00000000
00000000
00000000
00000010
00000100
,
00000000
00000001
00000010
00000000
00001000
00010000
00001000
00000000
,
00100000
00000000
10010000
00000000
00000000
00000000
00100000
01000000
,
00000000
10000000
00100000
00000000
00010000
00001000
00010000
00000000
,
00000010
00000000
00001001
00000000
00000000
00000000
00000100
00000010
,
00000000
00000001
00000100
00000000
00001000
00010000
00001000
00000000
,
01000000
00000000
10010000
00000000
00000000
00000000
01000000
00100000
,
00000000
10000000
02000000
00000000
03020000
00000000
00032000
00000000
,
00003200
00000000
00000301
00000000
00000000
00000000
00001000
00000001
,
00000000
00000100
00001000
00000000
00010000
01000000
10000000
00000000
,
00100000
00000000
10100000
00000000
00000000
00000000
00010000
10000000
,
00000000
01000000
00010000
00000000
00001000
00000100
00000001
00000000
,
00000010
00000000
00000011
00000000
00000000
00000000
00001000
00000001
,
00000000
00000010
00001000
00000000
00010000
00100000
10000000
00000000
,
01000000
00010000
00001000
00000100
,
00000001
00002000
00000000
00000000
,
00003000
00000110
00000000
00000000
,
00000000
00000000
00000000
00000000
00000000
00000000
00000000
00001000
,
00000000
00001000
00010000
00000000
00000000
00000000
00000000
00000000
,
00000000
00000000
00000000
00000000
,
00100000
01100000
00000000
00000000
,
00000000
00000000
00000000
00000000
00000000
00000000
00000000
00010000
,
00000000
00010000
00001000
00000000
00000000
00000000
00000000
00000000
,
00000000
00000000
00000000
00000000
,
00000000
00000110
00000001
00000000
,
00000001
00000000
00000001
00000000
,
00000001
00000100
00001000
00000000
00001000
00000000
00000000
00000000
,
00001000
00000000
00001000
00000000
,
00001000
00010000
00100000
00000000
00100000
00000000
00000000
00000000
,
00100000
00000000
00100000
00000000
,
00100000
10000000
00010000
00000000
00010000
00000000
00000000
00000000
,
00010000
10000000
00010000
00001000
,
00010000
01100000
10000000
10000000
,
10000000
10000000
10000000
10000000
,
10000000
01000000
00010000
00000000
00010000
00000000
00010000
00000000
,
00010000
00010000
00010000
00010000
,
00010000
00001000
00000010
00000000
00000010
00000000
00000010
00000000
,
00000010
00000000
00000010
00000000
00000010
00000000
00000010
00000001
,
00000000
00000001
00000100
00000000
00000000
00000000
00001000
00000000
,
00000000
00022000
00000000
00000000
,
00033000
00100000
00100000
10000000
,
10000000
01000000
01000000
00010000
,
00010000
00001000
00000010
00000000
00000010
00000000
00000001
00000000
,
00000001
00000100
00000100
00001000
,
00001000
00010000
00100000
00000000
00100000
00000000
10000000
00000000
,
10000000
00000000
00010000
00000000
10000000
00000000
01000000
00100000
,
01000000
00010000
00001000
00000000
00000010
00000000
00000100
00000010
,
00000100
00010000
00001000
00000000
00100000
00000000
00010000
10000000
,
10010000
00100000
00001000
01000000
,
00001000
00010000
00000010
00010000
,
00001000
00000000
00001000
00100000
00000000
00000000
00001000
00000000
00000000
00010000
00000000
00000000
,
00001000
00000010
00000001
00000100
,
00000010
00000000
00000000
00010000
00000000
00000000
00001000
00000000
00010000
00001000
00000000
00000000
,
00100000
00000000
00001000
00010000
00000000
00000000
01000000
00000000
00100000
00010000
00000000
00000000
,
10000000
00100000
00010000
00001000
,
00000010
00000002
00000203
00000320
,
00002030
00003002
00000000
00000000
,
00000000
00000000
00000000
00000000
,
00000003
00001001
00000000
00000000
;

//---------------dance-double - NewbStepper-BDP----------------
#NOTEDATA:;
#CHARTNAME:NewbStepper-BDP;
#STEPSTYPE:dance-double;
#DESCRIPTION:NewbStepper-BDP;
#DIFFICULTY:Easy;
#METER:7;
#RADARVALUES:0.289134,0.407791,0.055450,0.046209,0,219,213,6,5,0,0,0,0,0,0.289134,0.407791,0.055450,0.046209,0,219,213,6,5,0,0,0,0,0;
#CREDIT:NewbStepper;
#NOTES:
00000000
00000000
00000000
00000000
,
00000000
00000000
00000000
00000000
,
00000000
00000000
00000000
00000000
,
00000000
00000000
00000000
00000000
,
00000000
00000000
00000000
00000000
,
00000000
00000000
00000000
00000000
,
00000000
00000000
00000000
00000000
,
00000000
00000000
00000000
00000000
,
00001001
00000000
00000000
00000000
,
00000000
00000000
00000000
00000000
,
00000000
00000000
00000001
00000000
,
00000100
00000000
00001000
00000000
,
00011000
00000000
00000000
00000000
,
00000000
00000000
00000000
00000000
,
10000000
00000000
00100000
00000000
,
01000000
00100000
00010000
00000000
,
00001000
00010000
00000010
00010000
,
00001000
00000010
00000001
00000000
,
00001000
00000100
00001000
00000001
,
00000100
00001000
00010000
01000000
,
10000000
00100000
01000000
00010000
,
00001000
00000010
00000100
00000001
,
00002000
00003000
00000002
00000003
,
00000100
00001000
00010000
00000010
,
00010000
00001000
00100000
00001000
,
00010000
00100000
10000000
00000000
,
00010000
01000000
00010000
10000000
,
01000000
00010000
00001000
00000100
,
00000001
00000010
00000100
00001000
,
00010000
00100000
01000000
10000000
,
00010000
10010000
00000000
00100000
,
00001000
00010000
01000000
00100000
,
00001000
00000100
00000000
00000010
,
00010000
00001000
00000100
00000010
,
00010000
01000000
00000000
00100000
,
10000000
01000000
00010000
00001000
,
00000010
00000001
00000000
00000010
,
00000001
00000100
00001000
00010000
,
00100000
10000000
00000000
00010000
,
01000000
00010000
00001000
00000010
,
00000100
00000001
00000000
00001000
,
00000100
00001000
00010000
00100000
,
01000000
10000000
00000000
00010000
,
00100000
00010000
00001000
00000100
,
00000010
00000001
00000100
00001000
,
00000100
00000002
00000000
00000000
,
00000003
00001001
00000000
00000000
,
00000000
00000000
00000000
00000000
00000000
00000000
00000000
00100000
,
00000000
01000000
00100000
00000000
00000000
00000000
00000000
00000000
,
00000000
00000000
00000000
00000000
,
00000100
00000010
00000000
00000000
,
00000000
00000000
00000000
00000000
00000000
00000000
00000000
01000000
,
00000000
00100000
01000000
00000000
00000000
00000000
00000000
00000000
,
00000000
00000000
00000000
00000000
,
00000000
00001000
00000000
00001000
,
00000000
00001000
00000000
00001000
,
00000000
00000001
00000000
00000001
,
00000000
00000001
00000000
00000001
,
00000000
00000100
00000000
00000100
,
00000000
00000100
00000000
00000100
,
00000000
00001000
00000000
00001000
,
00000000
00001000
00000000
00001000
,
00000000
00010000
00000000
00010000
,
00000000
00010000
00000000
00010000
,
00000000
00100000
00000000
00100000
,
00000000
00100000
00000000
00100000
,
00000000
10000000
00000000
01000000
,
00000000
00010000
00000000
00001000
,
00000000
00000100
00000000
00000001
,
00000000
00000020
00000000
00000000
,
00000030
00000001
00000100
00001000
,
00000000
00000100
00001000
00010000
,
00000000
00001000
00010000
00100000
,
00000000
00010000
00100000
10000000
,
00000000
01000000
00100000
00001000
,
00000000
00010000
00000100
00000010
,
00000000
00000001
00000100
00000001
,
00000000
00002000
00000000
00000000
,
00003000
00000001
00000010
00000001
,
00001000
00000010
00001000
00000100
,
00010000
00000100
00001000
00010000
,
00100000
00010000
10000000
01000000
,
10000000
00100000
00010000
00001000
,
00000010
00001000
00010000
00000010
,
00001000
00000010
00010000
00001000
,
00010000
00100000
01000000
00100000
,
10000000
10010000
00000000
00000000
,
00000000
00000000
00000000
00000000
,
00000000
00001001
00000000
00000000
;
