#TITLE:Apocalypse ~dirge of swans~;
#ARTIST:Zektbach;
#BANNER:Apocalypse ~dirge of swans~.png;
#BACKGROUND:Apocalypse ~dirge of swans~-bg.png;
#MUSIC:Apocalypse ~dirge of swans~.ogg;
#OFFSET:0.978;
#SAMPLESTART:96.434;
#SAMPLELENGTH:15;
#BPMS:0=170,244=85,260=170;
#BGCHANGES:3.5=Apocalypse ~dirge of swans~.avi=1=0=0=0=StretchNoLoop====,99999=-nosongbg-=1=0=0=0 // don't automatically add -songbackground-;

//---------------dance-single - NewbStepper-ESP----------------
#NOTES:
     dance-single:
     NewbStepper:
     Hard:
     13:
     0.572283,0.758008,0.314812,0.165276,0.181017,509,469,40,21,0,0,0.572283,0.758008,0.314812,0.165276,0.181017,509,469,40,21,0,0:
// measure 0
0000
0000
0000
0000
,  // measure 1
0000
0000
0000
0000
,  // measure 2
0000
0000
0000
0000
,  // measure 3
0000
0000
0000
0000
,  // measure 4
0000
0000
0000
0000
0000
0000
0000
1000
,  // measure 5
2002
0000
0000
0000
,  // measure 6
0000
0000
0000
0000
,  // measure 7
0000
0000
0000
0000
,  // measure 8
0000
0000
3003
0000
,  // measure 9
1000
0000
0011
0000
0001
0100
1000
0000
,  // measure 10
0100
0001
0010
0000
0100
1000
0001
1000
,  // measure 11
0100
0000
1010
0000
1000
0100
0001
0000
,  // measure 12
0100
1000
0010
0000
0100
0001
1000
0001
,  // measure 13
0100
0000
1001
0000
0010
0001
0100
0000
,  // measure 14
1000
0000
0100
0000
0001
0100
1000
0000
,  // measure 15
0001
0010
1000
0000
0001
0100
0010
0000
,  // measure 16
0100
0100
1000
0100
0010
0001
0100
0000
,  // measure 17
0001
0010
1100
0000
0002
0100
0103
0000
,  // measure 18
1000
0100
0001
0001
0010
0100
0010
0000
,  // measure 19
1000
0010
0101
0000
2000
0100
3100
0000
,  // measure 20
0001
0100
1000
1000
0010
0100
0010
0000
,  // measure 21
0001
0010
0110
0000
1000
0100
0001
0000
,  // measure 22
1000
0010
0001
0100
0010
0010
0001
0100
,  // measure 23
0100
0010
1000
0010
0001
0100
0010
1000
,  // measure 24
1100
0000
0000
0001
0010
0000
0000
0100
1000
0000
0001
1000
0001
1000
0001
0000
,  // measure 25
0010
0001
0100
0100
1000
0010
0100
0001
,  // measure 26
0001
0010
1000
0010
0100
0100
0001
0100
,  // measure 27
1000
0010
0100
0001
0010
1000
0001
0100
,  // measure 28
1000
0010
0010
0100
0001
0100
1100
0000
,  // measure 29
0010
1000
0100
0001
0100
1000
0010
0100
,  // measure 30
0001
1000
0010
0001
1000
0100
0010
0010
,  // measure 31
0001
0100
0100
1000
0001
0100
1000
0001
,  // measure 32
0010
1000
0001
0100
1000
0100
0110
0000
,  // measure 33
0001
0010
0000
0000
0001
1000
0000
0000
0001
0100
0000
0000
1000
0100
0000
0000
,  // measure 34
0001
0010
0000
0000
0100
1000
0000
0000
0010
0100
0000
0000
0001
1000
0000
0000
,  // measure 35
0100
0010
0000
0000
0001
0100
0000
0000
0010
1000
0000
0000
0100
0010
0000
0000
,  // measure 36
0001
0100
0000
0000
0010
1000
0000
0000
0010
0001
0000
0000
0010
0100
0000
0000
,  // measure 37
0010
1000
0100
0100
0001
0010
1000
1000
,  // measure 38
0100
0001
0010
0001
1000
0100
0100
0010
,  // measure 39
1000
0100
0001
0100
1000
0100
0001
0100
,  // measure 40
1000
0000
0010
1000
0010
0000
0100
0001
0100
0000
0010
0100
0010
0000
0000
0000
,  // measure 41
1100
1100
0000
0000
0011
0011
0000
0000
,  // measure 42
0110
0110
0000
0000
1001
1001
0000
0000
,  // measure 43
0101
0101
0000
0000
1010
1010
0000
0000
,  // measure 44
0110
0110
0000
0000
1001
1001
0000
0000
,  // measure 45
0020
0000
0000
1000
0000
0030
0100
0001
0100
0010
0000
0000
,  // measure 46
2000
0000
0000
0001
0000
3000
0100
0010
0001
0010
0100
1000
,  // measure 47
0002
0000
0000
1000
0000
0003
0010
0100
1000
0010
0000
0000
,  // measure 48
0200
0000
0000
0010
0000
0300
0001
0100
0010
1000
0010
0100
,  // measure 49
0110
0000
0000
0000
0000
0000
0000
0000
0000
0000
0000
0000
0000
0000
0001
0100
,  // measure 50
0001
1001
0000
0000
,  // measure 51
0110
0000
0000
0000
0000
0000
0000
0000
0000
0000
0000
0000
0000
0000
1000
0100
,  // measure 52
1000
0000
0000
1001
0000
0000
0001
0010
0100
1000
0100
0010
,  // measure 53
0002
0100
1000
0100
,  // measure 54
2003
0100
0001
0100
,  // measure 55
3002
0010
1000
0010
,  // measure 56
2003
0010
0001
0010
,  // measure 57
3001
0000
0010
0001
0100
0000
0010
1000
,  // measure 58
0100
0000
0001
0100
1000
0000
0010
1000
,  // measure 59
0100
0000
0010
0001
1000
0000
0100
0010
,  // measure 60
0100
0000
1000
0010
0001
0000
0010
1000
,  // measure 61
1200
0001
0010
1000
,  // measure 62
0001
0010
0010
1300
,  // measure 63
0021
0000
0100
0000
1000
0000
0031
1000
,  // measure 64
0001
0100
0220
0330
,  // measure 65
0011
0100
1000
0100
0100
0001
0010
0010
,  // measure 66
0100
0001
1000
0100
0001
0001
1000
0010
,  // measure 67
0100
0001
0010
1000
0010
0001
0100
0010
,  // measure 68
0010
1000
0010
0001
0100
0010
1000
0000
,  // measure 69
1010
0100
0001
1000
0010
0001
1000
0100
,  // measure 70
0001
0010
0001
0100
1000
0100
0010
0001
,  // measure 71
0010
1000
0100
0100
1000
0001
0010
1000
,  // measure 72
0100
0001
0001
1000
0010
0100
0001
0010
,  // measure 73
0110
1000
0100
0001
0100
1000
0010
0000
,  // measure 74
0110
0001
0100
1000
0100
0001
0010
0000
,  // measure 75
0101
0001
1000
0100
0010
0001
0100
0010
,  // measure 76
1010
1000
0100
0001
1000
0010
0001
0000
,  // measure 77
1100
1000
0010
0100
0001
0010
0100
1000
,  // measure 78
0001
0000
1000
0100
1000
0000
0001
0100
0001
0000
1000
0001
1000
0001
1000
0001
,  // measure 79
2000
0000
3200
0000
,  // measure 80
0320
0000
0032
0000
,  // measure 81
2000
0000
0000
0000
,  // measure 82
0000
0000
0000
0000
,  // measure 83
0000
0000
0000
3003
;

//---------------dance-single - NewbStepper-DSP----------------
#NOTES:
     dance-single:
     NewbStepper:
     Medium:
     10:
     0.363158,0.461396,0.228239,0.385645,0,323,294,29,49,0,0,0.363158,0.461396,0.228239,0.385645,0,323,294,29,49,0,0:
0000
0000
0000
0000
,
0000
0000
0000
0000
,
0000
0000
0000
0000
,
0000
0000
0000
0000
,
0000
0000
0000
0000
0000
0000
0000
0001
,
2002
0000
0000
0000
,
0000
0000
0000
0000
,
0000
0000
0000
0000
,
0000
0000
3003
0000
,
0010
0100
1000
0000
0001
0000
0100
0000
,
0020
0000
0030
0000
1000
0001
1000
0000
,
0010
0100
0001
0000
1000
0000
0100
0000
,
0020
0000
0030
0000
0001
0100
0010
0000
,
1000
0000
0100
0001
,
0200
0000
0000
2300
0000
0000
3001
0000
,
0200
0000
0302
0000
,
0023
0000
2030
0000
,
3010
0001
0100
0000
0020
0000
0000
0000
,
2030
0000
3001
0100
,
0010
1000
0100
0000
0020
0000
0000
0000
,
0032
0000
1003
0010
,
1001
0000
0000
0000
0001
0100
0010
0000
,
2000
0000
0000
3200
0000
0000
0310
0000
,
0001
0100
0001
0100
0001
0100
0001
0000
,
1000
0100
0010
0001
,
1000
0000
1010
0000
0100
0010
0100
0000
,
0001
0000
0011
0000
0100
0010
0100
0000
,
1000
0000
1100
0000
0010
0001
0010
0000
,
0001
0000
0101
0000
0010
1000
0010
0000
,
1000
0100
1000
0000
0001
0000
0100
0000
,
0001
0100
0001
0000
1000
0000
0100
0000
,
0001
0100
1000
0000
0010
0000
0100
0000
,
0001
0010
1010
0011
,
0001
0100
0001
0100
0010
0000
1000
0000
,
0100
0001
0100
1000
,
0010
0100
0001
0010
1000
0000
0001
0000
,
0100
0000
1000
0010
0000
0100
0001
0000
,
0020
0000
0000
0030
,
0001
0100
0010
1000
,
1100
0010
0101
0010
,
1000
0001
1000
0001
1000
0001
0010
0000
,
0100
0100
0000
0000
1000
1000
0000
0000
,
0010
0010
0000
0000
0001
0001
0000
0000
,
0100
0100
0000
0000
1000
1000
0000
0000
,
0010
0010
0000
0000
0001
0001
0000
0000
,
0200
0000
2000
0000
,
0000
0000
3300
0000
,
1001
0000
0020
0000
,
0002
0000
0033
0000
,
0110
0000
0000
0000
0000
0000
0000
1000
,
1100
0110
0000
0000
,
1001
0000
0000
0000
0000
0000
0000
0001
,
0101
0000
1001
0000
0010
0100
0010
0100
,
0020
1000
2030
0100
,
3200
0001
0302
0010
,
0023
1000
2030
0100
,
3200
0001
0302
0013
,
1001
0000
1000
0100
1000
0000
0001
0000
,
0010
0000
0001
0100
0001
0000
1000
0000
,
0010
0000
1000
0001
1000
0000
0100
0000
,
0010
0000
0001
1000
0001
0000
0100
0000
,
2010
3200
0320
0032
,
0203
0320
2030
3002
,
0003
0200
0320
2030
,
3200
0320
0032
2003
,
3001
0000
0011
0000
0100
1000
0001
0100
,
0020
1000
0001
1030
,
1100
0010
0001
0100
,
1000
0100
0001
0000
0010
0001
0100
0000
,
0101
0010
1000
0100
,
0001
0100
1000
0000
0010
1000
0100
0000
,
1100
0010
0101
0010
,
0110
0000
0100
0000
1001
0000
1000
0100
,
0020
0001
0100
0031
,
0101
0000
0010
0001
0100
1000
0100
0000
,
0020
1000
0100
1030
,
1100
0000
0010
1000
0100
0001
0100
0000
,
0010
0000
0001
0000
0100
0010
0100
0010
,
1000
0001
1000
0001
0010
0000
0100
0000
,
2002
0000
0000
0000
,
0000
0000
0000
0000
,
0000
0000
0000
0000
,
0000
0000
0000
0000
,
0000
0000
0000
3003
;

//---------------dance-single - NewbStepper-BSP----------------
#NOTES:
     dance-single:
     NewbStepper:
     Easy:
     5:
     0.205752,0.310877,0.173147,0.283331,0,183,161,22,36,0,0,0.205752,0.310877,0.173147,0.283331,0,183,161,22,36,0,0:
0000
0000
0000
0000
,
0000
0000
0000
0000
,
0000
0000
0000
0000
,
0000
0000
0000
0000
,
0000
0000
0000
0000
,
2002
0000
0000
0000
,
0000
0000
0000
0000
,
0000
0000
0000
0000
,
0000
0000
3003
0000
,
0001
0000
0010
0001
,
0100
0000
0001
0000
,
1000
0000
0010
1000
,
0100
0000
1000
0000
,
0001
0000
0010
0001
,
0100
0000
0010
1000
,
0200
0300
0020
0030
,
0002
0003
0200
0300
,
0010
0000
1000
0001
,
0100
0000
0001
0000
,
1000
0000
0001
1000
,
0100
0000
1000
0000
,
0001
0000
1000
0001
,
0010
0000
0100
1000
,
0002
0000
0000
0003
,
0000
1000
1000
1000
,
0002
0000
0000
0003
,
0100
0000
0010
0100
,
0020
0000
0000
0030
,
1000
0000
0100
0100
,
2000
0000
0000
3000
,
0020
0030
0200
0300
,
0001
0010
1000
0010
,
0002
0000
0003
0000
,
2000
0000
0000
3000
,
0020
0030
0200
0300
,
0002
0003
0020
0030
,
2000
3000
0002
0003
,
0200
0300
0020
0030
,
0001
1000
0001
1000
,
1001
0000
0110
0000
,
1001
0000
0110
0000
,
1100
0000
1100
0000
,
0110
0000
0110
0000
,
0011
0000
0011
0000
,
0110
0000
0110
0000
,
1000
0000
0000
0000
,
0000
0000
0000
0000
,
0001
0000
0000
0000
,
0000
0000
0000
0000
,
1001
0000
0000
0000
,
0110
0110
0000
0000
,
1001
0000
0000
0000
,
0110
0110
2002
3003
,
0100
0000
0100
0000
,
0010
0000
0010
0000
,
1000
0000
1000
0000
,
0001
0000
0001
0000
,
0010
0001
0010
0000
,
0001
0100
0001
0000
,
0100
0010
0100
0000
,
0010
1000
0010
0000
,
2000
3000
0200
0300
,
0020
0030
0002
0003
,
0002
0003
0200
0300
,
0020
0030
2000
3000
,
0001
0001
0100
0010
,
1000
1000
0100
0001
,
0100
1000
0010
0100
,
0001
0000
1000
0000
,
1001
0000
1000
1000
,
0001
0100
0010
1000
,
0100
0010
0001
0100
,
0010
1000
0100
0010
,
0002
0000
0003
0000
,
2000
0000
3000
0000
,
0020
0000
0030
0000
,
0200
0000
0300
0000
,
0001
0010
0100
1000
,
0001
0010
0100
1000
,
1001
0000
0000
0000
;

//---------------dance-single - NewbStepper-bSP----------------
#NOTES:
     dance-single:
     NewbStepper:
     Beginner:
     2:
     0.095568,0.155438,0.023611,0.062962,0,85,82,3,8,0,0,0.095568,0.155438,0.023611,0.062962,0,85,82,3,8,0,0:
0000
0000
0000
0000
,
0000
0000
0000
0000
,
0000
0000
0000
0000
,
0000
0000
0000
0000
,
0000
0000
0000
0000
,
2000
0000
0000
0000
,
0000
0000
0000
0000
,
0000
0000
0000
0000
,
0000
0000
3000
0000
,
0000
0000
0001
0000
,
0001
0000
0000
0000
,
0000
0000
1000
0000
,
1000
0000
0000
0000
,
0000
0000
0010
0000
,
0010
0000
0000
0000
,
0100
0000
0100
0000
,
0100
0000
0100
0000
,
0000
0000
2000
0000
,
3000
0000
0000
0000
,
0000
0000
0002
0000
,
0003
0000
0000
0000
,
0000
0000
0200
0000
,
0300
0000
0000
0000
,
0020
0000
0000
0030
,
0000
0000
0000
0000
,
1000
0000
1000
0000
,
1000
0000
0000
0000
,
0001
0000
0001
0000
,
0001
0000
0000
0000
,
0010
0000
0000
0000
,
0100
0000
0100
0000
,
1000
0000
0001
0000
,
0100
0000
0000
0000
,
0001
0000
0001
0000
,
0001
0000
0000
0000
,
1000
0000
1000
0000
,
1000
0000
0000
0000
,
0200
0000
0300
0000
,
0010
0000
0000
0000
,
0001
0000
0001
0000
,
2000
0000
3000
0000
,
0001
0000
0001
0000
,
0100
0000
0100
0000
,
0010
0000
0010
0000
,
1000
0000
1000
0000
,
0002
0000
0000
0000
,
0000
0000
0000
0003
,
0000
0000
0000
0000
,
0000
0000
0000
0000
,
1001
0000
0000
0000
,
0000
0000
0000
0000
,
1001
0000
0000
0000
,
0000
0000
0000
0000
,
1000
0000
1000
0000
,
1000
0000
0000
0000
,
0100
0000
0100
0000
,
0100
0000
0000
0000
,
0010
0000
0010
0000
,
0010
0000
0000
0000
,
0001
0000
0001
0000
,
0001
0000
0000
0000
,
1001
0000
0000
0000
,
0000
0000
0000
0000
,
0000
0000
0000
0000
,
0000
0000
0000
0000
,
0010
0000
0001
0000
,
0001
0000
0000
0000
,
0100
0000
1000
0000
,
1000
0000
0000
0000
,
0010
0000
0001
0000
,
0001
0000
0000
0000
,
0100
0000
1000
0000
,
1000
0000
1000
0000
,
0001
0000
0000
0000
,
0100
0000
0000
0000
,
0010
0000
0000
0000
,
1000
0000
0000
0000
,
0100
0000
0000
0000
,
0010
0000
0000
0000
,
0001
0000
0000
0000
;

//---------------dance-double - NewbStepper-EDP----------------
#NOTES:
     dance-double:
     NewbStepper:
     Hard:
     14:
     0.552045,0.758008,0.243979,0.149536,0.090508,491,460,31,19,0,0,0.552045,0.758008,0.243979,0.149536,0.090508,491,460,31,19,0,0:
00000000
00000000
00000000
00000000
,
00000000
00000000
00000000
00000000
,
00000000
00000000
00000000
00000000
,
00000000
00000000
00000000
00000000
,
00000000
00000000
00000000
00000000
00000000
00000000
00000000
00010000
,
00022000
00000000
00000000
00000000
,
00000000
00000000
00000000
00000000
,
00000000
00000000
00000000
00000000
,
00000000
00000000
00033000
00000000
,
00100000
00000000
01010000
00000000
00100000
10000000
01000000
00010000
,
00001000
00000000
00000010
00000000
00000001
00000100
00001000
00000100
,
00000010
00000000
00000101
00000000
00000010
00000001
00000100
00001000
,
00010000
00000000
00100000
00000000
10000000
01000000
00010000
01000000
,
00100000
00000000
00001000
00000000
00010000
00001000
00000100
00000000
,
00000001
00000000
00000010
00000000
00001000
00010000
00000100
00000000
,
00001000
00010000
00100000
00000000
00001000
00010000
01000000
00000000
,
00100000
00100000
10000000
01000000
00100000
00010000
01000000
00000000
,
00100000
10000000
01000000
00000000
00020000
00001000
00031000
00000000
,
00000100
00001000
00001000
00000010
00000100
00000001
00000010
00001000
,
00000010
00000001
00000100
00000000
00002000
00010000
00013000
00000000
,
00001000
00010000
00010000
00100000
01000000
10000000
00100000
00010000
,
00100000
10000000
01000000
00000000
00010000
00000000
00001000
00000000
,
00000010
00000000
00000001
00000100
00000000
00000100
00001000
00000000
,
00000010
00010000
00001000
00001000
00000100
00000010
00000001
00000100
,
00001000
00010000
01000000
10000000
00100000
00100000
01000000
00000000
,
10000000
00010000
01000000
01000000
00010000
00001000
00000100
00000010
,
00000100
00000001
00000010
00000010
00001000
00000100
00000010
00000000
,
00000001
00000100
00001000
00000100
00000010
00001000
00010000
00100000
,
00010000
10000000
00100000
01000000
01000000
10000000
00100000
00000000
,
10000000
01000000
00010000
00001000
00100000
00010000
00010000
00001000
,
00000100
00000010
00000001
00000001
00000010
00001000
00010000
00001000
,
00000100
00000100
00001000
00000010
00000100
00000001
00000010
00001000
,
00010000
00100000
10000000
01000000
01000000
00010000
00100000
00000000
,
00001000
00010000
00010000
00100000
00001000
00010000
00010000
01000000
,
00010000
00001000
00000100
00000010
00000001
00000010
00001000
00000010
,
00000100
00010000
00001000
00000100
00000100
00001000
00010000
00100000
,
01000000
10000000
01000000
00100000
00100000
10000000
01000000
00010000
,
00001000
00000010
00000001
00000010
00000010
00001000
00000100
00000000
,
00010000
00001000
00001000
00000010
00010000
00001000
00001000
00000100
,
00001000
00010000
01000000
00100000
10000000
01000000
00010000
00001000
,
00010000
00100000
00001000
00000100
00000010
00000001
00000100
00000000
,
00001010
00001010
00000000
00000000
00001001
00001001
00000000
00000000
,
00001100
00001100
00000000
00000000
00011000
00011000
00000000
00000000
,
00110000
00110000
00000000
00000000
10010000
10010000
00000000
00000000
,
01010000
01010000
00000000
00000000
00011000
00011000
00000000
00000000
,
00000020
00000000
00000000
00000001
00000000
00000030
00000100
00001000
00010000
00100000
00000000
00000000
,
02000000
00000000
00000000
10000000
00000000
03000000
00010000
01000000
00010000
00100000
00001000
00010000
,
02000000
00000000
00000000
00100000
00000000
03000000
00010000
00001000
00000100
00000001
00000000
00000000
,
00000020
00000000
00000000
00001000
00000000
00000030
00000001
00000010
00001000
00010000
00001000
00000010
,
00000110
00000000
00000000
00000000
00000000
00000000
00000000
00000000
00000000
00000000
00000000
00000000
00000000
00000000
00001000
00000100
,
00001000
00001001
00000000
00000000
,
00011000
00000000
00000000
00000000
00000000
00000000
00000000
00000000
00000000
00000000
00000000
00000000
00000000
00000000
00010000
01000000
,
00010000
00000000
00000000
10010000
00000000
00000000
00010000
00100000
01000000
10000000
01000000
00100000
,
00020000
01000000
10000000
00100000
,
00032000
00000100
00000001
00000010
,
00023000
01000000
10000000
00100000
,
00032000
00000100
00000001
00000010
,
00013000
00000000
00100000
00010000
01000000
00000000
00100000
10000000
,
01000000
00000000
00010000
00001000
00000100
00000000
00000010
00001000
,
00000100
00000000
00000010
00000001
00001000
00000000
00000100
00000010
,
00000100
00000000
00010000
00001000
00000010
00001000
00010000
00100000
,
00210000
01000000
10000000
01000000
,
00001000
01000000
00010000
00301000
,
00001020
00000100
00000001
00000100
,
00010000
00001000
00000100
00010030
,
00011000
00001000
00010000
01000000
00100000
00100000
00010000
00001000
,
00000010
00000001
00000100
00000100
00000010
00001000
00010000
00100000
,
10000000
01000000
01000000
00100000
10000000
00010000
00100000
01000000
,
00010000
00000010
00001000
00000100
00000010
00000001
00000010
00001000
,
00000010
00000001
00000100
00000010
00001000
00010000
00001000
00000010
,
00010000
00100000
00010000
00001000
00000010
00001000
00100000
00010000
,
00001000
00000100
00001000
00010000
01000000
10000000
01000000
00010000
,
00100000
00100000
00010000
00001000
00000100
00000100
00001000
00000010
,
00000110
00001000
00000100
00000001
00000100
00001000
00000010
00000000
,
00000110
00000001
00000100
00001000
00010000
00100000
10000000
00000000
,
01100000
00010000
01000000
10000000
01000000
00010000
00100000
00000000
,
01100000
10000000
01000000
00010000
00001000
00000010
00000001
00000000
,
00001001
00001000
00000100
00000010
00001000
00100000
00001000
00010000
,
00000010
00000000
00001000
00000010
00001000
00000000
00000100
00010000
00000100
00000000
00010000
00001000
00010000
00001000
00100000
00001000
,
00020000
00000000
02030000
00000000
,
23000000
00000000
30200000
00000000
,
00320000
00000000
00000000
00000000
,
00000000
00000000
00000000
00000000
,
00000000
00000000
00000000
00030000
;

//---------------dance-double - NewbStepper-DDP----------------
#NOTES:
     dance-double:
     NewbStepper:
     Medium:
     10:
     0.353039,0.494353,0.204628,0.369904,0,314,288,26,47,0,0,0.353039,0.494353,0.204628,0.369904,0,314,288,26,47,0,0:
00000000
00000000
00000000
00000000
,
00000000
00000000
00000000
00000000
,
00000000
00000000
00000000
00000000
,
00000000
00000000
00000000
00000000
,
00000000
00000000
00000000
00000000
00000000
00000000
00000000
00001000
,
00022000
00000000
00000000
00000000
,
00000000
00000000
00000000
00000000
,
00000000
00000000
00000000
00000000
,
00000000
00000000
00033000
00000000
,
00100000
01000000
10000000
00000000
00010000
00000000
01000000
00000000
,
00200000
00000000
00300000
00000000
10000000
00010000
10000000
00000000
,
00100000
01000000
00010000
00000000
00001000
00000000
00000100
00000000
,
00000020
00000000
00000030
00000000
00000001
00000100
00000010
00000000
,
00001000
00000000
00000001
00000100
,
00000002
00000000
00000000
00000023
00000000
00000000
00001030
00000000
,
00020000
00000000
02030000
00000000
,
23000000
00000000
30200000
00000000
,
01300000
00100000
00010000
00000000
00002000
00000000
00000000
00000000
,
00023000
00000000
00031000
00000010
,
00000100
00000010
00001000
00000000
00020000
00000000
00000000
00000000
,
00032000
00000000
00103000
00010000
,
10010000
00000000
00000000
00000000
10000000
01000000
00010000
00000000
,
00001000
00000010
00000001
00000100
,
00000010
00001000
00000010
00001000
00000010
00001000
00000010
00000000
,
00000000
00010000
00001000
00001000
,
00010000
00000000
00100000
00000000
10000000
00010000
10000000
00000000
,
00100000
01100000
00001000
00010000
,
00001000
00000000
00000010
00000000
00000001
00001000
00000001
00000000
,
00000010
00000110
00010000
00001000
,
00010000
00100000
00010000
00000000
00100000
00000000
10000000
00000000
,
10000000
01000000
00010000
00000000
00001000
00000100
00000001
00000000
,
00000010
00000001
00000100
00000100
,
00000010
00000000
00001001
00000000
,
00001000
00000100
00001000
00000100
00000010
00000000
00000001
00000000
,
00000100
00001000
00010000
01000000
,
10000000
00100000
10000000
00100000
01000000
00000000
00010000
00000000
,
00100000
00000000
01000000
00010000
00001000
00000000
00000010
00000000
,
00000002
00000000
00000000
00000003
,
00001000
00000100
00000010
00000001
,
00000101
00000010
00001100
00000010
,
00010000
00001000
00010000
00001000
00010000
00001000
00010000
00000000
,
00100000
00100000
00000000
00000000
10000000
10000000
00000000
00000000
,
01000000
01000000
00000000
00000000
00010000
00010000
00000000
00000000
,
00001000
00001000
00000000
00000000
00000010
00000010
00000000
00000000
,
00000001
00000001
00000000
00000000
00000100
00000100
00000000
00000000
,
00002000
00000000
00020000
00000000
,
00000000
00000000
00033000
00000000
,
00011000
00000000
00200000
00000000
,
20000000
00000000
30300000
00000000
,
10010000
00000000
00000000
00000000
00000000
00000000
00000000
10000000
,
11000000
01100000
00000000
00000000
,
00011000
00000000
00000000
00000000
00000000
00000000
00000000
00000001
,
00000101
00000000
00000110
00000000
00000010
00010000
00000010
00010000
,
00002000
00100000
00203000
00010000
,
00320000
01000000
02030000
00100000
,
03200000
10000000
20300000
01000000
,
32000000
00010000
03020000
00031000
,
00011000
00000000
00010000
00001000
00000100
00000000
00000001
00000000
,
00000010
00000000
00000001
00000100
00000001
00000000
00000010
00000000
,
00001000
00000000
00001000
00010000
01000000
00000000
10000000
00000000
,
00100000
00000000
10000000
01000000
10000000
00000000
00100000
00000000
,
20100000
32000000
03200000
00320000
,
00032000
00003200
00000320
00000032
,
00000003
00000200
00000320
00002030
,
00023000
02030000
03200000
20300000
,
30010000
00000000
00110000
00000000
01000000
00010000
00001000
00000000
,
00000020
00000001
00001000
00000031
,
00000101
00000010
00001000
00000100
,
00010000
00001000
00000100
00000000
00000010
00000000
00001000
00000000
,
00001010
00000000
00000100
00001000
00010000
00000000
00100000
00000000
,
10000000
01000000
00010000
00000000
00001000
00100000
00010000
00000000
,
01010000
00100000
11000000
00100000
,
01100000
00000000
00010000
00000000
00011000
00000000
00100000
00010000
,
00002000
00000100
00000001
00003010
,
00001001
00000000
00001000
00000100
00000001
00000100
00001000
00000000
,
00020000
01000000
10000000
00130000
,
10010000
00000000
00010000
01000000
10000000
01000000
00010000
00000000
,
00100000
00001000
00100000
00001000
00010000
00001000
00010000
00000000
,
00000100
00001000
00000010
00000100
,
00002002
00000000
00000000
00000000
,
00000000
00000000
00000000
00000000
,
00000000
00000000
00000000
00000000
,
00000000
00000000
00000000
00000000
,
00000000
00000000
00000000
00003003
;

//---------------dance-double - NewbStepper-BDP----------------
#NOTES:
     dance-double:
     NewbStepper:
     Easy:
     5:
     0.195633,0.310877,0.094444,0.283331,0,174,162,12,36,0,0,0.195633,0.310877,0.094444,0.283331,0,174,162,12,36,0,0:
00000000
00000000
00000000
00000000
,
00000000
00000000
00000000
00000000
,
00000000
00000000
00000000
00000000
,
00000000
00000000
00000000
00000000
,
00000000
00000000
00000000
00000000
,
00022000
00000000
00000000
00000000
,
00000000
00000000
00000000
00000000
,
00000000
00000000
00000000
00000000
,
00000000
00000000
00033000
00000000
,
00010000
00000000
00100000
10000000
,
01000000
00000000
00010000
00000000
,
00001000
00000000
00000010
00000001
,
00000100
00000000
00000001
00000000
,
00001000
00000000
00000010
00010000
,
00001000
00000000
00100000
00010000
,
20000000
30000000
02000000
03000000
,
00200000
00300000
00020000
00030000
,
00100000
00000000
00001000
00010000
,
00000100
00000000
00000001
00000000
,
00000100
00000000
00010000
00001000
,
01000000
00000000
10000000
00000000
,
01000000
00000000
00010000
00100000
,
01000000
00000000
00010000
00001000
,
00000200
00000000
00000000
00000300
,
00000000
00000001
00000001
00000001
,
00002000
00000000
00000000
00003000
,
00000100
00000000
00000010
00000100
,
00000020
00000000
00000000
00000030
,
00010000
00000000
00001000
00001000
,
00020000
00000000
00000000
00030000
,
00200000
00300000
02000000
03000000
,
00010000
00100000
10000000
00100000
,
00020000
00000000
00030000
00000000
,
20000000
00000000
00000000
30000000
,
00200000
00300000
02000000
03000000
,
00020000
00030000
00002000
00003000
,
00000200
00000300
00000020
00000030
,
00000002
00000003
00002000
00003000
,
00000001
00001000
00000001
00001000
,
00001001
00000000
00000010
00001000
,
00010000
00000000
00011000
00000000
,
01000000
00000000
10000000
00000000
,
00100000
00000000
00010000
00000000
,
00001000
00000000
00000100
00000000
,
00000001
00000000
00000010
00000000
,
00000100
00000000
00000000
00000000
,
00000000
00000000
00000000
00000000
,
01000000
00000000
00000000
00000000
,
00000000
00000000
00000000
00000000
,
10010000
00000000
00000000
00000000
,
00011000
00011000
00000000
00000000
,
00001001
00000000
00000000
00000000
,
00000110
00000110
00002002
00003003
,
00000100
00000000
00000100
00000000
,
00000001
00000000
00000001
00000000
,
00000010
00000000
00000010
00000000
,
00001000
00000000
00001000
00000000
,
00010000
00001000
00010000
00000000
,
01000000
00100000
01000000
00000000
,
10000000
01000000
10000000
00000000
,
00010000
01000000
00010000
00000000
,
20000000
30000000
02000000
03000000
,
00020000
00030000
00002000
00003000
,
00000200
00000300
00000002
00000003
,
00000020
00000030
00000200
00000300
,
00001000
00001000
00000100
00000010
,
00000001
00000001
00000100
00001000
,
00010000
01000000
10000000
00100000
,
01000000
00000000
00010000
00000000
,
10010000
00000000
00010000
00010000
,
01000000
00100000
10000000
10000000
,
01000000
00010000
00001000
00000100
,
00000001
00000010
00000100
00001000
,
00000002
00000000
00000003
00000000
,
00002000
00000000
00003000
00000000
,
00000020
00000000
00000030
00000000
,
00020000
00000000
00030000
00000000
,
00001000
00100000
00010000
00100000
,
00001000
00010000
00000010
00010000
,
00011000
00000000
00000000
00000000
;
