#TITLE:Annihilation;
#ARTIST:源屋;
#ARTISTTRANSLIT:Minamotoya;
#BANNER:Annihilation.png;
#BACKGROUND:Annihilation-bg.png;
#MUSIC:Annihilation.ogg;
#OFFSET:1.2444;
#SAMPLESTART:78.299;
#SAMPLELENGTH:15;
#BPMS:0=175;
#STOPS:64=1.029,221=1.029;

//---------------dance-single - NewbStepper-ESP----------------
#NOTES:
     dance-single:
     NewbStepper:
     Hard:
     16:
     0.773591,1.115318,0.399169,0.128035,0.900012,719,666,53,17,0,0,0.773591,1.115318,0.399169,0.128035,0.900012,719,666,53,17,0,0:
0000
0000
0000
0000
,
0000
0000
0000
0000
,
0000
0000
0000
0000
,
0000
0000
0000
0000
,
0000
0000
0000
0000
,
0000
0000
0000
0000
,
0000
0000
0000
0000
,
0000
0000
0000
0000
,
0000
0000
0000
0000
,
1001
1000
1000
1000
,
1000
1000
1000
1000
,
1001
0001
0001
0001
,
0001
0001
0001
0001
,
1000
1000
0100
0100
0010
0010
0001
0001
,
1000
1000
0010
0010
0100
0100
0001
0001
,
1000
0100
1000
0100
0010
0001
0010
0001
1000
0010
1000
0010
0100
0001
0100
0001
,
0020
0030
0000
0000
0000
0000
0000
0000
0000
0000
0000
0000
0000
0000
0000
0000
1001
0000
0000
0000
0000
0000
0000
0000
0000
0000
0000
0000
0000
0000
0000
0000
1000
0000
0000
0000
0000
0000
0000
0000
0100
0000
0000
0000
0000
0000
0000
0000
0010
0000
0000
0000
0000
0000
0000
0000
0000
0000
0000
0000
0001
0000
0000
0000
,
0000
0000
0100
0000
0000
0000
0100
0000
1000
0000
0100
0001
0100
0000
0000
0010
,
0000
0000
1000
0000
0001
0000
0100
0000
0010
0000
1000
0000
0100
0000
0000
0001
,
0000
0000
1000
0000
0010
0000
0001
0000
0100
0000
0010
2000
0001
0000
0000
0001
,
0000
0000
3001
0000
1001
0000
0000
0000
0001
0000
0100
0000
0010
0000
0000
1000
,
0000
0000
0100
0000
0000
0000
0100
0000
0001
0000
0100
1000
0100
0000
0000
0010
,
0000
0000
0001
0000
1000
0000
0100
0000
0010
0000
0001
0000
0100
0000
0000
0010
,
0000
1000
2020
0000
0000
0000
3030
0000
,
0110
0000
1001
0000
1000
0000
0100
0010
,
0001
0000
0100
1000
0001
0010
1000
0010
,
0100
0000
1000
0100
0001
0000
0010
0100
,
1000
0000
0000
0000
0010
0000
1000
0000
0001
0000
0002
0000
0100
0000
0000
0100
,
0000
0000
0103
0000
0010
0000
1000
0000
0100
0000
0001
0000
0100
0000
1000
0001
,
0000
0001
0010
0100
0010
0000
0001
0000
0100
0000
1000
0000
0100
0000
0001
1000
,
0000
1000
0010
0100
0001
0100
0001
0100
0010
1000
0010
1000
0001
0010
0001
0010
,
0100
1000
0100
2000
0002
0000
0000
0000
0000
0000
0000
0000
0000
0000
0000
0000
,
3003
0000
0000
0000
1000
0000
1010
0000
0000
0110
0000
0000
1010
0000
0000
0101
,
0000
0000
1001
0000
0000
0000
0101
0000
0000
1001
0000
0000
1010
0000
0000
0110
,
0000
0000
0101
0000
0001
0000
0011
0000
0000
0101
0000
0000
0011
0000
0000
1100
,
0000
0000
1001
0000
0000
0000
1100
0000
0000
1001
0000
0000
0011
0000
0000
0110
,
0000
0000
1100
0000
1000
0000
0200
0000
0000
0001
0000
0000
0001
0000
0000
0310
,
0000
0000
1001
0000
0001
0000
2000
0000
0000
0010
0000
0000
0010
0000
0000
3100
,
0000
0000
0110
0000
0001
0000
0200
0000
0000
1000
0000
0000
1000
0000
0000
0310
,
0000
0000
1001
0000
1000
0000
0002
0000
0000
0010
0000
0000
0010
0000
0000
0103
,
0000
0110
1001
0000
0010
1010
0000
1000
,
1100
0000
0000
0000
0001
0000
0000
0000
0011
0000
0000
1100
0000
0000
1000
0000
,
1001
0000
0001
0000
0010
0011
0000
0001
,
0101
0000
0000
0000
1000
0000
0000
0000
1010
0000
0000
0101
0000
0000
0001
0000
,
0010
0100
1000
0010
0001
0010
1000
0100
,
0010
0001
0010
0001
0010
0000
0100
0000
1000
0000
0100
0000
0001
0000
0100
0000
,
1000
0100
1000
0001
1000
0010
0100
0010
1000
0001
0010
0100
0010
0001
0100
0010
,
1000
0100
0010
0002
2000
0000
0000
0000
0000
0000
0000
0000
0000
0000
0000
0000
,
3003
1001
0000
0000
,
0000
0000
0000
0000
,
0000
1001
0000
0000
,
0000
0000
0000
0000
,
0000
0000
0000
0000
1000
0100
0010
0001
0000
0100
0000
0010
1000
0100
0010
0001
,
0000
0100
0000
0010
1000
0100
0010
0001
1000
0100
0010
0001
1000
0100
0010
0001
,
1000
0100
0010
0001
1000
0100
1000
0001
1000
0100
1000
0001
0100
0001
1000
0001
,
0100
0000
0000
0000
0010
0000
0000
0000
1000
0000
0000
0000
0100
0000
0000
0000
0020
0030
0000
0000
0000
0000
0000
0000
0000
0000
0000
0000
0000
0000
0000
0000
0001
0000
0000
0000
0000
0000
0000
0000
1000
0000
0000
0000
0010
0000
0000
0000
0000
0000
0000
0000
0100
0000
0000
0000
0000
0000
0000
0000
0001
0000
0000
0000
,
0000
0010
0000
1000
0000
0010
0001
0100
0010
1000
0010
0000
0100
0000
1000
0000
,
0100
0000
0001
0000
0010
0000
0100
0000
0010
0001
0010
0000
0100
0000
0001
0000
,
0100
0000
1000
0000
0010
0000
0100
0000
0001
1000
0001
0000
0100
0000
1000
0000
,
0001
0000
0010
0000
1000
0000
0100
0000
1000
0001
1000
0000
0100
0000
0001
0000
,
1000
0000
0010
0000
0001
0000
0000
0000
0010
0001
0010
0000
0100
0000
0001
0000
,
0100
0000
1000
0000
0010
0000
0100
0000
0010
1000
0010
0000
0100
0000
1000
0000
,
0100
0000
0001
0000
0010
0000
0100
0000
1000
0001
1000
0000
0100
0000
0001
0000
,
1000
0000
0010
0000
0001
0000
0100
0000
0001
1000
0001
0000
0100
0000
1000
0000
,
0001
0000
0010
0000
1000
0000
0000
0000
0001
0010
0100
0000
0001
0000
0100
0000
,
1000
0000
0001
0000
1000
0010
0100
0010
1000
0010
0100
0000
1000
0000
0100
0000
,
0001
0000
1000
0000
0001
0100
0010
0100
0001
0100
0010
0000
0001
0000
0010
0000
,
1000
0000
0001
0000
0010
0100
1000
0010
0100
0001
0010
0000
1000
0000
0010
0000
,
0001
0000
0010
0000
0110
0000
0000
0000
1000
0010
0100
0000
1000
0000
0100
0000
,
0001
0000
1000
0000
0001
0010
0100
0010
0001
0010
0100
0000
0001
0000
0100
0000
,
1000
0000
0001
0000
1000
0100
0010
0100
1000
0100
0010
0000
1000
0000
0010
0000
,
0001
0000
1000
0000
0010
0100
0001
0010
0200
0000
0000
0000
0000
0000
0000
0000
,
0000
0000
0000
0000
0300
0000
0000
0000
1000
0001
1000
0100
0000
0001
0000
0100
,
0000
1000
0100
0010
0000
0100
0010
0001
0100
0010
1000
0001
0000
0100
0000
0100
,
0000
1000
0100
0010
0000
0100
0001
0010
0100
1000
0010
0100
0000
1000
0000
0100
,
0000
0001
0100
0010
0000
0100
0010
1000
0100
0010
0001
1000
0000
0001
0000
0101
,
0000
0110
0000
1010
0000
1000
0010
0100
0001
1000
0001
0100
0000
1000
0000
0100
,
0000
0001
0100
0010
0000
0100
0010
1000
0100
0010
0001
1000
0000
0100
0000
0100
,
0000
0001
0100
0010
0000
0100
1000
0010
0100
0001
0010
0100
0000
0001
0000
0100
,
0000
1000
0100
0010
0000
0100
0010
0001
0100
0010
1000
0001
0000
0101
0000
1010
,
0000
1000
0001
0010
0000
0100
1000
0010
0100
0010
1000
0100
0000
0010
0001
1000
,
0000
0010
0100
0010
0000
0100
0001
0010
0100
0010
0001
0100
0000
0010
1000
0001
,
0000
0010
0100
0010
0000
0100
1000
0001
0100
0010
1000
0100
0000
0010
0001
1000
,
0000
1000
0001
0100
0000
0100
0001
1000
0100
0010
0001
0100
0000
0010
0000
1010
,
0000
1001
0000
0101
0000
0001
0010
0100
0010
0000
0001
0000
0100
0000
1000
0000
,
0100
0000
0001
1000
0000
1000
0010
0100
0010
0000
1000
0000
0100
0000
0001
0000
,
0100
0000
1000
0001
0000
0001
0010
0100
0010
0001
1000
0001
0010
0001
1000
0001
,
1000
0010
1000
0001
1000
0010
0100
0001
0010
0100
1000
0010
0100
0010
1000
0100
,
0010
0001
0100
0010
0100
0001
0010
0100
1000
0000
0000
0000
2002
0000
0000
0000
,
0000
0000
0000
3003
;

//---------------dance-single - NewbStepper-DSP----------------
#NOTES:
     dance-single:
     NewbStepper:
     Medium:
     12:
     0.502457,0.574558,0.120504,0.097909,0.030126,467,451,16,13,0,0,0.502457,0.574558,0.120504,0.097909,0.030126,467,451,16,13,0,0:
0000
0000
0000
0000
,
0000
0000
0000
0000
,
0000
0000
0000
0000
,
0000
0000
0000
0000
,
0000
0000
0000
0000
,
0000
0000
0000
0000
,
0000
0000
0000
0000
,
0000
0000
0000
0000
,
0000
0000
0000
0000
,
0001
0001
0001
0001
,
0001
0001
0001
0001
,
1000
1000
1000
1000
,
1000
1000
1000
1000
,
0010
1000
0010
1000
0010
1000
0010
1000
,
0001
0100
0001
0100
0001
0100
0001
0100
,
0010
1000
0100
0010
0001
0100
0010
1000
,
0002
0003
0000
0000
0000
0000
0000
0000
0000
0000
0000
0000
0000
0000
0000
0000
1000
0000
0000
0000
0000
0000
0000
0000
0000
0000
0000
0000
0000
0000
0000
0000
1010
0000
0000
0000
0000
0000
0000
0000
0000
0000
0000
0000
0000
0000
0000
0000
0001
0000
0000
0000
0000
0000
0000
0000
0000
0000
0000
0000
0100
0000
0000
0000
,
0000
0010
1000
0000
0001
0000
0100
0000
,
1001
0000
0000
0000
0010
0000
0000
0000
0101
0000
0000
0000
1000
0000
0000
0001
,
0000
0100
0020
0000
0001
0000
1030
0000
,
1001
0000
0000
0000
0001
0000
0000
0000
0011
0000
0000
0000
1000
0000
0000
0100
,
0000
0010
0001
0000
1000
0000
0100
0000
,
1001
0000
0000
0000
0010
0000
0000
0000
1100
0000
0000
0000
0001
0000
0000
1000
,
0000
0100
0020
0000
0000
0000
0030
0000
,
0110
0000
1001
0000
0100
0000
0001
0010
,
0100
0000
1000
0010
0100
0010
0001
0010
,
1000
0000
0001
0100
0001
0000
1000
0100
,
1000
0000
0010
1000
0001
1000
0100
0010
,
0010
0000
0001
0100
0001
0100
0001
0100
,
0001
0100
0010
1000
0010
1000
0010
1000
,
0010
1000
0001
0100
0010
1000
0100
0010
,
0001
0100
0020
0000
0000
0000
0000
0000
,
0030
0000
1000
0000
0001
0100
0000
1000
,
0100
0000
0000
0000
0001
0000
0000
0000
0010
0000
0000
0001
0000
0000
0100
0000
,
1000
0100
0001
0000
1000
0100
0000
0001
,
0100
0000
0000
0000
1000
0000
0000
0000
0010
0000
0000
1000
0000
0000
0100
0000
,
0001
0100
2000
0000
0010
0010
0000
0100
,
3100
0000
0000
0000
0002
0000
0000
0000
1000
0000
0000
0010
0000
0000
0013
0000
,
0001
0100
0002
0000
0010
0010
0000
0100
,
0103
0000
0000
0000
2000
0000
0000
0000
0001
0000
0000
0010
0000
0000
3010
0000
,
1000
0100
1000
0010
0001
0000
0010
0000
,
1000
0000
0001
0010
1000
0000
0010
0000
,
0001
0000
1000
0100
0001
0000
0100
0000
,
1000
0000
0001
0100
1000
0000
0100
0000
,
0001
0000
0010
0001
0010
0001
0010
0001
,
1000
0010
0100
0001
0100
0001
0100
0001
,
0100
0010
1000
0001
0100
0010
1000
0100
,
0010
0001
0200
0000
0000
0000
0000
0000
,
0000
0310
0000
0000
,
0000
0000
0000
0000
,
0000
1001
0000
0000
,
0000
0000
0000
0000
,
0000
0011
0000
1000
,
0000
1010
0011
0101
,
1100
0000
1000
0100
0001
0100
1000
0010
,
0001
0000
0000
0000
0000
0000
0000
0000
0010
0000
0000
0000
0000
0000
0000
0000
2000
3000
0000
0000
0000
0000
0000
0000
0000
0000
0000
0000
0000
0000
0000
0000
0000
0000
0000
0000
0000
0000
0000
0000
0000
0000
0000
0000
0000
0000
0000
0000
0000
0000
0000
0000
0000
0000
0000
0000
0000
0000
0000
0000
0000
0000
0000
0000
,
0000
0000
0000
0000
0001
0000
0100
1000
,
0100
0001
0010
0000
0100
0000
1000
0010
,
0100
0001
0010
0000
0100
0000
1000
0010
,
1000
0100
0010
0000
0001
0000
0100
0010
,
0001
0010
1000
0100
1000
0000
0100
0001
,
0100
1000
0010
0000
0100
0000
0001
0010
,
0100
1000
0010
0000
0100
0000
0001
0010
,
0001
0100
0010
0000
1000
0000
0100
0010
,
1000
0010
0001
0100
0001
0000
0010
0100
,
1000
0010
0100
0001
0010
0000
0100
1000
,
0001
0100
1000
0100
0001
0000
1000
0010
,
0100
0010
1000
0100
0010
0000
0001
0100
,
0010
1000
0001
0000
1000
0000
0010
0100
,
0001
0010
0100
1000
0010
0000
0100
0001
,
1000
0100
0001
0100
1000
0000
0001
0010
,
0100
0010
0001
0100
0020
0000
0000
0000
,
0000
0000
0030
0000
1000
0100
0010
0100
,
1000
0100
0010
0000
0001
0100
0010
0100
,
0001
0100
0010
0000
1000
0100
0001
0100
,
1000
0100
0010
0000
0001
0100
1000
0100
,
0001
0100
0010
0000
1000
0010
0100
0010
,
1000
0010
0100
0000
0001
0010
0100
0010
,
0001
0010
0100
0000
1000
0010
0001
0010
,
1000
0010
0100
0000
0001
0010
1000
0010
,
0001
0010
0100
0000
1000
0100
0010
0001
,
0100
0010
1000
0100
0010
0001
0100
1000
,
0100
0001
0010
0100
1000
0010
0100
0010
,
1000
0100
0001
0100
1000
0010
0100
1000
,
0001
0010
0100
0000
0001
1000
0010
0100
,
0001
0010
1000
0001
0100
1000
0010
0100
,
0001
1000
0100
0001
1000
0010
0001
0100
,
0010
1000
0100
0010
0001
0100
1000
0100
,
0001
0010
1000
0010
0001
0000
2002
0000
,
0000
0000
0000
3003
;

//---------------dance-single - NewbStepper-BSP----------------
#NOTES:
     dance-single:
     NewbStepper:
     Easy:
     9:
     0.411004,0.540760,0.278665,0.105441,0,382,345,37,14,0,0,0.411004,0.540760,0.278665,0.105441,0,382,345,37,14,0,0:
0000
0000
0000
0000
,
0000
0000
0000
0000
,
0000
0000
0000
0000
,
0000
0000
0000
0000
,
0000
0000
0000
0000
,
0000
0000
0000
0000
,
0000
0000
0000
0000
,
0000
0000
0000
0000
,
0000
0000
0000
0000
,
1000
1000
1000
1000
,
0001
0001
0001
0001
,
0100
0100
0100
0100
,
0010
0010
0010
0010
,
1100
0010
0001
0100
,
0101
0010
1000
0100
,
0110
1001
0110
1001
,
0220
0330
0000
0000
0000
0000
0000
0000
0000
0000
0000
0000
0000
0000
0000
0000
1000
0000
0000
0000
0000
0000
0000
0000
0000
0000
0000
0000
0000
0000
0000
0000
0001
0000
0000
0000
0000
0000
0000
0000
0000
0000
0000
0000
0000
0000
0000
0000
0100
0000
0000
0000
0000
0000
0000
0000
0010
0000
0000
0000
0000
0000
0000
0000
,
0100
0000
0001
0000
1000
0100
0010
0000
,
1001
0001
0010
1000
,
0100
0000
0001
0010
0001
0000
2000
0000
,
3000
0000
0001
0000
1000
0000
0100
0010
,
0100
0000
1000
0000
0001
0100
0010
0000
,
1001
1000
0010
0001
,
0100
0220
0000
0330
,
1001
0000
1000
0000
0100
0000
0010
0001
,
1000
0000
0001
0100
1000
0000
0100
0000
,
0001
0000
1000
0100
0010
0000
0001
0000
,
0100
0000
0001
0100
0010
0000
1000
0000
,
1001
0000
0001
0000
0100
0001
0100
0000
,
0010
0000
1000
0000
0100
1000
0100
0000
,
0010
0000
0001
1000
0001
1000
0001
1000
,
0002
0000
0000
0003
,
0000
0000
0010
0000
0000
1000
0000
1000
,
0100
0000
0010
0000
0000
0001
0000
0001
,
0100
0000
0010
0000
0000
1000
0000
1000
,
0001
0000
0010
0000
0000
0001
0000
0001
,
1000
0000
0010
0000
0100
0100
0000
0001
,
0001
0000
0010
0000
0100
0100
0000
1000
,
1000
0000
0001
0000
1000
1000
0000
0010
,
0010
0000
1000
0000
0001
0001
0000
0010
,
0010
0110
0001
0100
,
0010
0110
1000
0100
,
0010
0110
0001
0100
,
0010
0110
1000
0100
,
0010
0000
0001
0000
1000
0100
0000
0100
,
0010
0100
1000
0000
0001
0100
0000
0100
,
0010
0100
0001
0000
1000
0010
0000
0010
,
0100
0010
0200
0000
0000
0000
0000
0000
,
0300
1001
0000
0000
,
0000
0000
0000
0000
,
0000
1001
0000
0000
,
0000
0000
0000
0000
,
0000
1001
0000
0000
,
0000
1001
0000
1001
,
1001
0110
1001
0110
,
1001
0000
0000
0000
0000
0000
0000
0000
0000
0000
0000
0000
0000
0000
0000
0000
0220
0330
0000
0000
0000
0000
0000
0000
0000
0000
0000
0000
0000
0000
0000
0000
0000
0000
0000
0000
0000
0000
0000
0000
0000
0000
0000
0000
0000
0000
0000
0000
0000
0000
0000
0000
0000
0000
0000
0000
0000
0000
0000
0000
0000
0000
0000
0000
,
0000
0000
0000
0000
1000
0100
1000
0000
,
0010
0000
0010
0000
0001
0100
0001
0000
,
0010
0000
0010
0000
1000
0010
1000
0000
,
0100
0000
0100
0000
0001
0010
0001
0000
,
0100
0000
0100
0000
1000
0001
0010
0000
,
0100
0000
0100
0000
0001
1000
0010
0000
,
0100
0000
0100
0000
1000
0001
0100
0000
,
0010
0000
0010
0000
0001
1000
0010
0100
,
0001
0000
1001
0000
1000
0010
1000
0010
,
1000
0000
0100
0000
0010
0001
0010
0001
,
0010
0000
0100
0000
1000
0001
1000
0001
,
1000
0100
0001
0010
,
1000
0000
1001
0000
0001
0010
0001
0010
,
0001
0000
0100
0000
0010
1000
0010
1000
,
0010
0000
0100
0000
0001
1000
0001
1000
,
0001
0100
2002
0000
,
0000
3003
1000
0100
,
0001
0100
1000
0010
,
0001
0010
1000
0100
,
0001
0010
1000
1001
,
0110
1001
0001
0100
,
1000
0100
0001
0010
,
1000
0010
0001
0100
,
1000
0010
0001
1001
,
0110
0000
1001
0000
1000
0100
0010
0100
,
1000
0000
0001
0000
0001
0100
0010
0100
,
0001
0000
1000
0000
1000
0010
0100
0010
,
1000
0000
0001
0000
0001
0010
0100
0010
,
0001
0000
1000
0000
0001
0100
0001
0100
,
0001
0100
0001
0000
1000
0100
1000
0100
,
1000
0100
1000
0000
0010
0100
0010
0100
,
0010
1000
0001
1000
0002
0000
0000
0000
,
0000
0000
1003
2002
,
0000
0000
0000
3003
;

//---------------dance-single - NewbStepper-bSP----------------
#NOTES:
     dance-single:
     NewbStepper:
     Beginner:
     3:
     0.138794,0.270380,0.037657,0.030126,0,129,124,5,4,0,0,0.138794,0.270380,0.037657,0.030126,0,129,124,5,4,0,0:
// measure 0
0000
0000
0000
0000
,  // measure 1
0000
0000
0000
0000
,  // measure 2
0000
0000
0000
0000
,  // measure 3
0000
0000
0000
0000
,  // measure 4
0000
0000
0000
0000
,  // measure 5
0000
0000
0000
0000
,  // measure 6
0000
0000
0000
0000
,  // measure 7
0000
0000
0000
0000
,  // measure 8
0000
0000
0000
0000
,  // measure 9
1000
0000
0000
0000
,  // measure 10
1000
0000
0000
0000
,  // measure 11
0001
0000
0000
0000
,  // measure 12
0001
0000
0000
0000
,  // measure 13
0001
0001
0001
0000
,  // measure 14
1000
1000
1000
0000
,  // measure 15
0010
0010
0010
0000
,  // measure 16
1001
0000
0000
0000
,  // measure 17
0000
1000
1000
0000
,  // measure 18
0000
0010
0010
0000
,  // measure 19
0000
0002
0000
0003
,  // measure 20
0000
0100
0100
0000
,  // measure 21
0000
0001
0001
0000
,  // measure 22
0000
0010
0010
0000
,  // measure 23
0000
2000
0000
3000
,  // measure 24
0000
0001
0000
0000
,  // measure 25
0000
1000
0000
0000
,  // measure 26
0000
0010
0000
0000
,  // measure 27
0000
1000
0000
0000
,  // measure 28
0000
0001
0000
0000
,  // measure 29
0000
0010
0000
0000
,  // measure 30
0000
0001
0000
0000
,  // measure 31
0000
1000
0000
0000
,  // measure 32
0000
0001
0000
0000
,  // measure 33
0000
0001
0000
0000
,  // measure 34
0000
0001
0000
0000
,  // measure 35
0000
0000
0000
0000
,  // measure 36
0000
1000
0000
0000
,  // measure 37
0000
1000
0000
0000
,  // measure 38
0000
1000
0000
0000
,  // measure 39
0000
0000
0000
0000
,  // measure 40
0000
0010
0000
0000
,  // measure 41
0000
0010
0000
0000
,  // measure 42
0000
0010
0000
0000
,  // measure 43
0000
0010
0000
0000
,  // measure 44
0000
0100
0000
0000
,  // measure 45
0000
0100
0000
0000
,  // measure 46
0000
0100
0000
0000
,  // measure 47
0000
0100
0000
0000
,  // measure 48
0000
1001
0000
0000
,  // measure 49
0000
0000
0000
0000
,  // measure 50
0000
0000
0000
0000
,  // measure 51
0000
0000
0000
0000
,  // measure 52
0000
0000
0000
0000
,  // measure 53
0000
0000
0000
0000
,  // measure 54
0000
1000
0000
0001
,  // measure 55
0000
1001
0000
0000
,  // measure 56
0000
0000
0010
0010
,  // measure 57
0000
0000
1000
1000
,  // measure 58
0000
0000
0001
0001
,  // measure 59
0000
0000
0010
0010
,  // measure 60
0000
0000
0100
0100
,  // measure 61
0000
0000
0001
0001
,  // measure 62
0000
0000
1000
1000
,  // measure 63
0000
0000
0100
0100
,  // measure 64
0000
0000
1000
1000
,  // measure 65
0000
0000
0001
0001
,  // measure 66
0000
0000
0100
0100
,  // measure 67
0000
0000
0010
0010
,  // measure 68
0000
0000
1000
0000
,  // measure 69
0001
0000
1000
0000
,  // measure 70
0010
0000
0100
0000
,  // measure 71
0010
0000
0100
0000
,  // measure 72
0001
0000
0010
0000
,  // measure 73
0001
0000
0010
0000
,  // measure 74
0001
0000
1000
0000
,  // measure 75
0010
0000
1000
0000
,  // measure 76
0001
0000
0010
0010
,  // measure 77
0010
0000
0100
0100
,  // measure 78
0100
0000
1000
1000
,  // measure 79
1000
0000
0001
0001
,  // measure 80
0001
0000
0100
0100
,  // measure 81
0100
0000
0010
0010
,  // measure 82
0010
0000
1000
1000
,  // measure 83
1000
0000
0001
0001
,  // measure 84
0001
0000
1000
0000
,  // measure 85
0100
0000
0001
0000
,  // measure 86
1000
0000
0010
0000
,  // measure 87
0001
0000
0110
0000
,  // measure 88
0000
0000
0000
2002
,  // measure 89
0000
0000
0000
3003
;

//---------------dance-double - NewbStepper-BDP----------------
#NOTES:
     dance-double:
     NewbStepper:
     Easy:
     9:
     0.406700,0.540760,0.256070,0.105441,0,378,344,34,14,0,0,0.406700,0.540760,0.256070,0.105441,0,378,344,34,14,0,0:
00000000
00000000
00000000
00000000
,
00000000
00000000
00000000
00000000
,
00000000
00000000
00000000
00000000
,
00000000
00000000
00000000
00000000
,
00000000
00000000
00000000
00000000
,
00000000
00000000
00000000
00000000
,
00000000
00000000
00000000
00000000
,
00000000
00000000
00000000
00000000
,
00000000
00000000
00000000
00000000
,
10000000
10000000
10000000
10000000
,
00010000
00010000
00010000
00010000
,
01000000
01000000
01000000
01000000
,
00001000
00001000
00001000
00001000
,
00010100
00000010
00000001
00000100
,
00001010
00010000
00001000
00100000
,
01100000
10010000
01100000
10010000
,
02200000
03300000
00000000
00000000
00000000
00000000
00000000
00000000
00000000
00000000
00000000
00000000
00000000
00000000
00000000
00000000
10000000
00000000
00000000
00000000
00000000
00000000
00000000
00000000
00000000
00000000
00000000
00000000
00000000
00000000
00000000
00000000
00010000
00000000
00000000
00000000
00000000
00000000
00000000
00000000
00000000
00000000
00000000
00000000
00000000
00000000
00000000
00000000
01000000
00000000
00000000
00000000
00000000
00000000
00000000
00000000
00100000
00000000
00000000
00000000
00000000
00000000
00000000
00000000
,
01000000
00000000
00001000
00000000
00010000
00001000
00010000
00000000
,
00011000
00001000
00100000
01000000
,
00010000
00000000
00001000
00010000
00000100
00000000
00000020
00000000
,
00000030
00000000
00000001
00000000
00001000
00000000
00000100
00000010
,
00000100
00000000
00010000
00000000
00001000
00010000
00001000
00000000
,
00011000
00010000
00000010
00000100
,
00010000
00022000
00000000
00033000
,
00011000
00000000
00001000
00000000
00010000
00000000
00100000
10000000
,
00010000
00000000
10000000
01000000
00010000
00000000
00001000
00000000
,
00000100
00000000
00000001
00000010
00000100
00000000
00001000
00000000
,
00000100
00000000
00010000
00001000
00100000
00000000
00010000
00000000
,
10010000
00000000
10000000
00000000
01000000
10000000
01000000
00000000
,
00100000
00000000
00001000
00000000
00010000
00001000
00010000
00000000
,
00000010
00000000
00001000
00000001
00001000
00000001
00001000
00000001
,
00002000
00000000
00000000
00003000
,
00000000
00000000
00000010
00000000
00000000
00010000
00000000
00010000
,
00001000
00000000
00100000
00000000
00000000
00001000
00000000
00001000
,
00010000
00000000
01000000
00000000
00000000
10000000
00000000
10000000
,
00010000
00000000
00100000
00000000
00000000
00001000
00000000
00001000
,
00010000
00000000
00001000
00000000
00000010
00000010
00000000
00000001
,
00000001
00000000
00000100
00000000
00001000
00001000
00000000
00010000
,
00010000
00000000
00100000
00000000
10000000
10000000
00000000
00010000
,
00010000
10010000
10000000
01000000
,
00010000
00011000
00001000
00000100
,
00000010
00000110
00000001
00000100
,
00001000
00011000
00010000
01000000
,
00100000
01100000
10000000
01000000
,
00010000
00000000
00001000
00000000
00000100
00000010
00000000
00000010
,
00000100
00000010
00010000
00000000
01000000
00100000
00000000
00100000
,
01000000
00100000
00001000
00000000
00010000
00001000
00000000
00010000
,
00001000
00010000
00002000
00000000
00000000
00000000
00000000
00000000
,
00003000
00011000
00000000
00000000
,
00000000
00000000
00000000
00000000
,
00000000
00011000
00000000
00000000
,
00000000
00000000
00000000
00000000
,
00000000
00011000
00000000
00000000
,
00000000
00011000
00000000
00011000
,
00011000
00101000
00011000
00010010
,
00011000
00000000
00000000
00000000
00000000
00000000
00000000
00000000
00000000
00000000
00000000
00000000
00000000
00000000
00000000
00000000
00022000
00033000
00000000
00000000
00000000
00000000
00000000
00000000
00000000
00000000
00000000
00000000
00000000
00000000
00000000
00000000
00000000
00000000
00000000
00000000
00000000
00000000
00000000
00000000
00000000
00000000
00000000
00000000
00000000
00000000
00000000
00000000
00000000
00000000
00000000
00000000
00000000
00000000
00000000
00000000
00000000
00000000
00000000
00000000
00000000
00000000
00000000
00000000
,
00000000
00000000
00000000
00000000
10000000
01000000
10000000
00000000
,
00100000
00000000
00100000
00000000
00010000
00001000
00010000
00000000
,
00000010
00000000
00000010
00000000
00001000
00000100
00001000
00000000
,
00000100
00000000
00000100
00000000
00000010
00000001
00000010
00000000
,
00000001
00000000
00001000
00000000
00000001
00000100
00000001
00000000
,
00000010
00000000
00000010
00000000
00001000
00010000
00001000
00000000
,
00100000
00000000
00100000
00000000
00010000
01000000
00010000
00000000
,
01000000
00000000
01000000
00000000
00100000
10000000
00100000
10000000
,
00010000
00000000
10010000
00000000
10000000
00100000
10000000
00100000
,
10000000
00000000
01000000
00000000
00100000
00001000
00100000
00001000
,
00100000
00000000
00001000
00000000
00010000
00000100
00010000
00000100
,
00010000
00001000
00000100
00000001
,
00001000
00000000
00001001
00000000
00000001
00000010
00000001
00000010
,
00000001
00000000
00000100
00000000
00000010
00010000
00000010
00010000
,
00000010
00000000
00010000
00000000
00001000
01000000
00001000
01000000
,
00001000
00010000
00022000
00000000
,
00000000
00033000
00001000
00010000
,
01000000
10000000
00100000
00010000
,
00100000
10000000
01000000
00010000
,
00001000
00000100
00000001
00000010
,
00001000
00011000
00010000
00001000
,
00000100
00000001
00000010
00001000
,
00000010
00000001
00000100
00001000
,
00010000
01000000
10000000
00100000
,
00010000
00000000
00011000
00000000
00001000
00100000
00010000
00100000
,
00001000
00000000
00010000
00000000
00010000
00000010
00001000
00000010
,
00010000
00000000
00001000
00000000
00000100
00000001
00001000
00000001
,
00000100
00000000
00000010
00000000
00010000
00001000
00100000
00001000
,
00010000
00000000
00100000
00000000
10000000
01000000
10000000
01000000
,
10000000
01000000
10000000
00000000
00010000
01000000
00010000
01000000
,
00010000
01000000
00010000
00000000
00100000
00001000
00100000
00001000
,
00010000
00000100
00010000
00000100
00002000
00000000
00000000
00000000
,
00000000
00000000
00003001
00002002
,
00000000
00000000
00000000
00003003
;

//---------------dance-double - NewbStepper-DDP----------------
#NOTES:
     dance-double:
     NewbStepper:
     Medium:
     12:
     0.502457,0.574558,0.143098,0.067783,0.030126,467,448,19,9,0,0,0.502457,0.574558,0.143098,0.067783,0.030126,467,448,19,9,0,0:
00000000
00000000
00000000
00000000
,
00000000
00000000
00000000
00000000
,
00000000
00000000
00000000
00000000
,
00000000
00000000
00000000
00000000
,
00000000
00000000
00000000
00000000
,
00000000
00000000
00000000
00000000
,
00000000
00000000
00000000
00000000
,
00000000
00000000
00000000
00000000
,
00000000
00000000
00000000
00000000
,
00000001
00000001
00000001
00000001
,
00000001
00000001
00000001
00000001
,
00001000
00001000
00001000
00001000
,
00001000
00001000
00001000
00001000
,
00000010
00010000
00000010
00010000
00000010
00010000
00000010
00010000
,
00001000
01000000
00001000
01000000
00001000
01000000
00001000
01000000
,
00100000
10000000
01000000
00100000
00001000
00010000
00000100
00000010
,
00000002
00000003
00000000
00000000
00000000
00000000
00000000
00000000
00000000
00000000
00000000
00000000
00000000
00000000
00000000
00000000
00001000
00000000
00000000
00000000
00000000
00000000
00000000
00000000
00000000
00000000
00000000
00000000
00000000
00000000
00000000
00000000
00001010
00000000
00000000
00000000
00000000
00000000
00000000
00000000
00000000
00000000
00000000
00000000
00000000
00000000
00000000
00000000
00000001
00000000
00000000
00000000
00000000
00000000
00000000
00000000
00000000
00000000
00000000
00000000
00000100
00000000
00000000
00000000
,
00000000
00001000
00010000
00000000
00100000
00000000
00010000
00000000
,
00011000
00000000
00000000
00000000
00001000
00000000
00000000
00000000
01010000
00000000
00000000
00000000
00100000
00000000
00000000
10000000
,
00000000
01000000
00200000
00000000
10000000
00000000
00310000
00000000
,
10010000
00000000
00000000
00000000
00010000
00000000
00000000
00000000
00110000
00000000
00000000
00000000
10000000
00000000
00000000
01000000
,
00000000
00010000
00001000
00000000
00000010
00000000
00001000
00000000
,
00011000
00000000
00000000
00000000
00010000
00000000
00000000
00000000
00001100
00000000
00000000
00000000
00000010
00000000
00000000
00000001
,
00000000
00000100
00000020
00000000
00000000
00000000
00000030
00000000
,
00000110
00000000
00001001
00000000
00000001
00000000
00000100
00001000
,
00010000
00000000
00100000
10000000
01000000
00100000
00010000
01000000
,
00100000
00000000
10000000
01000000
10000000
00000000
01000000
00010000
,
01000000
00000000
00010000
00001000
00000100
00000010
00001000
00000001
,
00000010
00000000
00000100
00010000
00000100
00010000
00000100
00010000
,
00000100
00010000
00001000
00100000
00001000
00100000
00001000
00100000
,
00001000
00100000
00010000
01000000
00100000
10000000
00010000
00100000
,
00001000
00010000
00000020
00000000
00000000
00000000
00000000
00000000
,
00000030
00000000
00001000
00000000
00000001
00000100
00000000
00001000
,
00000100
00000000
00000000
00000000
00001000
00000000
00000000
00010000
00000000
00000000
00001000
00000000
00000000
00000000
00000010
00000000
,
00001000
00000000
00010000
00000000
00100000
10000000
00000000
00100000
,
01000000
00000000
00000000
00000000
10000000
00000000
00000000
01000000
00000000
00000000
00010000
00000000
00000000
00000000
00100000
00000000
,
00010000
00000000
10010000
00000000
10000000
01000000
00000000
01000000
,
00010000
00000000
00000000
00000000
00001000
00000000
00000000
00010000
00000000
00000000
00011000
00000000
00000000
00000000
00001000
00000000
,
00000100
00000001
00001000
00000000
00000001
00000100
00000000
00000100
,
00001000
00000000
00000000
00000000
00010000
00000000
00000000
00001000
00000000
00000000
00011000
00000000
00000000
00000000
00010000
00000000
,
01000000
10000000
00100000
10000000
01000000
00000000
00010000
00000000
,
00001000
00000000
00000010
00001000
00010000
00000000
00001000
00000000
,
00000100
00000000
00000001
00000100
00001000
00000000
00010000
00000000
,
01000000
00000000
10000000
01000000
00010000
00000000
00001000
00000000
,
00000100
00000000
00000001
00001000
00000001
00001000
00000001
00001000
,
00000100
00010000
00001000
01000000
00001000
01000000
00001000
01000000
,
00100000
10000000
01000000
00100000
00001000
00010000
00000010
00001000
,
00000100
00000010
00000002
00000000
00000000
00000000
00000000
00000000
,
00000000
00001003
00000000
00000000
,
00000000
00000000
00000000
00000000
,
00000000
00011000
00000000
00000000
,
00000000
00000000
00000000
00000000
,
00000000
10010000
00000000
00000000
,
00000000
01001000
00011000
00010100
,
00011000
00000000
00001000
00000010
00000001
00000100
00001000
00010000
,
00100000
00000000
00000000
00000000
00000000
00000000
00000000
00000000
10000000
00000000
00000000
00000000
00000000
00000000
00000000
00000000
00020000
00030000
00000000
00000000
00000000
00000000
00000000
00000000
00000000
00000000
00000000
00000000
00000000
00000000
00000000
00000000
00000000
00000000
00000000
00000000
00000000
00000000
00000000
00000000
00000000
00000000
00000000
00000000
00000000
00000000
00000000
00000000
00000000
00000000
00000000
00000000
00000000
00000000
00000000
00000000
00000000
00000000
00000000
00000000
00000000
00000000
00000000
00000000
,
00000000
00000000
00000000
00000000
10000000
00000000
01000000
00010000
,
01000000
00100000
00001000
00000000
00010000
00000000
01000000
00010000
,
00001000
00000100
00000010
00000000
00010000
00000000
00001000
00010000
,
00001000
00000010
00000100
00000000
00000001
00000000
00000100
00001000
,
00000001
00000100
00000010
00001000
00000001
00000000
00000100
00001000
,
00000100
00000010
00010000
00000000
00001000
00000000
00000100
00001000
,
00010000
01000000
00100000
00000000
00001000
00000000
00010000
00001000
,
00010000
00100000
01000000
00000000
10000000
00000000
01000000
00010000
,
10000000
01000000
00100000
00010000
10000000
00000000
00010000
01000000
,
00001000
00010000
01000000
00010000
00001000
00000000
00100000
00010000
,
01000000
00100000
00010000
00001000
00010000
00000000
00000100
00010000
,
00001000
00000100
00000010
00001000
00000001
00000000
00001000
00000100
,
00000010
00000001
00001000
00000000
00000010
00000000
00001000
00000100
,
00010000
00001000
00000100
00001000
00010000
00000000
00000010
00001000
,
00000100
00000010
00001000
00010000
00001000
00000000
01000000
00001000
,
00010000
01000000
00100000
00010000
20000000
00000000
00000000
00000000
,
00000000
00000000
30000000
00000000
00010000
01000000
00100000
01000000
,
10000000
01000000
00010000
00000000
00100000
00001000
00010000
00001000
,
01000000
00001000
00010000
00000000
00000010
00010000
00001000
00000010
,
00000100
00001000
00000001
00000000
00000010
00001000
00000010
00000001
,
00000100
00000010
00001000
00000000
00001000
00000100
00000010
00000100
,
00000001
00000100
00001000
00000000
00000010
00010000
00001000
00010000
,
00000100
00010000
00001000
00000000
00100000
00001000
00010000
00100000
,
01000000
00010000
10000000
00000000
00100000
00010000
00100000
10000000
,
01000000
00100000
00010000
00000000
10000000
01000000
00100000
00010000
,
01000000
00100000
00010000
00001000
00010000
00000100
00010000
00001000
,
01000000
00001000
00010000
00001000
00000100
00000010
00001000
00000100
,
00000001
00000100
00001000
00000010
00010000
00001000
00000100
00000001
,
00001000
00000100
00000010
00000000
00000001
00000100
00000010
00001000
,
00000100
00000010
00001000
00010000
00001000
01000000
00001000
00010000
,
00000100
00010000
00001000
00010000
01000000
00100000
00010000
01000000
,
10000000
01000000
00010000
00100000
00001000
00010000
01000000
10000000
,
00010000
10000000
00100000
00010000
00001000
00000000
00022000
00000000
,
00000000
00000000
00000000
00033000
;

//---------------dance-double - NewbStepper-EDP----------------
#NOTES:
     dance-double:
     NewbStepper:
     Hard:
     16:
     0.762832,1.115318,0.323854,0.097909,0.877418,709,666,43,13,0,0,0.762832,1.115318,0.323854,0.097909,0.877418,709,666,43,13,0,0:
00000000
00000000
00000000
00000000
,
00000000
00000000
00000000
00000000
,
00000000
00000000
00000000
00000000
,
00000000
00000000
00000000
00000000
,
00000000
00000000
00000000
00000000
,
00000000
00000000
00000000
00000000
,
00000000
00000000
00000000
00000000
,
00000000
00000000
00000000
00000000
,
00000000
00000000
00000000
00000000
,
00011000
00010000
00010000
00010000
,
01000000
01000000
01000000
01000000
,
10000000
10000000
10000000
10000000
,
00100000
00100000
00100000
00100000
,
00010000
00001000
00100000
00001000
00010000
00000010
00010000
00001000
,
00000010
00000001
00000100
00000010
00001000
00000100
00010000
00001000
,
00100000
00010000
00100000
00010000
10000000
00100000
10000000
00100000
01000000
00010000
01000000
00010000
00100000
00001000
00100000
00001000
,
00020000
00030000
00000000
00000000
00000000
00000000
00000000
00000000
00000000
00000000
00000000
00000000
00000000
00000000
00000000
00000000
00011000
00000000
00000000
00000000
00000000
00000000
00000000
00000000
00000000
00000000
00000000
00000000
00000000
00000000
00000000
00000000
00001000
00000000
00000000
00000000
00000000
00000000
00000000
00000000
00000100
00000000
00000000
00000000
00000000
00000000
00000000
00000000
00000001
00000000
00000000
00000000
00000000
00000000
00000000
00000000
00000000
00000000
00000000
00000000
00000100
00000000
00000000
00000000
,
00000000
00000000
00000010
00000000
00000001
00000000
00000010
00000000
00001000
00000000
00000100
00000000
00000010
00000000
00000000
00001000
,
00000000
00000000
00010000
00000000
00100000
00000000
10000000
00000000
01000000
00000000
00100000
00000000
00001000
00000000
00000000
00010000
,
00000000
00000000
00001000
00000000
00000010
00000000
00000001
00000000
00000100
00000000
00001000
00020000
00000100
00000000
00000000
00000100
,
00000000
00000000
00030100
00000000
00010100
00000000
00000000
00000000
00010000
00000000
01000000
00000000
10000000
00000000
00000000
01000000
,
00000000
00000000
00100000
00000000
10000000
00000000
00100000
00000000
00010000
00000000
01000000
00000000
00100000
00000000
00000000
00010000
,
00000000
00000000
00001000
00000000
00000010
00000000
00000001
00000000
00000100
00000000
00000010
00000000
00010000
00000000
00000000
00001000
,
00000000
00010000
00022000
00000000
00000000
00000000
00033000
00000000
,
00011000
00000000
00101000
00000000
00100000
00001000
00010000
01000000
,
10000000
00000000
01000000
00100000
00001000
00100000
00010000
00001000
,
00000100
00000000
00000001
00000100
00001000
00000010
00010000
00001000
,
00000100
00000000
00000001
00000000
00000001
00000000
00000100
00000000
00001000
00000000
00020000
00000000
00001000
00000000
00000000
00001000
,
00000000
00000000
00031000
00000000
00100000
00000000
00010000
00000000
10000000
00000000
01000000
00000000
00010000
00000000
00001000
00100000
,
00000000
00100000
00001000
00010000
00000010
00000000
00001000
00000000
00000001
00000000
00000100
00000000
00001000
00000000
00010000
00000010
,
00000000
00000010
00010000
00001000
00100000
00001000
00010000
00001000
00010000
00000010
00010000
00001000
00100000
00010000
00100000
00010000
,
10000000
00100000
01000000
00200000
02000000
00000000
00000000
00000000
00000000
00000000
00000000
00000000
00000000
00000000
00000000
00000000
,
03300000
00000000
00000000
00000000
00010000
00000000
00110000
00000000
00000000
00101000
00000000
00000000
00011000
00000000
00000000
00010010
,
00000000
00000000
00011000
00000000
00000000
00000000
00001100
00000000
00000000
00000101
00000000
00000000
00000110
00000000
00000000
00001001
,
00000000
00000000
00000101
00000000
00000000
00000000
00001010
00000000
00000000
00010010
00000000
00000000
00011000
00000000
00000000
00101000
,
00000000
00000000
00011000
00000000
00000000
00000000
01010000
00000000
00000000
11000000
00000000
00000000
01100000
00000000
00000000
10010000
,
00000000
00000000
11000000
00000000
10000000
00000000
01000000
00000000
00000000
00010000
00000000
00000000
00001000
00000000
00000000
00000100
,
00000000
00000000
00000001
00000000
00000001
00000000
00000010
00000000
00000000
00001000
00000000
00000000
00010000
00000000
00000000
00100000
,
00000000
00000000
10000000
00000000
10000000
00000000
01000000
00000000
00000000
00010000
00000000
00000000
00001000
00000000
00000000
00000100
,
00000000
00000000
00000001
00000000
00000001
00000000
00000010
00000000
00000000
00001000
00000000
00000000
00010000
00000000
00000000
00100000
,
00000000
10000000
10010000
00000000
00010000
01010000
00000000
01000000
,
01100000
00000000
00000000
00000000
00100000
00000000
00000000
00000000
00010000
00000000
00000000
00001000
00000000
00000000
00000010
00000000
,
00000110
00000000
00001001
00000000
00001000
00001100
00000000
00000100
,
00000110
00000000
00000000
00000000
00000010
00000000
00000000
00000000
00001000
00000000
00000000
00010000
00000000
00000000
00100000
00000000
,
01100000
00000000
10000000
01000000
00010000
01000000
00100000
00001000
,
00010000
00001000
00010000
00001000
00010000
00000000
00000100
00000000
00010000
00000000
00001000
00000000
00000100
00000000
00000001
00000000
,
00000010
00000001
00001000
00000001
00000100
00000001
00000100
00000010
00001000
00000100
00010000
00000100
00010000
00001000
00100000
00010000
,
00100000
01000000
10000000
00200000
02000000
00000000
00000000
00000000
00000000
00000000
00000000
00000000
00000000
00000000
00000000
00000000
,
03300000
01100000
00000000
00000000
,
00000000
00000000
00000000
00000000
,
00000000
00011000
00000000
00000000
,
00000000
00000000
00000000
00000000
,
00000000
00000000
00000000
00000000
00001000
00010000
00001000
01000000
00000000
00100000
00000000
00010000
00001000
00010000
00001000
01000000
,
00000000
00100000
00000000
00010000
00001000
00010000
00001000
00000000
00100000
00010000
00100000
00000000
00001000
00010000
00001000
00000000
,
00010000
00000010
00010000
00000000
00001000
00000010
00001000
00000010
00000001
00000010
00000001
00000100
00000001
00000100
00000010
00001000
,
00000010
00000000
00000000
00000000
00010000
00000000
00000000
00000000
00001000
00000000
00000000
00000000
00100000
00000000
00000000
00000000
00020000
00030000
00000000
00000000
00000000
00000000
00000000
00000000
00000000
00000000
00000000
00000000
00000000
00000000
00000000
00000000
10000000
00000000
00000000
00000000
00000000
00000000
00000000
00000000
00100000
00000000
00000000
00000000
10000000
00000000
00000000
00000000
00000000
00000000
00000000
00000000
01000000
00000000
00000000
00000000
00000000
00000000
00000000
00000000
00010000
00000000
00000000
00000000
,
00000000
00001000
00010000
00000100
00000000
00001000
00000001
00000100
00000010
00001000
00000010
00000000
00000100
00000000
00000001
00000000
,
00000100
00000000
00001000
00000000
00010000
00000000
00000010
00000000
00001000
00000100
00001000
00000000
00000100
00000000
00000010
00000000
,
00001000
00000000
00010000
00000000
00100000
00000000
10000000
00000000
01000000
00100000
01000000
00000000
00010000
00000000
00001000
00000000
,
00010000
00000000
00100000
00000000
00010000
00000000
00001000
00000000
00000010
00000100
00000010
00000000
00000001
00000000
00000100
00000000
,
00001000
00000000
00010000
00000000
01000000
00000000
00000000
00000000
00100000
00010000
00100000
00000000
01000000
00000000
10000000
00000000
,
01000000
00000000
00010000
00000000
00001000
00000000
00100000
00000000
00010000
01000000
00010000
00000000
01000000
00000000
00100000
00000000
,
00010000
00000000
00001000
00000000
00000010
00000000
00000001
00000000
00000100
00000010
00000100
00000000
00001000
00000000
00010000
00000000
,
00001000
00000000
00000010
00000000
00001000
00000000
00010000
00000000
00100000
01000000
00100000
00000000
10000000
00000000
01000000
00000000
,
00010000
00000000
00001000
00000000
00000100
00000000
00000000
00000000
00000001
00000010
00000100
00000000
00000001
00000000
00000100
00000000
,
00001000
00000000
00000010
00000000
00010000
00000010
00001000
00000010
00010000
00000010
00001000
00000000
00000100
00000000
00000010
00000000
,
00001000
00000000
00010000
00000000
00100000
01000000
00100000
10000000
00100000
01000000
00100000
00000000
10000000
00000000
01000000
00000000
,
00100000
00000000
00001000
00000000
00010000
00000100
00001000
00000100
00001000
00000001
00000100
00000000
00000001
00000000
00000100
00000000
,
00001000
00000000
00010000
00000000
01000000
00000000
00000000
00000000
10000000
00100000
01000000
00000000
10000000
00000000
01000000
00000000
,
00010000
00000000
00100000
00000000
00001000
00100000
00010000
00100000
00001000
00100000
00010000
00000000
01000000
00000000
00100000
00000000
,
00010000
00000000
00001000
00000000
00000010
00000100
00000010
00000001
00000010
00000100
00000010
00000000
00000001
00000000
00000100
00000000
,
00000010
00000000
00010000
00000000
00001000
01000000
00010000
01000000
00020000
00000000
00000000
00000000
00000000
00000000
00000000
00000000
,
00000000
00000000
00000000
00000000
00030000
00000000
00000000
00000000
10000000
00010000
10000000
01000000
00000000
00100000
00000000
00001000
,
00000000
00010000
00000100
00001000
00000000
00000010
00001000
00000100
00001000
00000001
00001000
00000010
00000000
00001000
00000001
00000100
,
00000000
00000010
00000100
00001000
00000000
00010000
00000100
00001000
00000100
00010000
00001000
00100000
00000000
00010000
00000000
01000000
,
00000000
00100000
10000000
00010000
00000000
01000000
00010000
00100000
00001000
00010000
00000100
00001000
00000000
00000001
00000000
00000101
,
00000000
00000110
00000000
00001010
00000000
00001000
00000100
00000010
00000001
00001000
00000001
00000100
00000000
00000010
00000000
00010000
,
00000000
00001000
01000000
00010000
00000000
00100000
00010000
01000000
00010000
10000000
00010000
00100000
00000000
00010000
10000000
01000000
,
00000000
00100000
01000000
00010000
00000000
00001000
01000000
00010000
01000000
00001000
00010000
00000010
00000000
00001000
00000000
00000100
,
00000000
00000010
00000001
00001000
00000000
00000100
00001000
00000010
00010000
00001000
01000000
00010000
00000000
10000000
00000000
01000000
,
00000000
00100000
00010000
00100000
00000000
01000000
10000000
01000000
10000000
00010000
01000000
00100000
00000000
01000000
00001000
01000000
,
00000000
00001000
00010000
00000010
00000000
00000100
00000001
00000100
00000001
00001000
00000100
00000010
00000000
00000100
00010000
00000100
,
00000000
00010000
00001000
00100000
00000000
01000000
10000000
00100000
01000000
00010000
10000000
01000000
00000000
00100000
00001000
00010000
,
00000000
00000010
00010000
00001000
00000000
00100000
00010000
00100000
00001000
00010000
00001000
00000100
00000000
00000001
00000000
00000101
,
00000000
00001001
00000000
00001100
00000000
00000010
00000001
00000100
00000010
00000000
00001000
00000000
00000001
00000000
00000100
00000000
,
00001000
00000000
00010000
00000010
00000000
00000010
00010000
00001000
00100000
00000000
00010000
00000000
10000000
00000000
01000000
00000000
,
00010000
00000000
00001000
00100000
00000000
00100000
00001000
00010000
00000010
00001000
00000001
00001000
00000100
00001000
00000100
00010000
,
00001000
00100000
00010000
10000000
00010000
01000000
00010000
01000000
00100000
10000000
00100000
10000000
00100000
01000000
00010000
00100000
,
00001000
00010000
00001000
00010000
00000100
00001000
00000010
00000100
00000001
00000000
00000000
00000000
00002002
00000000
00000000
00000000
,
00000000
00000000
00000000
00003003
;
