#VERSION:0.83;
#TITLE:Animal;
#ARTIST:Neon Trees;
#BANNER:Animal.png;
#BACKGROUND:Animal-bg.png;
#JACKET:Animal-jacket.png;
#MUSIC:Animal.ogg;
#OFFSET:-0.380378;
#SAMPLESTART:45.766;
#SAMPLELENGTH:15;
#BPMS:0=148;
#STOPS:254=0.405;
#TIMESIGNATURES:0=4=4,252=3=4,255=4=4;
#BGCHANGES:-1.75=Animal.avi=1=0=0=0=StretchNoLoop====,99999=-nosongbg-=1.000=0=0=0 // don't automatically add -songbackground-;

//---------------dance-single - NewbStepper-ESP----------------
#NOTEDATA:;
#CHARTNAME:NewbStepper-ESP;
#STEPSTYPE:dance-single;
#DESCRIPTION:NewbStepper-ESP;
#DIFFICULTY:Hard;
#METER:12;
#RADARVALUES:0.541493,0.540253,0.347332,0.407738,0.056630,502,456,46,54,0,0,0,0,0,0.541493,0.540253,0.347332,0.407738,0.056630,502,456,46,54,0,0,0,0,0;
#CREDIT:NewbStepper;
#NOTES:
0000
0000
0000
0000
,
1000
0100
1100
0000
0001
0100
0101
0000
,
1000
0010
1010
0000
0001
0010
0011
0000
,
1000
0100
0001
0100
1000
0010
0001
0010
,
1000
1000
0200
0001
0301
0100
1000
0000
,
0001
0100
0101
0000
1000
0100
1100
0000
,
0001
0010
0011
0000
1000
0010
1010
0000
,
0001
0100
1000
0100
0001
0010
1000
0010
,
0001
0001
0200
1000
1300
0100
0001
0000
,
0201
0000
1000
0000
0010
0310
0110
0000
,
1000
0001
1000
0100
0010
0000
0001
0100
,
1000
0000
0001
0010
1000
0100
0001
0100
,
2000
0000
3002
0000
0203
0000
0010
0010
,
0310
0000
1000
0100
1000
0001
0100
1000
,
0200
0000
0301
0010
2000
0000
3010
0001
,
0200
0000
1300
0100
0002
0000
1003
0010
,
0210
0001
1000
0301
,
1020
0000
0001
0000
0100
0100
0100
0130
,
0001
1000
0001
0100
0010
0000
1000
0100
,
0001
0000
1000
0010
0001
0100
1000
0100
,
0002
0000
2003
0000
3200
0000
0010
0010
,
0310
0000
0001
0100
0001
1000
0100
0001
,
0200
0000
1300
0010
0002
0000
0013
1000
,
0200
0000
0301
0100
2000
0000
3001
0010
,
0210
2300
3002
0203
,
2300
3020
0032
1003
,
2001
0000
0000
0000
,
0002
0000
0000
0000
3003
0100
0100
0100
,
0101
0001
0010
0000
1100
1000
0010
0000
,
0201
0000
0000
0010
0000
0000
0301
0000
2000
0000
0000
0000
3001
0000
0000
0000
,
1100
1000
0010
0000
0101
0001
0010
0000
,
0001
0000
0000
0100
0000
0000
1000
0000
0010
0000
0000
0001
0000
0000
0100
0000
,
0020
0000
0000
0000
0130
0000
0110
0000
0000
0000
1001
0000
0000
1000
0000
0000
,
0100
0000
0000
0001
0000
0000
0100
0000
1000
0000
0000
0000
0010
0000
0100
0000
,
0101
0001
1000
0010
0001
0010
1000
0000
,
1100
1000
0001
0010
1000
0010
0001
0000
,
0100
0100
0010
1000
0100
0010
0001
0000
,
1000
0010
0001
1000
0100
0001
0100
1000
,
0001
0010
1000
0100
0010
0001
1000
0000
,
0001
0010
1000
0001
0100
1000
0100
0001
,
1000
0000
0010
0000
0001
0000
0100
0000
0010
0000
0200
0000
0000
0001
0000
0000
,
0320
0000
0000
1030
0000
0000
0001
0000
1000
0000
0000
0000
0100
0000
0010
0000
,
0210
0001
1000
0001
,
0320
1000
0100
0001
,
0230
1000
0001
0010
,
2300
0001
0010
3001
,
1000
0100
0010
0000
0001
0100
0010
0000
,
1000
0000
0000
0001
0000
0000
2002
0000
0000
0000
3003
0000
0000
0000
0000
0000
,
2020
0000
3030
0000
,
0202
0000
0303
0100
,
0020
1000
0100
0001
,
0130
0010
0100
0010
0100
0010
0100
0000
,
0001
0100
0101
0000
1000
0100
1100
0000
,
0001
0010
0011
0000
1000
0010
1010
0000
,
0001
0100
1000
0100
0001
0010
1000
0010
,
0001
0001
0200
1000
1300
0100
0001
0000
,
1000
0100
1100
0000
0001
0100
0101
0000
,
1000
0010
1010
0000
0001
0010
0011
0000
,
1000
0100
0001
0100
1000
0010
0001
0010
,
1000
1000
0200
0001
0301
0100
1000
0000
,
1002
0010
0000
0013
,
0001
1000
0001
0100
0010
0000
1000
0001
,
1000
0100
0010
0000
0001
0100
1000
0100
,
0001
0100
1000
0100
0001
0000
1100
1000
,
0010
0000
0000
0000
0101
0000
0001
0000
0010
0000
0000
0000
1200
0000
0000
0010
,
0000
1300
0002
0000
1003
0000
0101
0001
,
0010
0000
0000
0000
1100
0000
1000
0000
0010
0000
0000
0000
1000
0000
0000
0100
,
0000
0000
0001
0000
0010
0000
0000
1000
0000
0000
0100
0000
0020
0000
0000
0000
,
0130
0000
0110
0000
0000
0000
1001
0000
0000
0001
0000
0000
0100
0000
0000
1000
,
0000
0100
0001
0000
0010
0100
1100
1000
,
0001
0010
1000
0010
0001
0000
0101
0001
,
1000
0010
0001
0010
1000
0000
0100
0100
,
0010
0001
0100
0010
1000
0000
0001
0010
,
1000
0001
0100
1000
0100
0001
1000
0010
,
0001
0100
0010
1000
0001
0000
1000
0010
,
0001
1000
0100
0001
0100
1000
0001
0010
,
1000
0000
0100
0000
0010
0000
0200
0000
0000
1000
0000
0000
0320
0000
0000
0031
,
0000
1000
0001
0000
0100
0010
0220
0000
,
0000
0000
0000
0000
,
0000
0000
0330
0000
;

//---------------dance-single - NewbStepper-DSP----------------
#NOTEDATA:;
#CHARTNAME:NewbStepper-DSP;
#STEPSTYPE:dance-single;
#DESCRIPTION:NewbStepper-DSP;
#DIFFICULTY:Medium;
#METER:10;
#RADARVALUES:0.388322,0.450211,0.128362,0.317130,0.037754,360,343,17,42,0,0,0,0,0,0.388322,0.450211,0.128362,0.317130,0.037754,360,343,17,42,0,0,0,0,0;
#CREDIT:NewbStepper;
#NOTES:
0000
0000
0000
0000
,
1000
0100
0001
0010
,
1000
0100
0001
0010
,
1000
0001
1000
0000
0010
0100
0010
0000
,
1000
0001
0100
0010
0100
0001
1000
0000
,
0001
0100
1000
0010
,
0001
0100
1000
0010
,
0001
1000
0001
0000
0010
0100
0010
0000
,
0001
1000
0100
0010
0100
1000
0001
0000
,
0200
0010
0000
0310
,
1000
0001
1000
0100
2000
0000
0000
0000
,
3000
0001
0100
0001
1000
0100
1000
0000
,
0002
2003
3020
0000
,
0030
1000
0100
1000
0001
0100
1000
0100
,
0002
0000
0000
0100
0203
0000
0000
1000
,
2300
0000
0000
0100
3200
0000
0000
0001
,
0301
1000
0001
1000
,
0010
0000
0010
0000
0100
0010
0110
0000
,
0001
1000
0001
0100
0002
0000
0000
0000
,
0003
1000
0100
1000
0001
0100
0001
0000
,
2000
3002
0023
0000
,
0030
0001
0100
0001
1000
0100
0001
0100
,
2000
0000
0000
0100
3200
0000
0000
0001
,
0302
0000
0000
0100
0203
0000
0000
1000
,
2300
3002
0203
0302
,
2003
3200
0320
0032
,
0203
0000
0000
0000
,
0300
0000
0000
0000
,
0001
1100
0101
0000
,
0010
1000
0100
0000
0010
0001
0100
0000
,
0001
1010
0011
0000
,
1000
0000
0100
0010
0001
0000
0100
0010
,
1000
0001
0010
1000
,
0010
0001
0010
0000
0100
1000
0100
0000
,
1000
0101
1100
0000
,
0010
0000
0000
0010
0000
0000
0010
0000
0002
0000
0000
0000
1003
0000
0000
0000
,
0001
1010
0011
0000
,
0100
0000
0000
0010
0000
0000
0100
0000
1000
0000
0000
0001
0000
0000
1000
0000
,
0020
0000
0100
0200
0000
0000
0330
0000
,
0100
0000
0000
0010
0000
0000
0100
0000
0001
0000
0000
1000
0000
0000
0001
0000
,
0200
0000
0320
0000
0030
1000
0000
0001
,
0100
0000
1000
0100
0001
0000
1000
0001
,
0200
0010
0000
0010
,
0000
0010
0000
0010
,
0302
0100
0000
0100
,
0000
0100
0000
0100
,
2003
0001
0000
0001
,
0000
0001
0000
0001
,
3020
0100
0000
0100
,
0000
0100
0000
0100
,
1030
1000
1000
1000
,
0001
0100
0001
0100
0001
0100
0001
0000
,
1000
0100
0001
0010
,
1000
0100
0001
0010
,
1000
0001
1000
0000
0010
0100
0010
0000
,
1000
0001
0100
0010
0100
0001
1000
0000
,
0001
0100
1000
0010
,
0001
0100
1000
0010
,
0001
1000
0001
0000
0010
0100
0010
0000
,
0001
1000
0100
0010
0100
1000
0001
0000
,
2000
0000
0000
0000
,
3001
0100
0001
1000
0001
0000
1000
0100
,
1000
0001
1000
0000
0010
1000
0010
0100
,
0010
0001
0010
0100
0010
0000
1000
0000
,
0101
0000
1100
0000
0000
0000
0010
0001
,
0100
0000
0010
1000
0100
0000
1000
0000
,
0011
1010
0000
0001
,
0100
0010
1000
0000
0100
0010
0001
0000
,
1000
0000
0010
0000
0001
0000
0010
1000
,
0010
0000
0100
0001
0100
0000
0001
0000
,
1100
0000
0000
0000
0101
0000
0000
0000
0000
0000
0000
0000
0010
0000
0000
0010
,
0000
0010
2000
0000
3001
0000
1000
0000
,
0011
0000
0000
0000
1010
0000
0000
0000
0000
0000
0000
0000
0100
0000
0000
0010
,
0000
0000
0100
0000
0001
0000
0000
1000
0000
0000
0001
0000
0020
0000
0000
0000
,
0100
0000
0200
0000
0000
0000
0000
0000
0330
0000
0000
0000
0100
0000
0000
0010
,
0000
0000
0100
0000
1000
0000
0000
0001
0000
0000
1000
0000
0200
0000
0000
0000
,
0320
0000
0030
0001
0000
1000
0100
0000
,
0001
0100
1000
0000
0001
1000
0200
0000
,
0000
0000
0000
0000
,
0000
0000
0300
0000
;

//---------------dance-single - NewbStepper-BSP----------------
#NOTEDATA:;
#CHARTNAME:NewbStepper-BSP;
#STEPSTYPE:dance-single;
#DESCRIPTION:NewbStepper-BSP;
#DIFFICULTY:Easy;
#METER:6;
#RADARVALUES:0.232993,0.300140,0.067956,0.158565,0,216,207,9,21,0,0,0,0,0,0.232993,0.300140,0.067956,0.158565,0,216,207,9,21,0,0,0,0,0;
#CREDIT:NewbStepper;
#NOTES:
0000
0000
0000
0000
,
0001
0000
0001
0000
,
1000
0000
1000
0000
,
0010
1000
0010
1000
,
0002
0000
0003
0000
,
1000
0000
1000
0000
,
0001
0000
0001
0000
,
0010
0001
0010
0001
,
2000
0000
3000
0000
,
0000
0000
0000
0000
,
0001
0100
0010
0000
,
1000
0100
0010
0000
,
0001
1000
0001
0000
,
0100
0010
0100
0010
,
2000
3000
0002
0003
,
2000
3000
0002
0003
,
0020
0100
0000
0100
,
0000
0100
0100
0130
,
1000
0100
0010
0000
,
0001
0100
0010
0000
,
1000
0001
1000
0000
,
0100
0010
0100
0010
,
0002
0003
2000
3000
,
0002
0003
2000
3000
,
0010
0100
0001
1000
,
0001
0100
0001
0100
,
0020
0000
0000
0000
,
0000
0000
0030
0000
,
1000
0001
1001
0000
,
0100
0010
1000
0100
,
0010
0001
1001
0000
,
0100
0010
0001
0100
,
0010
1000
0100
0001
,
0100
1000
0010
0100
,
0001
1000
1001
0000
,
0100
0010
0001
0100
,
0010
1000
1001
0000
,
0100
0010
1000
0100
,
0010
0001
0100
1000
,
0100
0010
1000
0100
,
0010
0001
0100
1000
,
0100
0001
0010
0100
,
2000
0000
0000
0000
,
0000
0000
3000
0000
,
0200
0000
0000
0000
,
0000
0000
0300
0000
,
0020
0000
0000
0000
,
0000
0000
0030
0000
,
0002
0000
0000
0000
,
0000
0000
0003
0000
,
2002
0000
0000
0000
,
0000
0000
3003
0000
,
1000
0000
1000
0000
,
0001
0000
0001
0000
,
0010
0001
0010
0001
,
2000
0000
3000
0000
,
0001
0000
0001
0000
,
1000
0000
1000
0000
,
0010
1000
0010
1000
,
0002
0000
0003
0000
,
1000
0000
1000
0000
,
0001
0100
0001
1000
,
0100
1000
0001
0100
,
0001
1000
0000
0001
,
1000
1001
0000
0100
,
0010
0001
0100
0010
,
1000
1001
0000
0100
,
0010
1000
0100
0010
,
0001
0100
1000
0100
,
0001
0010
0100
1000
,
0001
1001
0000
0100
,
0010
1000
0100
0010
,
0001
1001
0000
0100
,
0010
0001
0100
0010
,
1000
0100
0001
0100
,
0010
0001
0100
0010
,
1000
0100
0001
0100
,
1000
0010
0100
0002
,
0000
0000
0000
0000
,
0000
0000
0003
0000
;

//---------------dance-single - NewbStepper-bSP----------------
#NOTEDATA:;
#CHARTNAME:NewbStepper-bSP;
#STEPSTYPE:dance-single;
#DESCRIPTION:NewbStepper-bSP;
#DIFFICULTY:Beginner;
#METER:2;
#RADARVALUES:0.092766,0.150070,0.015101,0.166115,0,86,84,2,22,0,0,0,0,0,0.092766,0.150070,0.015101,0.166115,0,86,84,2,22,0,0,0,0,0;
#CREDIT:NewbStepper;
#NOTES:
0000
0000
0000
0000
,
0001
0000
0000
0000
,
0001
0000
0000
0000
,
0200
0000
0000
0000
,
0000
0000
0300
0000
,
1000
0000
0000
0000
,
1000
0000
0000
0000
,
0200
0000
0000
0000
,
0000
0000
0300
0000
,
0000
0000
0000
0000
,
0001
0000
0000
0000
,
1000
0000
0000
0000
,
0001
0000
0000
0000
,
0000
0000
0000
0000
,
0100
0000
0000
0000
,
0010
0000
0000
0000
,
0100
0000
0000
0000
,
0000
0000
0000
0000
,
1000
0000
0000
0000
,
0001
0000
0000
0000
,
1000
0000
0000
0000
,
0000
0000
0000
0000
,
0010
0000
0000
0000
,
0100
0000
0000
0000
,
0010
0000
0000
0000
,
0000
0000
0000
0000
,
2002
0000
0000
0000
,
0000
0000
3003
0000
,
0000
0010
0010
0000
,
1000
0000
0001
0000
,
0000
0100
0100
0000
,
0001
0000
1000
0000
,
0002
0000
0003
0000
,
1000
0000
0001
0000
,
0000
0010
0010
0000
,
0001
0000
1000
0000
,
0000
0100
0100
0000
,
1000
0000
0001
0000
,
2000
0000
3000
0000
,
0001
0000
1000
0000
,
0002
0000
0003
0000
,
1000
0000
0001
0000
,
0020
0000
0000
0000
,
0030
0000
0000
0000
,
0002
0000
0000
0000
,
0003
0000
0000
0000
,
2000
0000
0000
0000
,
3000
0000
0000
0000
,
0200
0000
0000
0000
,
0300
0000
0000
0000
,
2002
0000
0000
0000
,
0000
0000
3003
0000
,
1000
0000
0000
0000
,
1000
0000
0000
0000
,
0200
0000
0000
0000
,
0000
0000
0300
0000
,
0001
0000
0000
0000
,
0001
0000
0000
0000
,
0200
0000
0000
0000
,
0000
0000
0300
0000
,
0000
0000
0000
0000
,
0002
0000
0003
2000
,
0000
3000
0002
0000
,
0000
0003
0000
0000
,
0010
0010
0000
0001
,
0000
1000
0000
0000
,
0100
0100
0000
1000
,
0000
0001
0000
2000
,
0000
3000
0000
0001
,
0000
1000
0000
0000
,
0010
0010
0000
1000
,
0000
0001
0000
0000
,
0100
0100
0000
0001
,
0000
1000
0000
0002
,
0000
0003
0000
1000
,
0000
0001
0000
2000
,
0000
3000
0000
0001
,
0000
1000
0000
0020
,
0000
0000
0000
0000
,
0000
0000
0030
0000
;

//---------------dance-double - NewbStepper-EDP----------------
#NOTEDATA:;
#CHARTNAME:NewbStepper-EDP;
#STEPSTYPE:dance-double;
#DESCRIPTION:NewbStepper-EDP;
#DIFFICULTY:Hard;
#METER:12;
#RADARVALUES:0.533943,0.540253,0.158565,0.271825,0.026427,495,474,21,36,0,0,0,0,0,0.533943,0.540253,0.158565,0.271825,0.026427,495,474,21,36,0,0,0,0,0;
#CREDIT:NewbStepper;
#NOTES:
// measure 0
00000000
00000000
00000000
00000000
,  // measure 1
10000000
01000000
00010000
00000000
00001000
00000100
00000001
00000000
,  // measure 2
00000001
00000010
00001000
00000000
00010000
00100000
10000000
00000000
,  // measure 3
00010000
00010000
10000000
00100000
00010000
00010000
00001000
00000010
,  // measure 4
00000001
00000001
00000100
00001000
00010000
00001000
00000010
00000000
,  // measure 5
00000001
00000100
00001000
00000000
00010000
01000000
10000000
00000000
,  // measure 6
10000000
00100000
00010000
00000000
00001000
00000010
00000001
00000000
,  // measure 7
00001000
00001000
00000001
00000010
00001000
00001000
00010000
00100000
,  // measure 8
10000000
10000000
01000000
00010000
00001000
00010000
00100000
00000000
,  // measure 9
10200000
00000000
00010000
00000000
01000000
01300000
01100000
00000000
,  // measure 10
00010000
01000000
00010000
00100000
01000000
00000000
10000000
00100000
,  // measure 11
00010000
00000000
00001000
00000010
00000001
00000100
00001000
00000100
,  // measure 12
00000002
00000000
00002003
00000000
00003200
00000000
00000010
00000010
,  // measure 13
00000310
00000000
00000001
00000100
00000001
00001000
00000100
00010000
,  // measure 14
00002000
00000000
00003010
00001000
00020000
00000000
00130000
00010000
,  // measure 15
00002000
00000000
00003100
00001000
00020000
00000000
01030000
10000000
,  // measure 16
00020000
01000000
10000000
00100000
,  // measure 17
00032000
00000000
00000100
00000000
00000001
00000001
00000001
00003001
,  // measure 18
00001000
00000100
00001000
00000010
00000100
00000000
00000001
00000010
,  // measure 19
00001000
00000000
00010000
00100000
10000000
01000000
00010000
01000000
,  // measure 20
20000000
00000000
30020000
00000000
02030000
00000000
00100000
00100000
,  // measure 21
03100000
00000000
10000000
01000000
10000000
00010000
01000000
00001000
,  // measure 22
00020000
00000000
00130000
00010000
00002000
00000000
00003010
00001000
,  // measure 23
00020000
00000000
01030000
00010000
00002000
00000000
00003100
00000001
,  // measure 24
00002000
00000100
00000001
00000010
,  // measure 25
00023000
01000000
10000000
00130000
,  // measure 26
20010000
00000000
00000000
00000000
,  // measure 27
00020000
00000000
00000000
00000000
30030000
01000000
01000000
01000000
,  // measure 28
01010000
00010000
00100000
00000000
11000000
10000000
00100000
00000000
,  // measure 29
00010000
00001000
00100000
01000000
00100000
00001000
00010000
00000010
,  // measure 30
00001010
00001000
00000100
00000000
00000011
00000001
00000100
00000000
,  // measure 31
00001000
00010000
00000100
00000010
00000100
00010000
00001000
00000010
,  // measure 32
00001000
00000000
00010000
00000000
01000000
00000000
10000000
00000000
00010000
00000000
01000000
00000000
00000000
00100000
00000000
00000000
,  // measure 33
10000000
00000000
00000000
01000000
00000000
00000000
00010000
00000000
00001000
00000000
00000000
00000000
00000010
00000000
00000100
00000000
,  // measure 34
00001100
00001000
00000010
00000000
00000101
00000001
00000010
00000000
,  // measure 35
00001000
00010000
00000010
00000100
00000010
00010000
00001000
00100000
,  // measure 36
00110000
00010000
01000000
00000000
10100000
10000000
01000000
00000000
,  // measure 37
00010000
00001000
01000000
00100000
01000000
00001000
00010000
00100000
,  // measure 38
00010000
00001000
00000100
00000001
00001000
00000100
00000010
00000001
,  // measure 39
00000100
00001000
00010000
00000010
00000100
00010000
00001000
00000010
,  // measure 40
00001000
00000000
00000100
00000000
00010000
00000000
00001000
00000000
00000010
00000000
00000100
00000000
00000000
00000010
00000000
00000000
,  // measure 41
00000001
00000000
00000100
00001000
00010000
00000000
00100000
01000000
,  // measure 42
01020000
01000000
10000000
00100000
,  // measure 43
00032000
00000100
00000001
00000010
,  // measure 44
00023000
00100000
10000000
01000000
,  // measure 45
00032000
00000010
00000001
00000100
,  // measure 46
00023000
00000000
20030000
00000000
32000000
00000000
03000000
00010000
,  // measure 47
00001000
00000000
00000000
00000010
00000000
00000000
00000200
00000000
00000000
00000000
00000300
00000000
00000000
00000000
00001000
00000000
,  // measure 48
00000002
00000000
00000003
00001000
00000020
00000000
00000030
00001000
,  // measure 49
00020000
00000000
00030000
01000000
,  // measure 50
00200000
10000000
01000000
00310000
,  // measure 51
00001000
00010000
01000000
00100000
00001000
00000100
00000010
00001000
,  // measure 52
00000001
00000100
00001000
00000000
00010000
01000000
10000000
00000000
,  // measure 53
10000000
00100000
00010000
00000000
00001000
00000010
00000001
00000000
,  // measure 54
00001000
00001000
00000001
00000010
00001000
00001000
00010000
00100000
,  // measure 55
10000000
10000000
01000000
00010000
00001000
00010000
00100000
00000000
,  // measure 56
10000000
01000000
00010000
00000000
00001000
00000100
00000001
00000000
,  // measure 57
00000001
00000010
00001000
00000000
00010000
00100000
10000000
00000000
,  // measure 58
00010000
00010000
10000000
00100000
00010000
00010000
00001000
00000010
,  // measure 59
00000001
00000001
00000100
00001000
00010000
00001000
00000010
00000001
,  // measure 60
00000200
00000010
00000000
00000310
,  // measure 61
00001000
00000100
00001000
00000010
00000100
00000000
00001000
00010000
,  // measure 62
00001000
00100000
00010000
00000000
01000000
00100000
10000000
01000000
,  // measure 63
00010000
00001000
00000100
00000001
00000010
00000000
00001100
00001000
,  // measure 64
00000010
00000000
00000101
00000001
00000010
00000000
00001000
00010000
,  // measure 65
00000010
00000100
00000010
00010000
00001000
00100000
00110000
00010000
,  // measure 66
01000000
00000000
10100000
10000000
01000000
00000000
00010000
00001000
,  // measure 67
01000000
00100000
01000000
00001000
00010000
00100000
00010000
00001000
,  // measure 68
00000100
00000000
00000001
00000000
00001000
00000000
00000100
00000000
00000000
00000010
00000000
00000000
00000001
00000000
00000000
00000100
,  // measure 69
00000000
00001000
00010000
00000000
00100000
01000000
01010000
00010000
,  // measure 70
00100000
00000000
11000000
10000000
00100000
00000000
00010000
00001000
,  // measure 71
00100000
01000000
00100000
00001000
00010000
00000010
00001010
00001000
,  // measure 72
00000100
00000000
00000011
00000001
00000100
00000000
00001000
00010000
,  // measure 73
00000100
00000010
00000100
00010000
00001000
00000010
00001000
00010000
,  // measure 74
01000000
10000000
00010000
01000000
00100000
10000000
01000000
00010000
,  // measure 75
00001000
00100000
01000000
00001000
00010000
00100000
00010000
01000000
,  // measure 76
00001000
00000000
00010000
00000000
00100000
00000000
01000000
00000000
00000000
00100000
00000000
00000000
10000000
00000000
00000000
00000000
,  // measure 77
01000000
00010000
00001000
00000000
00000010
00000100
00000220
00000000
,  // measure 78
00000000
00000000
00000000
00000000
,  // measure 79
00000000
00000000
00000330
00000000
;

//---------------dance-double - NewbStepper-DDP----------------
#NOTEDATA:;
#CHARTNAME:NewbStepper-DDP;
#STEPSTYPE:dance-double;
#DESCRIPTION:NewbStepper-DDP;
#DIFFICULTY:Medium;
#METER:10;
#RADARVALUES:0.396951,0.450211,0.128362,0.279376,0,368,351,17,37,0,0,0,0,0,0.396951,0.450211,0.128362,0.279376,0,368,351,17,37,0,0,0,0,0;
#CREDIT:NewbStepper;
#NOTES:
00000000
00000000
00000000
00000000
,
00010000
01000000
10000000
00100000
,
00010000
00001000
00000100
00000001
,
00000010
00000100
00000010
00000000
00001000
00010000
00001000
00000000
,
01000000
00100000
01000000
00010000
00100000
00001000
00010000
00000000
,
00001000
00000100
00000001
00000010
,
00001000
00010000
01000000
10000000
,
00100000
01000000
00100000
00000000
00010000
00001000
00010000
00000000
,
00000100
00000010
00000100
00001000
00000010
00010000
00001000
00000000
,
01000000
00000000
00000100
00000000
,
00010000
00000100
00010000
00001000
00020000
00000000
00000000
00000000
,
00030000
00001000
01000000
00001000
00010000
00100000
10000000
00000000
,
00020000
02030000
03200000
00000000
,
00300000
10000000
01000000
10000000
00010000
01000000
00001000
00010000
,
00000200
00000000
00000000
00000010
00000320
00000000
00000000
00001000
,
00002030
00000000
00000000
00010000
00023000
00000000
00000000
00100000
,
00130000
10000000
01000000
00010000
,
00001000
00000000
00000100
00000000
00000010
00000100
00000110
00000000
,
00001000
01000000
00001000
00010000
00002000
00000000
00000000
00000000
,
00003000
00010000
00000100
00010000
00001000
00000010
00000001
00000000
,
00002000
00003200
00000320
00000000
,
00000030
00000001
00000100
00000001
00001000
00000100
00010000
00001000
,
02000000
00000000
00000000
00100000
03200000
00000000
00000000
00010000
,
00320000
00000000
00000000
00001000
00032000
00000000
00000000
00000010
,
00003020
00000032
00000203
00002300
,
00023000
02030000
23000000
30020000
,
02030000
00000000
00000000
00000000
,
03000000
00000000
00000000
00000000
,
00001000
00010100
00011000
00000000
,
00100000
00010000
01000000
00000000
00100000
10000000
01000000
00000000
,
00010000
00101000
00011000
00000000
,
00000100
00000000
00010000
00001000
00000010
00000000
00000100
00001000
,
00000001
00000000
00000100
00000000
00000000
00001000
00000000
00001000
,
00010000
00000000
01000000
00010000
00001000
00000000
00010000
00000100
,
00010000
01001000
00011000
00000000
,
00000010
00001000
00000100
00000000
00000010
00000001
00000100
00000000
,
00001000
00010010
00011000
00000000
,
00100000
00000000
00001000
00010000
00100000
00000000
01000000
00010000
,
10000000
00000000
01000000
00010000
00001000
00000100
00000001
00000100
,
00000010
00000000
00010000
00001000
00000010
00000000
00000100
00001000
,
00000002
00000000
00000203
00000000
00000300
00001000
00000000
00001000
,
00010000
00000000
00100000
00010000
00001000
00000000
00000010
00001000
,
00020000
01000000
00000000
00000100
,
00000000
01000000
00000000
00000100
,
00032000
00000100
00000000
01000000
,
00000000
00000100
00000000
01000000
,
00203000
10000000
00000000
00010000
,
00000000
00301000
00000010
00000001
,
00000200
00000300
00002000
00003000
,
00020000
00000000
00000000
00030000
,
00001000
00010000
01000000
10000000
,
00010000
01000000
00010000
01000000
00010000
01000000
00001000
00000000
,
00010000
01000000
10000000
00100000
,
00010000
00001000
00000100
00000001
,
00000010
00000100
00000010
00000000
00001000
00010000
00001000
00000000
,
01000000
00100000
01000000
00010000
00100000
00001000
00010000
00000000
,
00001000
00000100
00000001
00000010
,
00001000
00010000
01000000
10000000
,
00100000
01000000
00100000
00000000
00010000
00001000
00010000
00000000
,
00000100
00000010
00000100
00001000
00000010
00010000
00001000
00000000
,
00200000
00000000
00000000
00000000
,
00310000
01000000
00010000
10000000
00010000
00000000
00100000
00001000
,
00010000
00001000
00010000
00000000
00000010
00001000
00000001
00001000
,
00000010
00010000
00001000
00010000
00001000
00000000
00010000
00000000
,
01001000
00000000
00011000
00000000
00000000
00000000
00000010
00001000
,
00000100
00000000
00000010
00000001
00000100
00000000
00001000
00000000
,
00010010
00011000
00000000
01000000
,
00001000
00010000
00100000
00000000
01000000
00010000
10000000
00000000
,
01000000
00000000
00000000
00010000
00000000
00010000
00001000
00000000
,
00000100
00001000
00010000
00000000
00001000
01000000
00001000
00000000
,
00010100
00000000
00011000
00000000
00000000
00000000
00100000
00010000
,
01000000
00000000
00100000
10000000
01000000
00000000
00010000
00000000
,
00101000
00011000
00000000
00000010
,
00010000
00001000
00000010
00000000
00000100
00001000
00000001
00000000
,
00000100
00001000
00010000
01000000
10000000
01000000
00100000
00000000
,
00001000
00010000
00100000
00000000
01000000
00010000
20000000
00000000
,
32000000
00000000
03000000
00010000
00000000
00010000
00001000
00000000
,
00000010
00001000
00010000
00000000
00100000
00010000
00002000
00000000
,
00000000
00000000
00000000
00000000
,
00000000
00000000
00003000
00000000
;

//---------------dance-double - NewbStepper-BDP----------------
#NOTEDATA:;
#CHARTNAME:NewbStepper-BDP;
#STEPSTYPE:dance-double;
#DESCRIPTION:NewbStepper-BDP;
#DIFFICULTY:Easy;
#METER:6;
#RADARVALUES:0.227600,0.300140,0.067956,0.120811,0,211,202,9,16,0,0,0,0,0,0.227600,0.300140,0.067956,0.120811,0,211,202,9,16,0,0,0,0,0;
#CREDIT:NewbStepper;
#NOTES:
00000000
00000000
00000000
00000000
,
10000000
00000000
10000000
00000000
,
00010000
00000000
00010000
00000000
,
00100000
00001000
00100000
00001000
,
00020000
00000000
00030000
00000000
,
00000001
00000000
00000001
00000000
,
00001000
00000000
00001000
00000000
,
00000010
00010000
00000010
00010000
,
00002000
00000000
00003000
00000000
,
00000000
00000000
00000000
00000000
,
10000000
01000000
00010000
00000000
,
00001000
00000100
00000001
00000000
,
00000010
00000100
00000010
00000100
,
00002000
00003000
00000002
00000003
,
00001000
00000000
00010000
00000000
,
10000000
00000000
00010000
00000000
,
00001000
00000000
00000001
00000000
,
00000100
00000010
00000100
00000000
,
00000001
00000100
00001000
00000000
,
00010000
01000000
10000000
00000000
,
00100000
01000000
00100000
01000000
,
00020000
00030000
20000000
30000000
,
00010000
00000000
00001000
00000000
,
00000001
00000000
00001000
00000000
,
00010000
01000000
00010000
10000000
,
01000000
00100000
01000000
00010000
,
00002000
00000000
00000000
00000000
,
00000000
00000000
00003000
00000000
,
00010000
00001000
00011000
00000000
,
00000100
00000010
00001000
00000100
,
00000010
00001000
00011000
00000000
,
01000000
00100000
00010000
01000000
,
00100000
00010000
00001000
00100000
,
00010000
00001000
00000100
00000010
,
00001000
00010000
00011000
00000000
,
01000000
00100000
00010000
01000000
,
00100000
00010000
00011000
00000000
,
00000100
00000010
00001000
00000100
,
00000010
00001000
00010000
00100000
,
00010000
00001000
00100000
10000000
,
00100000
00001000
00010000
00000010
,
00001000
00010000
01000000
00100000
,
20000000
00000000
00000000
00000000
,
00000000
00000000
30000000
00000000
,
00020000
00000000
00000000
00000000
,
00000000
00000000
00030000
00000000
,
00002000
00000000
00000000
00000000
,
00000000
00000000
00003000
00000000
,
00000002
00000000
00000000
00000000
,
00000000
00000000
00000003
00000000
,
00002002
00000000
00000000
00000000
,
00000000
00003003
00000000
00000000
,
00000001
00000000
00000001
00000000
,
00001000
00000000
00001000
00000000
,
00000010
00010000
00000010
00010000
,
00002000
00000000
00003000
00000000
,
10000000
00000000
10000000
00000000
,
00010000
00000000
00010000
00000000
,
00100000
00001000
00100000
00001000
,
00020000
00000000
00030000
00000000
,
00000000
00000000
00000000
00000000
,
00000001
00000100
00000010
00001000
,
00010000
01000000
00100000
10000000
,
01000000
00010000
00001000
00000000
,
00001000
00011000
00000000
01000000
,
00100000
00010000
01000000
00100000
,
00010000
00011000
00000000
00000100
,
00000010
00001000
00000100
00000010
,
00001000
00010000
00000010
00001000
,
00010000
01000000
00100000
00010000
,
00001000
00011000
00000000
00000100
,
00000010
00001000
00000100
00000010
,
00001000
00011000
00000000
01000000
,
00100000
00010000
01000000
00100000
,
00010000
00001000
00000010
00001000
,
00010000
00000010
00000001
00000010
,
00010000
00001000
00100000
00010000
,
00001000
00000100
00000010
00000002
,
00000000
00000000
00000000
00000000
,
00000000
00000000
00000003
00000000
;
