#VERSION:0.83;
#TITLE:Aleph-0;
#ARTIST:LeaF & Optie;
#BANNER:Aleph-0.png;
#BACKGROUND:Aleph-0-bg.png;
#JACKET:Aleph-0-jacket.png;
#MUSIC:Aleph-0.ogg;
#OFFSET:0.027;
#SAMPLESTART:10.53;
#SAMPLELENGTH:15;
#BPMS:0=10.417,1=125,56=250,172=35,180=70,229=135,229.5=219,231=250,248=251,249=252,250=253,251=254,252=255,253=256,254=257,255=258,256=259,257=260,258=261,259=262,260=263,261=264,262=265,263=266,264=267,265=268,266=269,267=270,268=271,269=272,270=273,271=274,272=275,273=276,274=277,275=278,276=279,277=280,278=281,279=282,280=283,281=284,282=285,283=286,284=287,285=288,286=289,287=290,288=291,289=292,290=293,291=294,292=295,293=296,294=297,295=298,296=299,297=300,298=301,299=302,300=303,301=304,302=305,303=306,304=307,305=308,306=309,307=310,308=311,309=312,310=313,311=314,312=315,313=316,314=317,315=318,316=319,317=320,318=321,319=322,320=323,321=324,322=325,323=326,324=327,325=328,326=329,327=330,328=331,329=332,330=333,331=334,332=335,333=336,334=337,335=338,336=339,337=340,338=341,339=342,340=343,341=344,342=345,343=346,344=347,345=348,346=349,347=350,348=351,349=352,350=353,351=354,352=355,353=356,354=357,355=358,356=359,357=360,358=361,359=362,360=363,361=364,362=365,363=366,364=367,365=368,366=369,367=370,368=371,369=372,370=373,371=374,372=375,373=376,374=377,375=378,376=379,377=380,378=381,379=382,380=383,381=384,382=385,383=386,384=387,385=388,386=389,387=390,388=391,389=392,390=393,391=394,392=395,393=396,394=397,395=398,396=399,397=400,429=250,434=125,436=250,440=125,441=250,447=125,449=250,453=125,454=250,465=125,469=250,597=7.8125,598=125;
#STOPS:53=0.96,139=0.72,229=0.76,229.458=0.407,429=1.44;
#WARPS:1=52,94=45,181=48;
#SCROLLS:0=0.1,1=0.5,53=0.333,56=1,95=0.5,139=1,172=1.5,180=0.75,181=0.5,229=1,397=0.25,429=1,457.333=0.975,457.667=0.95,458=0.925,458.333=0.9,458.667=0.875,459=0.85,459.333=0.825,459.667=0.8,460=0.775,460.333=0.75,460.667=0.725,461=0.7,461.333=0.675,461.667=0.65,462=0.625,462.333=0.6,462.667=0.575,463=0.55,463.333=0.525,463.667=0.5,469=0.75,533=1,541=0.75,545=1,561=0.75,565=1,573=0.75,577=1,593=0.75,597=1;
#TIMESIGNATURES:0=1=4,1=4=4,53=3=4,56=4=4,64=2=4,66=4=4,94=1=4,95=4=4,139=1=4,140=4=4,180=1=4,181=4=4,229=2=4,231=4=4,375=3=4,393=4=4,429=2=4,431=6=4,437=7=4,444=6=4,450=7=4,457=4=4,597=1=4,598=4=4;

//---------------dance-single - t7r-bSP----------------
#NOTEDATA:;
#CHARTNAME:t7r-bSP;
#STEPSTYPE:dance-single;
#DESCRIPTION:t7r-bSP;
#DIFFICULTY:Beginner;
#METER:6;
#CREDIT:t7r;
#NOTES:
0000
0000
0000
1000
,
1000
1000
0001
0001
,
0001
0000
0100
0000
,
0010
0000
1000
0000
,
0100
0100
0100
0000
,
0010
0010
0010
0000
,
0001
0001
0001
0000
,
1000
1000
1000
0000
,
0010
0010
0010
0000
,
0100
0100
0100
0000
,
0000
0000
0000
0000
,
0000
0000
0000
0000
,
0000
0000
0000
0000
,
0000
0000
0000
0000
,
1000
0000
1000
0000
,
1000
0000
0001
0000
,
0001
0000
0001
0000
,
0000
0000
0100
0000
,
0000
0000
0010
0000
,
0000
0000
1000
0000
,
0000
0000
0100
0000
,
0100
0000
0100
0000
,
0000
0000
0010
0000
,
0010
0000
0010
0000
,
0001
0001
0000
1000
,
1000
1000
0000
0010
,
0010
0010
0000
0100
,
0100
0100
0000
0010
,
1000
0001
0010
0000
,
0000
0000
0000
0000
,
0000
0000
0000
0000
,
0000
0000
0000
0000
,
0000
0000
0000
0000
,
0000
0000
0000
0000
,
0000
0000
0000
0010
,
0000
0000
0001
0000
,
0001
0000
0000
0000
,
1000
0000
1000
0000
,
1000
0000
0000
0000
,
0010
0000
0010
0000
,
0010
0000
0000
0000
,
0100
0000
0100
0000
,
0100
0000
0000
0000
,
0010
0000
1000
0000
,
0001
0000
0010
0000
,
0000
0000
0000
0000
,
0000
0000
0000
0000
,
0000
0000
0000
0000
,
0000
0000
0000
0000
,
0000
0000
0000
0000
,
0000
0000
0000
0000
,
0000
0000
0000
0000
,
0000
0000
0000
0000
,
0000
0000
0000
0000
,
0000
0000
0000
0000
,
0000
0000
0000
0000
,
0000
0000
0000
0000
,
0000
0000
0000
0000
,
0000
0000
0000
0000
,
0000
0000
0000
0000
,
0000
0000
0000
0000
,
0000
0000
0000
1000
,
0000
0000
0000
1000
,
0000
0000
0000
0100
,
0000
0000
0000
0100
,
0000
0000
0000
0010
,
0000
0000
0000
0010
,
0000
0000
0000
0001
,
0000
0000
0000
0001
,
0000
0000
0000
0100
,
0000
0000
0000
0010
,
0000
0000
0000
1000
,
0000
0000
0000
0001
,
0000
0000
0000
0010
,
0000
0000
0000
0100
,
0000
0000
0000
1000
,
0000
0000
0000
0001
,
0000
0000
0000
0100
,
0000
0000
0000
0100
,
0000
0000
0000
0010
,
0000
0000
0000
0010
,
0000
0000
0000
1000
,
0000
0000
0000
1000
,
0000
0000
0000
0001
,
0000
0000
0000
0001
,
0000
0000
0000
0010
,
0000
0000
0000
0010
,
0000
0000
0000
0100
,
0000
0000
0000
0100
,
0000
0000
0000
1000
,
0000
0000
0000
1000
,
0000
0000
0000
0001
,
0000
0000
0000
0001
,
0000
0000
0000
0100
,
0000
0000
0100
0000
,
0000
0010
0000
0000
,
0010
0000
0000
1000
,
0000
0000
1000
0000
,
0000
0001
0000
0000
,
0000
1001
0000
0000
,
0000
0000
0000
0000
,
0000
0000
0000
0000
,
0000
0000
0000
0000
,
0000
2002
0000
0000
,
0000
0000
0000
0000
,
0000
0000
0000
0000
,
0000
0000
0000
0000
,
0000
3003
0000
0100
,
0000
0000
0200
0000
,
0300
0000
0000
0000
,
0020
0030
0000
0000
,
1000
0000
0000
2000
,
0000
3000
0000
0000
,
0000
0002
0003
0000
,
0000
2000
0000
0000
,
0000
0000
0000
0000
,
0000
3002
0000
0000
,
0000
0103
0000
0000
,
0000
0010
0000
0000
,
0000
1000
0000
0000
,
0000
0001
0000
0000
,
0000
0010
0000
0000
,
0000
0100
0000
0000
,
0000
1000
0000
0000
,
0000
0001
0000
0000
,
0000
1000
0000
1000
,
0000
1000
0000
0000
,
0000
0001
0000
0001
,
0000
0001
0000
0000
,
0000
0100
0000
0100
,
0000
0100
0000
0000
,
0000
0010
0000
0010
,
0000
0010
0000
0000
,
0000
1000
1000
1000
,
0000
0001
0001
0001
,
0000
1000
0000
0000
,
0000
0001
0001
0001
,
0000
0100
0100
0100
,
0000
0010
0010
0010
,
0000
1000
1000
1000
,
0000
0001
0000
0000
,
0000
0010
0010
0010
,
0000
0100
0100
0100
,
0000
0010
0000
0000
,
0000
0001
0001
0001
,
0000
1000
1000
1000
,
0000
0010
0010
0010
,
0000
0100
0100
0100
,
0000
0010
0000
0000
,
0000
2000
3000
0000
;

//---------------dance-single - t7r-BSP----------------
#NOTEDATA:;
#CHARTNAME:t7r-BSP;
#STEPSTYPE:dance-single;
#DESCRIPTION:t7r-BSP;
#DIFFICULTY:Easy;
#METER:11;
#CREDIT:t7r;
#NOTES:
0000
0000
0000
0000
0000
0000
1000
0100
,
0010
0001
0100
0010
1000
0001
0010
0100
,
1000
0000
0001
0000
0100
0000
0010
0000
1000
0000
0000
0100
0000
0000
1000
0000
,
0001
0000
0010
0000
0100
0000
0010
0000
0001
0000
0000
0100
0010
0000
1000
0000
,
0001
0000
0100
0000
0010
0000
0100
0000
0001
0000
0000
1000
0000
0000
0010
0000
,
1000
0100
0000
0000
1000
0000
1000
0000
0001
0000
0000
0000
1000
0000
0010
0000
,
0001
0000
0010
0000
1000
0000
0000
0001
0000
0000
1000
0000
0001
0000
0010
0000
,
1000
0000
0010
0000
0001
0000
0000
1000
0001
0000
1000
0000
0001
0000
0100
0000
,
1000
0000
0100
0000
0010
0000
0000
0100
0000
0000
0001
0000
1000
0100
0000
0010
,
0100
0010
0002
0000
1003
0010
0000
0000
,
0000
0000
0000
0000
,
0000
0000
0000
0000
,
0000
0000
0000
0000
,
0000
0000
0000
0000
,
1000
0100
0010
0001
,
0100
0010
1000
0001
,
0010
0100
1000
0001
,
0100
0000
0010
0000
1000
0000
0000
0100
,
0000
1000
0001
0010
,
0100
0000
0010
0000
0001
0000
0000
0100
,
0010
1000
0001
0100
,
0010
0000
0100
0000
0001
0000
0000
1000
,
0000
0000
0010
0000
1000
0100
0000
0000
,
1000
0000
1000
0000
0001
0000
1000
0010
,
0001
0000
0010
0000
1000
0000
0000
0001
0000
0000
1000
0000
0001
0000
0010
0000
,
1000
0000
0010
0000
0001
0000
0000
1000
0001
0000
1000
0000
0001
0000
0100
0000
,
1000
0000
0100
0000
0010
0000
0000
0100
0000
0000
0001
0000
1000
0100
0000
0010
,
0100
0000
0000
0000
0000
0000
0000
0000
0010
0000
0000
0000
0000
0000
0000
0000
0002
0000
0000
0000
0000
0000
0000
0000
0000
0000
0000
0000
0000
0000
0000
0000
1003
0000
0000
0000
0000
0000
0000
0000
0010
0000
0000
0000
0000
0000
0000
0000
0200
0000
0000
0000
0000
0000
0000
0000
0310
0000
2000
0000
3001
0200
0000
0000
,
0320
0000
0000
0000
0000
0000
0000
0000
0030
0000
0000
0000
0000
0000
0000
0000
2000
0000
0000
0000
0000
0000
0000
0000
0000
0000
3200
0000
0310
0002
0000
0000
0203
0000
0000
0000
0000
0000
0000
0000
0310
0000
0010
0000
0010
0000
0010
0000
0000
0000
0000
0000
0000
0000
0000
0000
0000
0000
0000
0000
0000
0000
0000
0000
,
0000
0000
0000
0000
,
0000
0000
0000
0000
,
0000
0000
0000
0000
,
0000
0000
0000
0000
,
0000
0000
0000
0000
,
0000
0000
0000
0001
,
1000
0010
0001
0010
,
1000
0000
0000
0001
0000
0000
1000
0000
,
0001
0010
1000
0010
,
0001
0000
0000
1000
0001
0000
1000
0000
,
0001
0100
1000
0100
,
0010
0000
0000
0100
0000
0000
0001
0000
,
1000
0100
0000
0010
0100
0000
0010
0000
,
0002
0000
1003
0010
,
0200
0000
0000
0000
0000
0000
0000
0000
0310
0000
2000
0000
3001
0200
0000
0000
0320
0000
0000
0000
0000
0000
0000
0000
0030
0000
0000
0000
0000
0000
0000
0000
,
2000
0000
0000
0000
0000
0000
0000
0000
0000
0000
3200
0000
0310
0002
0000
0000
0203
0000
0000
0000
0000
0000
0000
0000
0310
0000
0010
0000
0010
0000
0010
0000
,
0000
0000
0000
0000
,
0000
0000
0000
0000
,
0000
0000
0000
0000
,
0000
0000
0000
0000
,
0000
0000
0000
0000
,
0000
0000
0000
0000
,
0000
0000
0000
0000
,
0000
0000
0000
0000
,
0000
0000
0000
0000
,
0000
0000
0000
0000
,
0000
0000
0000
0000
,
0000
0000
0000
0000
,
0000
0000
0000
0000
,
0000
0000
0000
0000
,
0000
0000
0000
0000
,
0000
0000
0000
0000
,
0000
0000
0000
1000
,
0100
0010
0100
0100
,
1000
0001
0001
0100
,
0010
0100
0000
0001
,
0001
1000
1000
0001
,
0010
0100
0010
0010
,
0001
1000
1000
0010
,
0100
0010
0000
1000
,
1000
0001
0001
1000
,
0100
0001
0100
0100
,
0010
0100
0100
1000
,
0001
0100
0000
0001
,
0001
1000
1000
0001
,
0010
1000
0010
0010
,
0100
0010
0010
0001
,
1000
0010
0000
1000
,
1000
0001
0001
0100
,
0010
0100
1000
0100
,
0010
0100
0001
0100
,
0010
0100
0000
0001
,
0001
1000
1000
0100
,
0010
0100
0001
0100
,
0010
0100
1000
0001
,
0100
0010
0000
1000
,
1000
0001
0001
1000
,
0100
0000
0010
0001
,
0000
1000
0100
0000
,
0010
0001
0000
1000
,
1000
0001
0001
1000
,
0010
0000
0001
0010
,
0000
1000
0100
0000
,
0001
0100
0000
1000
,
1000
0001
0001
0100
,
0000
0000
0010
0000
,
0000
1000
0000
0000
,
0100
0000
0000
0010
,
0000
0000
0001
0000
,
0000
1000
0000
0000
,
0000
2002
0000
0000
,
0000
0000
0000
0000
,
0000
0000
0000
0000
,
0000
0000
0000
0000
,
3003
0001
1000
0001
,
1000
0001
1000
0001
,
1000
0001
1000
0001
,
1000
0001
1000
0001
,
1000
0001
0000
1000
,
0000
0100
0000
0000
0020
0000
0000
0000
,
0031
0000
1000
0000
0010
0100
0000
0000
,
0002
0000
1003
0000
0000
1001
0000
0000
,
0001
0000
0000
0100
0000
0000
0020
0000
,
0000
0000
1030
0000
0001
0000
0010
0100
,
0000
0000
2000
0000
3001
0000
0100
0020
,
0000
2030
0000
0000
,
0000
0000
0000
0000
,
0000
3200
0000
0310
,
0001
2000
0000
0100
,
0000
3002
0000
0010
,
0000
0203
0000
1000
,
0000
0320
0000
0100
,
0000
2030
0000
0100
,
0000
3002
0000
0100
,
0000
2003
0000
3020
,
0000
0032
0000
0023
,
0000
2030
0000
0100
,
0000
3002
0000
0203
,
0000
0302
0000
0023
,
0000
0230
0000
0001
,
0000
0320
0000
1000
,
0000
0100
0000
0001
,
0000
0230
0000
0000
,
0000
2300
0000
3002
,
0000
0103
0100
0100
,
0100
0100
0100
0100
,
0100
0020
0000
0000
,
0000
1030
1000
1000
,
1000
1000
1000
1000
,
1000
1000
1000
1000
,
1000
1000
1000
1000
,
1000
0002
0000
0203
,
0000
0301
0001
0001
,
0001
0001
0001
0001
,
0001
0020
0000
0230
,
0000
1300
1000
1000
,
1000
1000
1000
1000
,
1000
1000
1000
1000
,
1000
1000
1000
1000
,
1000
0020
0000
0230
,
0000
0302
0003
0000
;

//---------------dance-single - t7r-DSP----------------
#NOTEDATA:;
#CHARTNAME:t7r-DSP;
#STEPSTYPE:dance-single;
#DESCRIPTION:t7r-DSP;
#DIFFICULTY:Medium;
#METER:14;
#CREDIT:t7r;
#NOTES:
0000
0000
0000
1100
,
0011
1001
0110
0101
,
1010
0000
1000
0100
1000
0000
0001
0000
1000
0000
0000
0100
0010
0000
0100
0000
,
1000
0001
0000
0100
0001
0000
1000
0000
0001
0000
0000
0100
0010
0000
0100
0000
,
0101
0000
0001
0010
0001
0000
1000
0000
0001
0000
0000
0010
0100
0000
0010
0000
,
0001
1000
0000
0010
1000
0000
0001
0000
1001
0000
0000
0000
1000
0000
0100
0010
,
0001
0000
0100
0000
0010
0000
0000
1000
0001
0000
0010
0000
0001
0000
0100
0010
,
1000
0000
0001
0000
0010
0000
0000
0100
0010
0000
0001
0000
1000
0000
0001
0100
,
0010
0000
0100
0000
0001
0000
0000
0010
0001
0000
1000
0000
0001
0100
0000
1000
,
0100
0010
0200
0300
1001
0010
1100
0000
,
0000
0000
0000
0000
,
0000
0000
0000
0000
,
0000
0000
0000
0000
,
0000
0000
0000
0000
,
1100
0000
0011
0000
,
1001
0000
0110
0000
,
0101
0000
0000
0000
1010
0000
1000
0100
,
1000
0000
0001
0000
1000
0000
0000
0100
,
0010
0000
0100
0000
1000
0001
0000
0100
,
0001
0000
1000
0000
0001
0000
0000
0100
,
0010
0000
0100
0000
0101
0000
0001
0010
,
0001
0000
1000
0000
0001
0000
0000
0010
,
0100
0000
0010
0000
0001
1000
0000
0010
,
1000
0000
0000
0000
0001
0000
0000
0000
1001
0000
0000
0000
1000
0000
0100
0010
,
0001
0000
0100
0000
0010
0000
0000
1000
0001
0000
0010
0000
0001
0000
0100
0010
,
1000
0000
0001
0000
0010
0000
0000
0100
0010
0000
0001
0000
1000
0000
0001
0100
,
0010
0000
0100
0000
0001
0000
0000
0010
0001
0000
1000
0000
0001
0100
0000
1000
,
0100
0000
0000
0000
0000
0000
0000
0000
0010
0000
0000
0000
0000
0000
0000
0000
0200
0000
0000
0000
0000
0000
0000
0000
0300
0000
0000
0000
0000
0000
0000
0000
1001
0000
0000
0000
0000
0000
0000
0000
0010
0000
0000
0000
0000
0000
0000
0000
1100
0000
0000
0000
0001
0000
0100
0000
0001
0000
0020
0000
0130
1000
0000
0000
,
0020
0000
0000
1030
0100
0000
0010
0000
0001
0000
1000
0000
0010
0010
0000
0000
1002
0000
0100
0000
1003
0000
0000
0000
0100
0000
0020
0000
0031
0100
0000
0000
0001
0000
0010
0000
0100
0000
1000
0000
0010
0100
0001
0000
1000
1000
0001
0001
0000
0000
0000
0000
0000
0000
0000
0000
0000
0000
0000
0000
0000
0000
0000
0000
,
0000
0000
0000
0000
,
0000
0000
0000
0000
,
0000
0000
0000
0000
,
0000
0000
0000
0000
,
0000
0000
0000
0000
,
0000
0000
0000
1001
,
1000
0000
0100
0010
0001
0000
0100
0000
,
0010
0000
0000
1000
0001
0000
0010
0000
,
0001
0000
0100
0010
1000
0000
0001
0000
,
0010
0000
0000
0100
0010
0000
0001
0000
,
1000
0000
0001
0100
0010
0000
0100
0000
,
0001
0000
0000
0010
0001
0000
1000
0000
,
0001
0100
0000
1000
0100
0000
0010
0000
,
0200
0300
1001
0010
,
1100
0000
0000
0000
0001
0000
0100
0000
0001
0000
0020
0000
0130
1000
0000
0000
0020
0000
0000
1030
0100
0000
0010
0000
0001
0000
1000
0000
0010
0010
0000
0000
,
1002
0000
0100
0000
1003
0000
0000
0000
0100
0000
0020
0000
0031
0100
0000
0000
0001
0000
0010
0000
0100
0000
1000
0000
0010
0100
0001
0000
1000
1000
0001
0001
,
0000
2002
0000
0000
,
0000
0000
0000
0000
,
0000
0000
0000
0000
,
0000
0000
0000
0000
,
0000
0000
0000
0000
,
0000
0000
0000
0000
,
0000
0000
0000
0000
,
0000
0000
0000
0000
,
0000
0000
0000
0000
,
0000
0000
0000
0000
,
0000
3003
0000
0000
,
0000
0000
0000
0000
,
0000
2002
0000
3003
,
0000
0000
0000
0000
,
0000
0000
0000
0000
,
0000
0000
0000
0000
,
0000
0000
0000
1000
,
0100
0000
0010
0000
0100
0000
1000
0010
,
0000
0010
1000
0000
0001
0000
0010
0001
,
0000
0001
1000
0000
0001
0000
0010
0000
,
0110
0010
0011
0001
,
0100
0000
0010
0000
0100
0000
0001
0010
,
0000
0010
0001
0000
1000
0000
0010
1000
,
0000
1000
0001
0000
1000
0000
0100
0000
,
0110
0100
1100
1000
,
0000
0010
0000
0000
0001
0000
0010
0100
,
0000
0100
0001
0000
1000
0000
0100
0010
,
0000
0010
0001
0000
1000
0000
0100
0000
,
1100
1000
1001
0001
,
0000
0100
0000
0000
1000
0000
0100
0010
,
0000
0010
1000
0000
0001
0000
0010
0100
,
0000
0100
1000
0000
0001
0000
0010
0000
,
0011
0001
1001
0001
,
0100
0001
0010
0100
,
1000
0000
0100
0000
0001
0000
0100
0010
,
0000
0010
0001
0000
1000
0000
0001
0000
,
1001
1000
1100
1000
,
0010
1000
0100
0010
,
0001
0000
0010
0000
1000
0000
0010
0100
,
0000
0100
1000
0000
0001
0000
1000
0000
,
1001
0001
0011
0001
,
0100
0010
1000
0001
,
0100
0000
0010
0000
1000
0000
0100
0010
,
0000
0010
0100
0000
0000
0000
1000
0000
,
1000
0001
1001
1000
,
0100
0010
0100
1000
,
0010
0000
0100
0000
0001
0000
0010
0100
,
0000
0100
0010
0000
0000
0000
0001
0000
,
0001
0000
1000
0000
1001
0000
0001
0100
,
0001
0000
0000
0000
1000
0100
1000
0000
,
0000
0000
0001
0010
0001
0000
0000
0000
,
1000
0010
1000
0000
0000
0000
0001
1000
,
0001
0000
0000
0000
1000
0001
1000
0000
,
0000
0000
0010
0100
0010
0000
1000
0100
,
1000
0002
0000
0000
,
0000
0000
0000
0000
,
0000
0000
0000
0000
,
0000
0000
0000
0000
,
0000
0103
0100
0100
,
0100
0100
0100
0100
,
0100
0001
0001
1000
,
1000
0100
0100
0010
,
0010
0000
0001
0000
0000
0000
1000
0100
,
0000
0010
0001
0000
2002
0000
0000
0000
,
3003
0000
0001
0100
0000
0010
1000
0000
,
2001
0000
3010
0000
0100
0001
0000
1000
,
0001
0100
0000
1000
0100
0000
0220
0000
,
0000
0000
0330
0000
1000
0100
0000
0001
,
0100
0000
0210
0000
0310
0000
0001
1000
,
0000
0010
0200
0000
0000
0000
0000
0000
,
0000
0000
0000
0000
,
0000
0300
0220
0000
0000
0000
0000
0000
,
0000
0330
2001
0000
0000
0000
0100
0000
,
0000
3002
0000
0023
,
0000
0032
0000
0100
,
0000
2003
0000
3020
,
0000
2030
0000
0100
,
0000
3002
0000
0023
,
0000
2030
0000
3002
,
0000
0203
0000
2300
,
0000
3020
0000
0001
,
0000
0230
0000
1000
,
0000
0320
0000
0230
,
0000
0302
0000
0010
,
0000
2003
0000
0100
,
0000
0001
0000
0010
,
0000
3200
0000
0001
,
0000
0320
0000
0230
,
0000
0000
1300
0100
1000
0000
0001
0100
,
0001
0000
1000
0010
1000
0010
1000
0001
,
1000
0002
0000
0000
,
0000
0000
0013
0100
0010
0000
0100
1000
,
0100
0000
1000
0001
1000
0001
0100
0001
,
0100
0000
0001
1000
0001
1000
0001
1000
,
0001
1000
0100
0010
0100
0010
0100
0010
,
0100
0010
0002
0000
0000
0000
0203
0000
,
0000
0000
0310
1000
0010
1000
0001
0010
,
0001
0010
0100
1000
0100
1000
0001
0100
,
0001
0100
0020
0000
0000
0000
0230
0000
,
0000
0000
0301
1000
0001
1000
0100
0010
,
0100
0010
0001
0100
0001
0100
0010
1000
,
0010
1000
0100
0010
0100
0010
0001
1000
,
0001
1000
0010
0100
0010
0100
0001
1000
,
0001
1000
0200
0000
0000
0000
0320
0000
,
0000
0030
2002
0000
3003
0000
0000
0000
;

//---------------dance-single - forcednature-ESP----------------
#NOTEDATA:;
#CHARTNAME:forcednature-ESP;
#STEPSTYPE:dance-single;
#DESCRIPTION:forcednature-ESP;
#DIFFICULTY:Hard;
#METER:16;
#CREDIT:forcednature;
#NOTES:
0000
0000
0000
0000
0000
0000
0000
0000
0000
0000
0000
0000
1100
0000
0001
0010
,
0100
0000
1000
0001
0100
0010
1000
0000
0101
0000
1000
0100
0010
0001
1000
0000
,
0110
0000
0001
0010
0100
0000
0011
0000
1100
0000
1000
0010
0000
0001
0010
0000
,
0100
0001
0010
0001
0100
0000
0010
0000
1100
0000
0001
0010
1000
0000
0010
0000
,
0011
0000
0001
0100
0010
0000
1010
0000
1100
0000
0001
0010
0000
0001
0100
0000
,
0010
0001
0010
1000
0010
0000
0110
0000
1001
0000
0000
0000
1100
0000
0001
0100
,
0010
0000
0011
0000
1010
0000
1000
0100
0000
0001
0100
0000
0010
0001
1000
0001
,
0100
0000
1010
0000
1100
0000
1000
0100
0001
0000
0100
0000
0110
0000
0010
0001
,
0100
0000
1100
0000
0101
0000
0001
1000
0000
0100
0010
0000
0001
0100
0010
0100
,
1000
0000
0100
0001
1000
0000
0100
0000
1001
0000
0000
0000
0000
0000
0000
0000
,
0000
0000
0000
0000
,
0000
0000
0000
0000
,
0000
0000
0000
0000
,
0000
0000
0000
0000
,
1100
0000
0001
0010
0100
0000
1000
0001
,
0100
0010
1000
0000
0101
0000
1000
0100
,
0010
0001
1000
0000
0110
0000
0001
0010
,
0100
0000
0011
0000
1100
0000
1000
0010
,
0000
0001
0010
0000
0100
0001
0010
0001
,
0100
0000
0010
0000
1100
0000
0001
0010
,
1000
0000
0010
0000
0011
0000
0001
0100
,
0010
0000
1010
0000
1100
0000
0001
0010
,
0000
0001
0100
0000
0010
0001
0010
1000
,
0010
0000
0000
0000
0110
0000
0000
0000
1001
0000
0000
0000
1100
0000
0001
0100
,
0010
0000
0011
0000
1010
0000
1000
0100
0000
0001
0100
0000
0010
0001
1000
0001
,
0100
0000
1010
0000
1100
0000
1000
0100
0001
0000
0100
0000
0110
0000
0010
0001
,
0100
0000
1100
0000
0101
0000
0001
1000
0000
0100
0010
0000
0001
0100
0010
0100
,
1000
0000
0000
0000
0000
0000
0000
0000
0000
0000
0000
0000
0000
0000
0000
0000
0000
0000
0000
0000
0000
0000
0000
0000
0100
0000
0000
0000
0000
0000
0000
0000
0000
0000
0000
0000
0001
0000
0000
0000
0000
0000
0000
0000
0000
0000
0000
0000
1000
0000
0000
0000
0000
0000
0000
0000
0000
0000
0000
0000
0000
0000
0000
0000
0000
0000
0000
0000
0000
0000
0000
0000
0100
0000
0000
0000
0000
0000
0000
0000
0000
0000
0000
0000
0000
0000
0000
0000
0000
0000
0000
0000
0000
0000
0000
0000
1001
0000
0000
0000
0000
0000
0000
0000
0000
0000
0000
0000
0000
0000
0000
0000
0000
0000
0000
0000
0000
0000
0000
0000
0010
0000
0000
0000
0000
0000
0000
0000
0000
0000
0000
0000
0000
0000
0000
0000
0000
0000
0000
0000
0000
0000
0000
0000
0220
0000
0000
0000
0000
0000
0000
0330
0000
0000
0000
0000
1000
0000
0000
0000
0000
0000
0001
0000
0000
0000
0000
0000
0100
0000
0000
0000
0000
0000
1010
0000
0000
0000
0000
0000
0001
0000
0000
0101
0000
0000
0000
0000
0000
0000
0000
0000
,
1001
0000
0000
0000
0000
0000
0000
0000
0000
1000
0000
0000
1000
0000
0000
0000
0000
0000
0010
0000
0000
0000
0000
0000
0100
0000
0000
0001
0000
0000
0100
0000
0000
0000
0000
0000
0020
0000
0000
1000
0000
0000
0000
0030
0000
0000
0000
0000
0101
0000
0000
0000
0000
0000
0001
0000
0000
1000
0000
0000
0100
0000
0000
0000
0000
0000
0010
0000
0000
0000
0000
0000
0100
0000
0000
0000
0000
0000
1100
0000
0000
0000
0000
0000
0010
0000
0000
0011
0000
0000
0000
0000
0000
0000
0000
0000
1001
0000
0000
0000
0000
0000
0001
0000
0000
0100
0000
0000
0010
0000
0000
0000
0000
0000
1000
0000
0000
0001
0000
0000
0010
0000
0000
0000
0000
0000
0100
0000
0000
1000
0000
0000
0001
0000
0000
0100
0000
0000
0001
0000
0000
0100
0010
0000
0000
0000
0000
0000
0000
0000
0000
0000
0000
0000
0000
0000
0000
0000
0000
0000
0000
0000
0000
0000
0000
0000
0000
0000
0000
0000
0000
0000
0000
0000
0000
0000
0000
0000
0000
0000
0000
0000
0000
0000
0000
0000
0000
0000
0000
0000
0000
0000
,
0000
0000
0000
0000
,
0000
0000
0000
0000
,
0000
0000
0000
0000
,
0000
0000
0000
0000
,
0000
0000
0000
0000
,
0000
0000
0000
1001
,
1100
0000
0001
0100
0010
0000
0011
0000
,
1010
0000
1000
0100
0000
0001
0100
0000
,
0010
0001
1000
0001
0100
0000
1010
0000
,
1100
0000
1000
0100
0001
0000
0100
0000
,
0110
0000
0010
0001
0100
0000
1100
0000
,
0101
0000
0001
1000
0000
0100
0010
0000
,
0001
0100
0010
0100
1000
0000
0100
0001
,
1000
0100
1001
0010
,
0220
0000
0000
0000
0000
0330
0000
0000
1000
0000
0000
0000
0001
0000
0000
0000
0100
0000
0000
0000
1010
0000
0000
0000
0001
0000
0101
0000
0000
0000
0000
0000
1001
0000
0000
0000
0000
0000
1000
0000
1000
0000
0000
0000
0010
0000
0000
0000
0100
0000
0001
0000
0100
0000
0000
0000
0020
0000
1000
0000
0000
0030
0000
0000
,
0101
0000
0000
0000
0001
0000
1000
0000
0100
0000
0000
0000
0010
0000
0000
0000
0100
0000
0000
0000
1100
0000
0000
0000
0010
0000
0011
0000
0000
0000
0000
0000
1001
0000
0000
0000
0001
0000
0100
0000
0010
0000
0000
0000
1000
0000
0001
0000
0010
0000
0000
0000
0100
0000
1000
0000
0001
0000
0100
0000
0001
0000
0100
0010
,
0000
0000
0000
0000
0000
0000
0000
0000
2002
0000
0000
3003
0000
0000
0000
0000
0000
0000
0000
0000
0000
0000
0000
0000
0000
0000
0000
0000
0000
0000
0000
0000
,
0000
0000
0000
0000
,
0000
0000
0000
0000
,
0000
0000
0000
0000
,
0000
0000
0000
0000
,
0000
0000
0000
0000
,
0000
0000
0000
0000
,
0000
0000
0000
0000
,
0000
0000
0000
0000
,
0000
0000
0000
0000
,
0000
0000
0000
0000
,
0000
0000
0000
0000
,
0000
2002
0000
3003
,
0000
0000
0000
0000
,
0000
0000
0000
0000
,
0000
0000
0000
0000
,
0000
0000
0100
1001
,
1000
0100
1000
0000
0001
0000
0100
0010
,
0000
0010
1000
0000
0001
0000
0010
0100
,
0000
0100
0010
0000
0001
0000
0101
0000
,
0011
1100
1010
1001
,
0001
0100
0001
0000
1000
0000
0010
0100
,
0000
0100
0001
0000
0010
0000
0100
1000
,
0000
1000
0010
0000
0100
0000
0101
0000
,
1010
1100
0011
1001
,
1000
0010
1000
0000
0100
0000
0010
0001
,
0000
0001
0100
0000
0010
0000
1000
0100
,
0000
0100
0010
0000
0001
0000
0101
0000
,
1100
0011
1010
1001
,
1000
0010
1000
0000
0001
0000
0010
0100
,
0000
0100
1000
0000
0001
0000
0100
0010
,
0000
0010
1000
0000
0001
0000
0011
0000
,
0101
0000
1010
0000
1100
0000
0001
0100
,
0010
0100
0001
0000
1000
0000
0100
0010
,
0001
0010
0100
0000
1000
0000
0001
0010
,
0000
1000
0010
0000
0100
0000
1100
0000
,
1010
0000
1100
0000
1010
0000
1000
0100
,
0010
0100
1000
0000
0001
0000
0100
0010
,
1000
0010
0100
0000
0001
0000
1000
0010
,
0000
0001
0010
0000
0100
0000
0101
0000
,
0011
0000
0101
0000
0011
0000
0001
0100
,
0010
1000
0001
0000
0100
0000
0001
0010
,
0100
1000
0001
0000
0010
0000
0100
0001
,
0000
0100
1000
0000
0010
0000
0110
0000
,
1001
0000
0110
0000
1001
0000
1000
0100
,
0010
0001
1000
0000
0100
0000
1000
0010
,
0100
0001
1000
0000
0010
0000
0100
1000
,
0000
0100
0001
0000
0010
0000
0110
0000
,
1001
0000
0110
0000
1001
0000
1000
0100
,
0010
0100
1000
0000
0001
0100
0010
0100
,
0001
0000
1000
0010
0100
0010
1000
0000
,
0001
0010
0100
0010
0001
0000
0100
0010
,
1000
0001
0010
0000
0100
0010
0001
1000
,
0010
0000
1000
0100
0010
0001
1000
0010
,
0100
0001
0020
0000
0000
0000
0000
0000
,
0000
0000
0000
0000
,
0000
0000
0000
0000
,
0000
0000
0000
0000
,
0000
0000
0031
1000
0001
1000
0001
1000
,
0001
1000
0001
1000
0001
1000
0001
1000
,
0001
1000
0001
1000
0001
1000
0001
1000
,
0001
1000
0001
1000
0001
1000
0001
1000
,
0001
1000
0020
0000
0030
0000
1000
0100
,
0001
0100
0010
0000
0012
0000
0000
0000
,
1003
0000
0001
0100
1000
0100
0010
0000
,
2010
0000
3100
0001
0100
0010
0001
0000
,
1000
0010
0001
0010
0100
0000
0102
0000
,
0000
0000
1003
0000
0001
0010
1000
0010
,
0100
0000
2100
0000
3010
0001
0010
0100
,
0001
1000
0200
0000
0000
0000
0000
0000
,
0000
0000
0000
0000
,
0300
2002
0000
0000
,
0000
3003
0000
0000
1200
0000
0000
0000
0000
0000
0000
0000
0010
0000
0000
0000
,
0000
2300
0000
3020
,
0000
0230
0000
0001
,
0000
0320
0000
2030
,
0000
3002
0000
0010
,
0000
2003
0000
3200
,
0000
0320
0000
0032
,
0000
0203
0000
0320
,
0000
0030
0000
0000
2001
0000
0000
0000
0000
0000
0000
0000
0100
0000
0000
0000
,
0000
3020
0000
0230
,
0000
0302
0000
0023
,
0000
0230
0000
1000
,
0000
0320
0000
0100
,
0000
1000
0000
0100
,
0000
0032
0000
0100
,
0000
2003
0000
3020
,
0000
0000
0130
1000
0100
0001
0010
0100
,
0010
0001
1000
0010
0001
0010
0100
0001
,
1000
0100
0020
0000
0000
0000
0000
0000
,
0000
0000
0031
0100
1000
0100
0010
1000
,
0001
0010
0100
0001
0100
0010
0001
1000
,
0001
0100
0010
0001
0010
1000
0001
0100
,
1000
0100
0010
1000
0100
0010
1000
0010
,
0001
1000
0002
0000
0000
0000
0203
0000
,
0000
0000
0301
0010
1000
0010
0100
1000
,
0010
0100
0001
0010
0100
1000
0010
0100
,
1000
0001
0020
0000
0000
0000
2030
0000
,
0000
0000
3100
0001
0100
0010
0001
1000
,
0100
1000
0010
0001
0010
1000
0100
0010
,
1000
0010
0001
0100
1000
0100
0010
1000
,
0100
0001
0100
1000
0010
0100
0001
0010
,
0100
0001
2000
0000
0000
0000
3020
0000
,
0000
0030
2002
0000
3003
0000
0000
0000
;

//---------------dance-single - RGTM-CSP----------------
#NOTEDATA:;
#CHARTNAME:RGTM-CSP;
#STEPSTYPE:dance-single;
#DESCRIPTION:RGTM-CSP;
#DIFFICULTY:Challenge;
#METER:18;
#CREDIT:RGTM;
#NOTES:
0000
0000
0000
0000
0000
0000
MMMM
MMMM
,
MMMM
MMMM
MMMM
MMMM
MMMM
MMMM
MMMM
MMMM
,
MMMM
MMMM
MMMM
MMMM
MMMM
MMMM
MMMM
MMMM
,
MMMM
MMMM
MMMM
MMMM
MMMM
MMMM
MMMM
MMMM
,
MMMM
MMMM
MMMM
MMMM
MMMM
MMMM
MMMM
MMMM
,
MMMM
MMMM
MMMM
MMMM
MMMM
MMMM
MMMM
MMMM
,
MMMM
MMMM
MMMM
MMMM
MMMM
MMMM
MMMM
MMMM
,
MMMM
MMMM
MMMM
MMMM
MMMM
MMMM
MMMM
MMMM
,
MMMM
MMMM
MMMM
MMMM
MMMM
MMMM
MMMM
MMMM
,
MMMM
MMMM
MMMM
MMMM
MMMM
MMMM
MMMM
MMMM
,
MMMM
MMMM
MMMM
MMMM
MMMM
MMMM
MMMM
MMMM
,
MMMM
MMMM
0000
0000
0000
0000
0000
0000
,
0000
0000
0000
0000
,
0000
0000
0000
0000
,
1100
0000
0000
0000
0100
1000
0100
1000
0001
0000
0000
0000
0001
0000
0100
0000
,
0110
0000
0010
0000
1000
0000
0000
0000
1001
0000
0000
0000
0001
0010
0001
0010
,
0100
1000
0001
0000
1001
1000
0010
0100
,
0010
1000
0100
0000
0110
0000
0010
1001
,
0000
0000
0000
0001
1000
0000
0000
0000
0001
0000
0010
0000
0100
0000
0010
0000
,
0001
0100
0010
0000
1010
0000
1000
0100
,
0120
0000
0031
0000
1001
1000
0100
0010
,
0100
1000
0010
0000
0110
0000
0100
1001
,
0000
0000
0000
0001
1000
0000
0000
0000
0001
0000
0100
0000
0010
0000
0100
0000
,
0001
0000
0010
0000
0100
0000
0000
0000
0110
0000
0000
0000
1001
0001
0010
1000
,
0010
0000
0001
0000
0100
0000
0010
0000
0110
0000
0000
0000
1000
0000
0110
0000
0000
0000
0000
0001
1000
0000
0000
0000
1000
0000
0010
0000
0001
0000
0010
0000
,
1000
0100
0010
0000
0011
0000
0001
1000
0110
0001
1000
0000
1001
0001
0100
1000
,
0100
0000
0001
0000
0010
0000
0100
0000
0110
0000
0000
0000
0010
0000
1001
0000
0000
0000
0000
0001
1000
0000
0000
0000
1000
0000
0100
0000
0001
0000
1000
0000
,
0010
0000
0000
0000
0000
0000
0000
0000
0000
0000
0000
0000
0000
0000
0000
0000
0000
0000
0000
0000
0000
0000
0000
0000
0001
0000
0000
0000
0000
0000
0000
0000
0000
0000
0000
0000
0010
0000
0000
0000
0000
0000
0000
0000
0000
0000
0000
0000
1000
0000
0000
0000
0000
0000
0000
0000
0000
0000
0000
0000
0000
0000
0000
0000
0000
0000
0000
0000
0000
0000
0000
0000
0010
0000
0000
0000
0000
0000
0000
0000
0000
0000
0000
0000
0000
0000
0000
0000
0000
0000
0000
0000
0000
0000
0000
0000
0011
0000
0000
0000
0000
0000
0000
0000
0000
0000
0000
0000
0000
0000
0000
0000
0000
0000
0000
0000
0000
0000
0000
0000
0101
0000
0000
0000
0000
0000
0000
0000
0000
0000
0000
0000
0000
0000
0000
0000
0000
0000
0000
0000
0000
0000
0000
0000
0110
0000
0000
0000
0000
0000
0000
0000
0000
0000
0000
0000
0010
0000
0000
0000
0000
0000
1000
0000
0000
0001
1000
0000
0001
0000
0000
0000
0000
0000
0021
0000
0000
0000
0000
0000
0130
0000
0000
1100
0000
0000
0000
0000
0000
0000
0000
0000
,
1000
0001
0000
0000
0000
0000
0000
0000
0000
1001
0000
0000
0101
0000
0000
0000
0000
0000
0100
0000
0000
0000
0000
0000
0100
0000
0000
0020
0030
0000
0100
0000
0000
0000
0000
0000
0110
0000
0000
1010
0000
0000
0000
0000
0000
0001
0000
0000
1001
0000
0000
1000
0000
0000
0010
0000
0000
0100
0000
0000
0001
0000
0000
0010
0000
0000
0100
0000
0000
1000
0000
0000
0001
0000
0000
0100
0000
0000
0010
0000
0000
0100
0000
0000
1000
0000
0000
0001
0000
0000
0010
0000
0000
1000
0000
0000
0001
0000
0000
0010
0000
0000
0001
0000
0000
0100
0000
0000
0010
0000
0000
1000
0000
0000
0100
0000
0000
1000
0000
0000
0001
0000
0000
1000
0000
0000
0001
0000
0000
1000
0000
0000
0010
0100
0000
0010
0100
0000
0010
0100
0000
0010
0100
0000
MMMM
0000
0000
0000
0000
0000
0000
0000
0000
0000
0000
0000
0000
0000
0000
0000
0000
0000
0000
0000
0000
0000
0000
0000
MMMM
0000
0000
0000
0000
0000
0000
0000
0000
0000
0000
0000
0000
0000
0000
0000
0000
0000
0000
0000
0000
0000
0000
0000
,
MMMM
MMMM
MMMM
MMMM
MMMM
MMMM
MMMM
MMMM
,
MMMM
MMMM
MMMM
MMMM
MMMM
MMMM
MMMM
MMMM
,
MMMM
MMMM
MMMM
MMMM
MMMM
MMMM
MMMM
MMMM
,
MMMM
MMMM
MMMM
MMMM
MMMM
MMMM
MMMM
0000
,
0000
0000
0000
0000
,
0000
0000
0000
0110
,
1001
0001
0010
1000
0010
0001
0100
0010
,
0110
0000
0000
0000
1000
0000
0110
0000
0000
0000
0000
0001
1000
0000
0000
0000
,
1000
0010
0001
0010
1000
0100
0010
0000
,
0011
0000
0001
1000
0110
0001
1000
0000
,
1001
0001
0100
1000
0100
0001
0010
0100
,
0110
0000
0000
0000
1000
0000
0110
0000
0000
0000
0000
0001
1000
0000
0000
0000
,
1000
0100
0000
0001
1000
0000
0010
0001
,
1000
0010
1001
0101
,
0110
0000
0000
0000
0000
0000
0000
0000
0010
0000
0000
0000
1000
0000
0001
1000
0001
0000
0000
0000
0021
0000
0000
0000
0130
0000
1100
0000
0000
0000
0000
0000
1000
0000
0000
0000
0000
0000
1001
0000
0101
0000
0000
0000
0100
0000
0000
0000
0100
0000
0020
0030
0100
0000
0000
0000
0110
0000
1010
0000
0000
0000
0001
0000
,
1001
0000
1000
0000
0010
0000
0100
0000
0001
0000
0010
0000
0100
0000
1000
0000
0001
0000
0100
0000
0010
0000
0100
0000
1000
0000
0001
0000
0010
0000
1000
0000
0001
0000
0010
0000
0001
0000
0100
0000
0010
0000
1000
0000
0100
0000
1000
0000
0001
0000
0001
0000
1000
0000
1000
0000
0010
0100
0001
0010
0100
1000
0010
0100
,
0000
0000
0000
0000
0000
0000
0000
0000
0220
0000
0000
0330
MMMM
0000
0000
0000
MMMM
0000
0000
0000
MMMM
0000
0000
0000
MMMM
0000
0000
0000
MMMM
0000
0000
0000
,
MMMM
MMMM
MMMM
MMMM
MMMM
MMMM
MMMM
MMMM
,
MMMM
MMMM
MMMM
MMMM
MMMM
MMMM
MMMM
MMMM
,
MMMM
MMMM
MMMM
MMMM
MMMM
MMMM
MMMM
MMMM
,
MMMM
MMMM
MMMM
MMMM
MMMM
MMMM
MMMM
MMMM
,
MMMM
MMMM
MMMM
MMMM
MMMM
MMMM
MMMM
MMMM
,
MMMM
MMMM
MMMM
MMMM
MMMM
MMMM
MMMM
MMMM
,
MMMM
MMMM
MMMM
MMMM
MMMM
MMMM
MMMM
MMMM
,
MMMM
MMMM
MMMM
MMMM
MMMM
MMMM
MMMM
MMMM
,
MMMM
MMMM
MMMM
MMMM
MMMM
MMMM
MMMM
MMMM
,
MMMM
MMMM
0000
0000
0000
0000
0000
0000
,
0000
0000
0000
0000
,
0000
0220
0000
0330
,
0000
0000
0000
0000
,
0000
0000
0000
0000
,
0000
0000
0000
0000
,
0000
0000
0010
1001
,
0001
0010
0100
0000
1000
0000
0001
1000
,
0010
0100
0110
0000
0101
0000
0001
1000
,
0100
0010
0110
0000
0001
0000
1100
0000
,
0011
1010
0101
1001
,
1000
0010
0100
0000
0001
0000
1000
0001
,
0010
0100
0110
0000
1100
0000
1000
0001
,
0100
0010
0110
0000
1000
0000
0101
0000
,
0110
1010
1001
0011
,
0010
0100
1000
0000
0001
0000
0100
0001
,
1000
0100
0110
0000
0011
0000
0001
1000
,
0010
0100
0110
0000
1000
0000
0101
0000
,
1010
0011
1100
1010
,
0010
0100
0001
0000
1000
0000
0100
1000
,
0001
0100
0110
0000
1010
0000
1000
0001
,
0010
0100
0110
0000
0001
0000
1100
0000
,
0110
0000
0011
0000
1001
0000
1000
0010
,
0100
0010
1000
0100
0010
0000
0001
0010
,
0100
0010
0001
0100
0010
0000
1000
0100
,
0001
0100
1000
0010
0100
0000
0101
0000
,
1010
0000
0011
0000
1100
0000
0001
0010
,
0100
0010
0001
0100
0010
0000
1000
0010
,
0100
0010
1000
0100
0010
0000
0001
0100
,
1000
0100
0001
0010
0100
0000
1100
0000
,
0110
0000
0011
0000
1001
0000
1000
0100
,
0010
0100
1000
0010
0100
0000
0001
0100
,
0010
0100
0001
0010
0100
0000
1000
0010
,
0001
0010
1000
0100
0010
0000
0101
0000
,
1010
0000
0011
0000
1100
0000
0001
0100
,
0010
0100
0001
0010
0100
0000
1000
0100
,
0010
0100
1000
0010
0100
0000
0001
0010
,
1000
0010
0001
0100
0010
0000
1100
0000
,
0110
0000
0011
0000
1001
0000
1000
0100
,
0010
0100
1000
0000
1000
0010
0001
0010
,
1000
0000
0001
0100
0010
0100
0001
0000
,
0001
0010
1000
0010
0001
0000
1000
0100
,
0001
0100
1000
0000
0001
0100
1000
0100
,
0001
0000
0010
0100
1000
0001
0100
0010
,
1000
0001
1001
0000
0000
0000
0000
0000
,
0000
0000
0000
0000
,
0000
0000
0000
0000
,
0000
0000
0000
0000
,
0000
0000
1000
0001
0010
0100
1000
0001
,
0100
0010
1000
0100
0010
0001
1000
0010
,
0100
0001
0010
0100
1000
0001
0100
0010
,
1000
0100
0010
0001
1000
0010
0100
0001
,
0010
0100
2000
0000
3010
0000
1010
1000
,
0100
0011
0001
0100
1002
0000
0000
0000
,
0013
0000
0011
0001
0100
1010
1000
0100
,
2001
0000
3010
0100
0001
1001
1000
0100
,
1100
1000
0010
0101
0001
0010
1002
0000
,
0000
0000
0103
0000
0101
0001
0010
1100
,
1000
0010
2001
0000
3100
0010
0001
1001
,
1000
0010
0100
0000
0010
0000
1000
0000
,
0001
0010
0100
1000
,
0001
0000
0200
0320
2030
3200
0302
2003
,
3020
0031
1002
0000
0000
0000
0100
0000
,
0000
2003
0000
3002
,
0000
0023
0000
0100
,
0000
0032
0000
2003
,
0000
3200
0000
0010
,
0000
2300
0000
3020
,
0000
0032
0000
0023
,
0000
2030
0000
3002
,
0000
2003
0000
0001
,
0000
3200
0000
0320
,
0000
0032
0000
0203
,
0000
2300
0000
0001
,
0000
3200
0000
0010
,
0000
1000
0000
0001
,
0000
0320
0000
0100
,
0000
2030
0000
3002
,
0000
0000
0000
0000
1003
0010
1000
0000
0001
0000
0001
0000
0010
0000
0010
0000
,
0100
1000
0100
1000
0001
0100
0010
0000
1000
0000
1000
0000
0100
0010
0100
0000
,
0010
0010
0002
0000
0000
0000
0000
0000
,
0000
0000
0000
0000
1003
0000
1000
0000
0010
0100
0010
0100
0001
0000
0001
0000
,
1000
0000
1000
0000
0100
0010
0001
0000
1000
0000
0010
0100
0010
0000
1000
0000
,
0001
0001
0010
0010
0100
0100
1000
1000
,
0001
0100
0001
0000
1000
0000
1000
0000
0010
0000
0010
0000
0100
0010
0100
0000
,
0001
1000
0002
0000
0000
0000
0023
0000
,
0000
0000
0130
0100
1000
1000
0001
0001
,
0100
0001
0100
0001
1000
0100
0010
0000
0001
0000
0001
0000
1000
0000
1000
0000
,
0010
0010
0200
0000
0000
0000
0302
0000
,
0000
0000
0000
0000
0013
0100
0010
0000
0001
1000
0001
1000
0010
0000
0010
0000
,
0100
0000
0100
0000
0001
0100
0001
0000
1000
0000
0100
1000
0100
0000
0010
0000
,
0001
0000
0001
0000
1000
0000
1000
0000
0010
0000
0010
0000
0100
0010
1000
0000
,
0001
1000
0010
0000
1000
0001
1000
0000
0100
0000
0100
0000
0010
0001
0010
0100
,
1000
1000
0020
0000
0000
0000
0230
0000
,
0000
0300
0102
0000
1003
0000
0000
0000
;

//---------------dance-double - t7r-BDP----------------
#NOTEDATA:;
#CHARTNAME:t7r-BDP;
#STEPSTYPE:dance-double;
#DESCRIPTION:t7r-BDP;
#DIFFICULTY:Easy;
#METER:11;
#CREDIT:t7r;
#NOTES:
00000000
00000000
00000000
01000000
,
00010000
10000000
01000000
00100000
,
00001000
00000000
00010000
00000000
00000100
00000000
00001000
00000000
00000001
00000000
00000000
00000100
00000000
00000000
00000001
00000000
,
00000010
00000100
00001000
00000001
00000100
00000000
00011000
00000000
,
00001000
00000000
01000000
00000000
00010000
00000000
00100000
00000000
01000000
00000000
00000000
10000000
00000000
00000000
00010000
00000000
,
10000000
00100000
00010000
00001000
00010000
00000000
00001000
00000100
,
00000010
00000000
00000100
00000000
00000001
00000000
00000000
00000010
00000000
00000000
00000100
00000000
00010000
00000000
00001000
00000000
,
01000000
00010000
00100000
00000000
10010000
00000000
10000000
00100000
,
01000000
00000000
00010000
00000000
10000000
00000000
00000000
01000000
00000000
00000000
00010000
00000000
00001000
00000000
00000010
00000000
,
00000100
00000010
00000002
00000000
00001003
00000010
00000000
00000000
,
00000000
00000000
00000000
00000000
,
00000000
00000000
00000000
00000000
,
00000000
00000000
00000000
00000000
,
00000000
00000000
00000000
00000000
,
01000000
00000000
00010000
00000000
,
10000000
00000000
01000000
00000000
,
00100000
00000000
00001000
00010000
,
00000100
00000000
00001000
00000000
00000001
00000000
00000000
00000100
,
00000000
00000001
00000010
00000100
,
00001000
00000001
00000100
00000000
,
00011000
00000000
00001000
01000000
,
00010000
00000000
00100000
00000000
01000000
00000000
00000000
10000000
,
00000000
00010000
10000000
00100000
,
00010000
00000000
00001000
00000000
00010000
00000000
00001000
00000100
,
00000010
00000000
00000100
00000000
00000001
00000000
00000000
00000010
00000000
00000000
00000100
00000000
00010000
00000000
00001000
00000000
,
01000000
00010000
00100000
00000000
10010000
00000000
10000000
00100000
,
01000000
00000000
00010000
00000000
10000000
00000000
00000000
01000000
00000000
00000000
00010000
00000000
00001000
00000000
00000010
00000000
,
00000100
00000000
00000000
00000000
00000000
00000000
00000000
00000000
00000010
00000000
00000000
00000000
00000000
00000000
00000000
00000000
00000002
00000000
00000000
00000000
00000000
00000000
00000000
00000000
00000000
00000000
00000000
00000000
00000000
00000000
00000000
00000000
00001003
00000000
00000000
00000000
00000000
00000000
00000000
00000000
00000010
00000000
00000000
00000000
00000000
00000000
00000000
00000000
00000200
00000000
00000000
00000000
00000000
00000000
00000000
00000000
00000000
00000000
00000310
00000000
00001000
00000200
00000000
00000000
,
00020300
00000000
00000000
00000000
00000000
00000000
00000000
00000000
00030000
00000000
00000000
00000000
00000000
00000000
00000000
00000000
00002000
00000000
00000000
00000000
00000000
00000000
00000000
00000000
00000000
00000000
02003000
00000000
03010000
00200000
00000000
00000000
00320000
00000000
00000000
00000000
00000000
00000000
00000000
00000000
10030000
00000000
10000000
00000000
10000000
00000000
10000000
00000000
00000000
00000000
00000000
00000000
00000000
00000000
00000000
00000000
00000000
00000000
00000000
00000000
00000000
00000000
00000000
00000000
,
00000000
00000000
00000000
00000000
,
00000000
00000000
00000000
00000000
,
00000000
00000000
00000000
00000000
,
00000000
00000000
00000000
00000000
,
00000000
00000000
00000000
00000000
,
00000000
00000000
00000000
00010000
,
00001000
00000100
00000010
00000100
,
00000001
00000000
00000000
00000010
00000000
00000000
00000100
00000000
,
00010000
00001000
01000000
00010000
,
00100000
00000000
10010000
00000000
,
10000000
00100000
01000000
00010000
,
10000000
00000000
00000000
01000000
00000000
00000000
00010000
00000000
,
00001000
00000010
00000100
00000010
,
00000002
00000000
00001003
00000010
,
00000200
00000000
00000000
00000000
00000000
00000000
00000000
00000000
00000000
00000000
00000310
00000000
00001000
00000200
00000000
00000000
00020300
00000000
00000000
00000000
00000000
00000000
00000000
00000000
00030000
00000000
00000000
00000000
00000000
00000000
00000000
00000000
,
00002000
00000000
00000000
00000000
00000000
00000000
00000000
00000000
00000000
00000000
02003000
00000000
03010000
00200000
00000000
00000000
00320000
00000000
00000000
00000000
00000000
00000000
00000000
00000000
10030000
00000000
10000000
00000000
10000000
00000000
10000000
00000000
,
00000000
00000000
00000000
00000000
,
00000000
00000000
00000000
00000000
,
00000000
00000000
00000000
00000000
,
00000000
00000000
00000000
00000000
,
00000000
00000000
00000000
00000000
,
00000000
00000000
00000000
00000000
,
00000000
00000000
00000000
00000000
,
00000000
00000000
00000000
00000000
,
00000000
00000000
00000000
00000000
,
00000000
00000000
00000000
00000000
,
00000000
00000000
00000000
00000000
,
00000000
00000000
00000000
00000000
,
00000000
00000000
00000000
00000000
,
00000000
00000000
00000000
00000000
,
00000000
00000000
00000000
00000000
,
00000000
00000000
00000000
00000000
,
00000000
00000000
00000000
00010000
,
10000000
01000000
00100000
00100000
,
00010000
10000000
10000000
01000000
,
00100000
00001000
00000000
00010000
,
00010000
00001000
00001000
00010000
,
00000100
00001000
00000001
00000001
,
00000100
00000010
00000010
00001000
,
00000100
00010000
00000000
00001000
,
00001000
00010000
00010000
00001000
,
00010000
01000000
00100000
00100000
,
00010000
01000000
01000000
00100000
,
10000000
00010000
00000000
10000000
,
10000000
01000000
01000000
00010000
,
00001000
00000100
00000010
00000010
,
00001000
00000001
00000001
00000010
,
00000100
00001000
00000000
00000001
,
00000001
00001000
00001000
00000001
,
00000100
00000000
00000010
00001000
,
00000000
00000100
00010000
00000000
,
00001000
00010000
00000000
00001000
,
00001000
00010000
00010000
00001000
,
01000000
00000000
00010000
00100000
,
00000000
00010000
10000000
00000000
,
00100000
01000000
00000000
00100000
,
00100000
10000000
10000000
00010000
,
00100000
00000000
00001000
00010000
,
00000000
00000010
00001000
00000000
,
00000001
00001000
00000000
00000001
,
00000001
00000010
00000010
00000001
,
00000100
00000000
00001000
00010000
,
00000000
01000000
10000000
00000000
,
00100000
01000000
00000000
00100000
,
00100000
10000000
10000000
01000000
,
00000000
00000000
00010000
00000000
,
00000000
00001000
00000000
00000000
,
00000100
00000000
00000000
00000010
,
00000000
00000000
00001000
00000000
,
00000000
00000100
00000000
00000000
,
00000000
00022000
00000000
00000000
,
00000000
00000000
00000000
00000000
,
00000000
00000000
00000000
00000000
,
00000000
00000000
00000000
00000000
,
00033000
00001000
00010000
00001000
,
00010000
00001000
00010000
00001000
,
00010000
00001000
00010000
00001000
,
00010000
00001000
00010000
00001000
,
00010000
00001000
00000000
00010000
,
00000000
00000000
00000200
00000000
,
00001300
00000001
00000100
00001000
,
00020000
00000000
00031000
00000000
00000000
00100000
00000000
00000000
,
00010000
00000000
00000000
10000000
00000000
00000000
02000000
00000000
,
00000000
03100000
00001000
00010000
,
00001000
00000000
00000020
00000000
00000031
00000000
00000000
00001001
,
00000000
00000002
00000000
00000000
,
00000000
00000000
00000000
00000000
,
00000000
00000203
00000000
00000320
,
00010030
00001000
00000000
00010000
,
00000000
01000000
00000000
00100000
,
00000000
00020000
00000000
01000000
,
00000000
10030000
00000000
00100000
,
00000000
20000000
00000000
01000000
,
00000000
30010000
00000000
00100000
,
00000000
00002000
00000000
01000000
,
00000000
00013000
00000000
00001000
,
00000000
00000020
00000000
00000100
,
00000000
00001000
00000000
00000031
,
00000000
00000200
00000000
00002300
,
00000000
00023000
00000000
00000100
,
00000000
00032000
00000000
01000000
,
00000000
00010000
00000000
00000000
,
00000000
00023000
00000000
00000100
,
00000000
00032000
00000000
00023000
,
00000000
00031000
00010000
01000000
,
10000000
00010000
01000000
00100000
,
10000000
00020000
00000000
00000000
,
00000000
10030000
01000000
00100000
,
00001000
00010000
00001000
00000010
,
00000001
00001000
00000001
00000100
,
00001000
00010000
00100000
10000000
,
00010000
20000000
00000000
32000000
,
00000000
13000000
10000000
01000000
,
01000000
00100000
00100000
00010000
,
00010000
00002000
00000000
00000010
,
00000000
00003001
00000001
00000010
,
00000010
00000100
00000100
00001000
,
00001000
00010000
00010000
01000000
,
01000000
00100000
00100000
10000000
,
10000000
02000000
00000000
03010000
,
00000000
00022000
00033000
00000000
;

//---------------dance-double - forcednature-DDP----------------
#NOTEDATA:;
#CHARTNAME:forcednature-DDP;
#STEPSTYPE:dance-double;
#DESCRIPTION:forcednature-DDP;
#DIFFICULTY:Medium;
#METER:13;
#CREDIT:forcednature;
#NOTES:
00000000
00000000
00000000
01001000
,
00010100
00101000
00010010
00011000
,
00001000
00000000
01000000
00010000
01000000
00000000
00100000
00000000
10000000
00000000
00000000
01000000
00000000
00000000
00010000
00000000
,
00001000
00000000
00000010
00000100
00000010
00000000
00000001
00000000
00000100
00000000
00000000
00000100
00001000
00000000
00010000
00000000
,
01000000
00000000
00100000
00010000
00100000
00000000
01000000
00000000
10000000
00000000
00000000
00010000
00000000
00000000
00100000
00000000
,
00001000
00000000
00010000
00000010
00010000
00000000
00001000
00000000
00000010
00000000
00000000
00000000
00000110
00000000
00000100
00001000
,
00000100
00000000
00010000
00000000
00001000
00000000
00000000
01000000
00000000
00000000
00010000
00000000
00100000
00000000
01000000
10000000
,
01000000
00000000
00010000
00000000
00001000
00000000
00000000
00001000
00000010
00000000
00000100
00000000
00001000
00000000
00000001
00000100
,
00000001
00000000
00000010
00000000
00000100
00000000
00000000
00010000
00000000
00000000
00001000
00000000
01000000
00010000
00000000
00010000
,
00100000
01000000
10000000
00000000
01100000
00000000
00000000
00000000
,
00000000
00000000
00000000
00000000
,
00000000
00000000
00000000
00000000
,
00000000
00000000
00000000
00000000
,
00000000
00000000
00000000
00000000
,
01001000
00000000
00010100
00000000
,
00101000
00000000
00010010
00000000
,
00011000
00000000
00000000
00000000
00001000
00000000
01000000
00010000
,
01000000
00000000
00100000
00000000
10000000
00000000
00000000
01000000
,
00000000
00000000
00010000
00000000
00001000
00000000
00000010
00000100
,
00000010
00000000
00000001
00000000
00000100
00000000
00000000
00000100
,
00001000
00000000
00010000
00000000
01000000
00000000
00100000
00010000
,
00100000
00000000
01000000
00000000
10000000
00000000
00000000
00010000
,
00000000
00000000
00100000
00000000
00001000
00000000
00010000
00000010
,
00010000
00000000
00000000
00000000
00001000
00000000
00000000
00000000
00000010
00000000
00000000
00000000
00000110
00000000
00000100
00001000
,
00000100
00000000
00010000
00000000
00001000
00000000
00000000
01000000
00000000
00000000
00010000
00000000
00100000
00000000
01000000
10000000
,
01000000
00000000
00010000
00000000
00001000
00000000
00000000
00001000
00000010
00000000
00000100
00000000
00001000
00000000
00000001
00000100
,
00000001
00000000
00000010
00000000
00000100
00000000
00000000
00010000
00000000
00000000
00001000
00000000
01000000
00010000
00000000
00010000
,
00100000
00000000
00000000
00000000
00000000
00000000
00000000
00000000
01000000
00000000
00000000
00000000
00000000
00000000
00000000
00000000
10000000
00000000
00000000
00000000
00000000
00000000
00000000
00000000
00000000
00000000
00000000
00000000
00000000
00000000
00000000
00000000
01100000
00000000
00000000
00000000
00000000
00000000
00000000
00000000
00000000
00000000
00000000
00000000
00000000
00000000
00000000
00000000
00010000
00000000
00000000
00000000
01000000
00000000
00001000
00000000
00000000
00000000
00010100
00000000
00000000
00001100
00000000
00000000
,
00001000
00000000
00000000
00000000
00000001
00000000
00000100
00000000
00000010
00000000
00001000
00000000
00010000
00000000
00000000
00000000
01100000
00000000
00000000
00000000
10000000
00000000
00010000
00000000
00000000
00000000
00110000
00000000
00000000
11000000
00000000
00000000
10000000
00000000
00000000
00000000
00010000
00000000
01000000
00000000
00001000
00000000
00010000
00000000
00000100
00001000
00000100
00001000
00000000
00000000
00000000
00000000
00000000
00000000
00000000
00000000
00000000
00000000
00000000
00000000
00000000
00000000
00000000
00000000
,
00000000
00000000
00000000
00000000
,
00000000
00000000
00000000
00000000
,
00000000
00000000
00000000
00000000
,
00000000
00000000
00000000
00000000
,
00000000
00000000
00000000
00000000
,
00000000
00000000
00000000
00000010
,
00000110
00000000
00000100
00001000
00000100
00000000
00010000
00000000
,
00001000
00000000
00000000
01000000
00000000
00000000
00010000
00000000
,
00100000
00000000
01000000
10000000
01000000
00000000
00010000
00000000
,
00001000
00000000
00000000
00001000
00000010
00000000
00000100
00000000
,
00001000
00000000
00000001
00000100
00000001
00000000
00000010
00000000
,
00000100
00000000
00000000
00010000
00000000
00000000
00001000
00000000
,
01000000
00010000
00000000
00010000
00100000
00000000
01000000
00000000
,
10000000
00000000
01100000
00000000
,
00010000
00000000
00000000
00000000
01000000
00000000
00001000
00000000
00000000
00000000
00010100
00000000
00000000
00001100
00000000
00000000
00001000
00000000
00000000
00000000
00000001
00000000
00000100
00000000
00000010
00000000
00001000
00000000
00010000
00000000
00000000
00000000
,
01100000
00000000
00000000
00000000
10000000
00000000
00010000
00000000
00000000
00000000
00110000
00000000
00000000
11000000
00000000
00000000
10000000
00000000
00000000
00000000
00010000
00000000
01000000
00000000
00001000
00000000
00010000
00000000
00000100
00001000
00000100
00001000
,
00000000
00002002
00000000
00000000
,
00000000
00000000
00000000
00000000
,
00000000
00000000
00000000
00000000
,
00000000
00000000
00000000
00000000
,
00000000
00000000
00000000
00000000
,
00000000
00000000
00000000
00000000
,
00000000
00000000
00000000
00000000
,
00000000
00000000
00000000
00000000
,
00000000
00000000
00000000
00000000
,
00000000
00000000
00000000
00000000
,
00000000
00003003
00000000
00000000
,
00000000
00000000
00000000
00000000
,
00000000
00002002
00000000
00003003
,
00000000
00000000
00000000
00000000
,
00000000
00000000
00000000
00000000
,
00000000
00000000
00000000
00000000
,
00000000
00000000
00000000
00000001
,
00000100
00000000
00001000
00000000
00000100
00000000
00000010
00010000
,
00000000
00010000
00001000
00000000
00100000
00000000
00010000
10000000
,
00000000
10000000
00100000
00000000
01000000
00000000
00010000
00000000
,
00110000
00100000
00110000
00010000
,
00000000
01000000
00000000
00000000
00001000
00000000
00010000
00000100
,
00000000
00000100
00001000
00000000
00000010
00000000
00000100
00000001
,
00000000
00000001
00000010
00000000
00000100
00000000
00001000
00000000
,
00001010
00000010
00001010
00001000
,
00000000
00000100
00000000
00000000
00010000
00000000
00001000
01000000
,
00000000
01000000
00010000
00000000
00100000
00000000
01000000
10000000
,
00000000
10000000
00010000
00000000
01000000
00000000
00100000
00000000
,
10100000
10000000
10100000
00100000
,
00000000
01000000
00000000
00000000
00001000
00000000
00010000
00000100
,
00000000
00000100
00001000
00000000
00000010
00000000
00000100
00000001
,
00000000
00000001
00000010
00000000
00000100
00000000
00001000
00000000
,
00001010
00000010
00001010
00001000
,
00000100
00010000
00001000
00100000
,
00001000
00000000
00010000
00000000
00100000
00000000
01000000
00010000
,
00000000
01000000
00010000
00000000
00100000
00000000
02000000
00000000
,
03020000
00032000
00003020
00000130
,
00001000
00000001
00000100
00000010
,
00001000
00000000
00000100
00000000
00000010
00000000
00000100
00010000
,
00000000
00000100
00010000
00000000
00001000
00000000
02000000
00000000
,
03200000
00320000
00032000
00103000
,
01000000
10000000
00100000
01000000
,
00001000
00000000
00010000
00000000
00000100
00000000
00001000
00000010
,
00000000
00001000
00000010
00000000
00000100
00000000
00000002
00000000
,
00000023
00002030
00023000
01030000
,
00100000
00010000
01000000
00100000
,
10000000
00000000
01000000
00000000
10000000
00000000
00010000
01000000
,
00000000
00010000
01000000
00000000
00001000
00000000
00020000
00000000
,
00030200
00002300
00003020
00000130
,
00000100
00001000
00000100
00000100
,
00000001
00000010
00001000
00010000
,
00100000
00010000
00001000
00010000
,
01000000
10000000
00010000
01000000
,
00100000
01000000
00001000
00010000
,
00000100
00002000
00000000
00000000
,
00000000
00000000
00000000
00000000
,
00000000
00000000
00000000
00000000
,
00000000
00000000
00000000
00000000
,
00000000
00003001
00000100
00000010
,
00001000
00010000
01000000
00100000
,
10000000
01000000
00100000
00010000
,
00001000
00000100
00000010
00000001
,
00000100
00000000
00000020
00000000
00000030
00000000
00010000
00001000
,
00000000
00100000
00010000
00000000
02200000
00000000
00000000
00000000
,
03300000
00000000
00001000
00010000
00000000
00000010
00001000
00000000
,
00000210
00000000
00000301
00000000
00000000
00000100
00000000
00000000
,
00001000
00010000
00000000
00000100
00001000
00000000
00000220
00000000
,
00000000
00000000
00000330
00000000
00010000
00001000
00000000
01000000
,
00010000
00000000
01200000
00000000
10300000
00000000
00000000
01000000
,
00000000
00020000
00000000
00000000
,
00000000
00000000
00000000
00000000
,
00000000
00030000
00002200
00000000
00000000
00000000
00000000
00000000
,
00000000
00003300
00000000
00000000
00000012
00000000
00000000
00000000
00000000
00000000
00000000
00000000
00000000
00000000
00000000
00000000
,
00000000
00000203
00000000
00002300
,
00000000
00023000
00000000
00000000
,
00000000
00230000
00000000
02300000
,
00000000
03020000
00000000
00000000
,
00000000
20030000
00000000
32000000
,
00000000
03020000
00000000
00032000
,
00000000
00003200
00000000
00000302
,
00000000
00000023
00000000
00000000
,
00000000
00000230
00000000
00020300
,
00000000
00032000
00000000
02003000
,
00000000
03020000
00000000
00000000
,
00000000
00230000
00000000
00000000
,
00000000
01000000
00000000
00000000
,
00000000
00302000
00000000
00000000
,
00000000
00023000
00000000
00030020
,
00000000
00000000
00000130
00000001
00000100
00000001
00001000
00000010
,
00001000
00000000
00000100
00001000
00000100
00000000
00010000
00001000
,
00010000
00200000
00000000
00000000
,
00000000
00000000
01300000
00010000
01000000
00010000
10000000
00100000
,
10000000
00000000
01000000
10000000
01000000
10000000
00010000
00100000
,
00010000
00000000
01000000
00001000
01000000
00000000
00001000
00010000
,
00001000
00000000
00010000
00000100
00010000
00000000
00000100
00001000
,
00000100
00000020
00000000
00000032
,
00000000
00000000
00000103
00000001
00000100
00000001
00001000
00000100
,
00001000
00000100
00010000
00001000
00010000
00001000
01000000
00010000
,
01000000
00010000
20000000
00000000
00000000
00000000
32000000
00000000
,
00000000
00000000
03100000
00010000
00100000
00010000
01000000
00001000
,
01000000
00001000
00010000
00000100
00010000
00000100
00001000
00000010
,
00001000
00000010
00000100
00000001
00000100
00000001
00001000
00000100
,
00001000
00000100
00010000
00001000
00010000
00001000
01000000
00010000
,
01000000
00010000
00200000
00000000
00000000
00000000
02300000
00000000
,
00000000
03000000
20020000
00000000
30030000
00000000
00000000
00000000
;

//---------------dance-double - forcednature-EDP----------------
#NOTEDATA:;
#CHARTNAME:forcednature-EDP;
#STEPSTYPE:dance-double;
#DESCRIPTION:forcednature-EDP;
#DIFFICULTY:Hard;
#METER:17;
#CREDIT:forcednature;
#NOTES:
00000000
00000000
00000000
00000000
00000000
00000000
01001000
00100000
,
00010100
00000000
00000010
00000000
00010000
00001000
01000000
00000000
01100000
00000000
00100000
10000000
00010000
10000000
01000000
00000000
,
01100000
00000000
00100000
00001000
00010000
00000000
00000010
00000000
00001010
00000000
00001000
00000100
00000000
00000001
00000100
00000000
,
00000010
00000001
00000100
00000001
00000010
00000000
00001000
00000000
00010000
00000000
00100000
10000000
01000000
00000000
00100000
00000000
,
00110000
00000000
00010000
01000000
00001000
00000000
00010000
00000000
00010100
00000000
00000100
00000010
00000000
00001000
00000010
00000000
,
00000001
00000100
00000001
00000010
00001000
00000000
00010000
00000000
00011000
00000000
00000000
00000000
01001000
00000000
01000000
00010000
,
00100000
00000000
01000000
00000000
11000000
00000000
10000000
00100000
00000000
00010000
00100000
00000000
01000000
00010000
01000000
00001000
,
00010000
00000000
00000100
00000000
00000110
00000000
00000010
00001000
00010000
00000000
00000100
00000000
00001100
00000000
00001000
00000010
,
00000100
00000000
00000001
00000000
00000011
00000000
00000010
00001000
00000000
00010000
00001000
00000000
01000000
00010000
01000000
00100000
,
10000000
00000000
01000000
00010000
00001000
00000000
00000100
00000000
00000110
00000000
00000010
00000000
00000000
00000000
00000000
00000000
,
00000000
00000000
00000000
00000000
,
00000000
00000000
00000000
00000000
,
00000000
00000000
00000000
00000000
,
00000000
00000000
00000000
00000000
,
01001000
00100000
00010100
00000010
,
00010000
00001000
01000000
00000000
01100000
00000000
00100000
10000000
,
00010000
10000000
01000000
00000000
01100000
00000000
00100000
00001000
,
00010000
00000000
00000010
00000000
00001010
00000000
00001000
00000100
,
00000000
00000001
00000100
00000000
00000010
00000001
00000100
00000001
,
00000010
00000000
00001000
00000000
00010000
00000000
00100000
10000000
,
01000000
00000000
00100000
00000000
00110000
00000000
00010000
01000000
,
00001000
00000000
00010000
00000000
00010100
00000000
00000100
00000010
,
00000000
00001000
00000010
00000000
00000001
00000100
00000001
00000010
,
00001000
00000000
00000000
00000000
00010000
00000000
00000000
00000000
00011000
00000000
00000000
00000000
01001000
00000000
01000000
00010000
,
00100000
00000000
01000000
00000000
11000000
00000000
10000000
00100000
00000000
00010000
00100000
00000000
01000000
00010000
01000000
00001000
,
00010000
00000000
00000100
00000000
00000110
00000000
00000010
00001000
00010000
00000000
00000100
00000000
00001100
00000000
00001000
00000010
,
00000100
00000000
00000001
00000000
00000011
00000000
00000010
00001000
00000000
00010000
00001000
00000000
01000000
00010000
01000000
00100000
,
10000000
00000000
00000000
00000000
00000000
00000000
00000000
00000000
00000000
00000000
00000000
00000000
00000000
00000000
00000000
00000000
00000000
00000000
00000000
00000000
00000000
00000000
00000000
00000000
01000000
00000000
00000000
00000000
00000000
00000000
00000000
00000000
00000000
00000000
00000000
00000000
00010000
00000000
00000000
00000000
00000000
00000000
00000000
00000000
00000000
00000000
00000000
00000000
00001000
00000000
00000000
00000000
00000000
00000000
00000000
00000000
00000000
00000000
00000000
00000000
00000000
00000000
00000000
00000000
00000000
00000000
00000000
00000000
00000000
00000000
00000000
00000000
00000100
00000000
00000000
00000000
00000000
00000000
00000000
00000000
00000000
00000000
00000000
00000000
00000000
00000000
00000000
00000000
00000000
00000000
00000000
00000000
00000000
00000000
00000000
00000000
00000110
00000000
00000000
00000000
00000000
00000000
00000000
00000000
00000000
00000000
00000000
00000000
00000000
00000000
00000000
00000000
00000000
00000000
00000000
00000000
00000000
00000000
00000000
00000000
00000010
00000000
00000000
00000000
00000000
00000000
00000000
00000000
00000000
00000000
00000000
00000000
00000000
00000000
00000000
00000000
00000000
00000000
00000000
00000000
00000000
00000000
00000000
00000000
00002002
00000000
00000000
00000000
00000000
00000000
00000000
00003003
00000000
00000000
00000000
00000000
00010000
00000000
00000000
00000000
00000000
00000000
00001000
00000000
00000000
00000000
00000000
00000000
01000000
00000000
00000000
00000000
00000000
00000000
01010000
00000000
00000000
00000000
00000000
00000000
00000000
00000000
00000000
10100000
00000000
00000000
00000000
00000000
00000000
00000000
00000000
00000000
,
00010000
00000000
00000000
00000000
00000000
00000000
00000000
00000000
00000000
00100000
00000000
00000000
00100000
00000000
00000000
00000000
00000000
00000000
01000000
00000000
00000000
00000000
00000000
00000000
00100000
00000000
00000000
00000000
00000000
00000000
00001000
00000000
00000000
00000000
00000000
00000000
00020000
00000000
00000000
00000010
00000000
00000000
00000000
00030000
00000000
00000000
00000000
00000000
00001100
00000000
00000000
00000000
00000000
00000000
00000001
00000000
00000000
00000000
00000000
00000000
00000100
00000000
00000000
00000000
00000000
00000000
00000010
00000000
00000000
00000000
00000000
00000000
00010000
00000000
00000000
00000000
00000000
00000000
00011000
00000000
00000000
00000000
00000000
00000000
00000000
00000000
00000000
00110000
00000000
00000000
00000000
00000000
00000000
00000000
00000000
00000000
11000000
00000000
00000000
00000000
00000000
00000000
00010000
00000000
00000000
00000000
00000000
00000000
01000000
00000000
00000000
00000000
00000000
00000000
00001000
00000000
00000000
00010000
00000000
00000000
00001000
00000000
00000000
00000000
00000000
00000000
00000010
00000000
00000000
00000100
00000000
00000000
00001000
00000000
00000000
00000001
00000000
00000000
00001000
00000000
00000000
00000001
00000100
00000000
00000000
00000000
00000000
00000000
00000000
00000000
00000000
00000000
00000000
00000000
00000000
00000000
00000000
00000000
00000000
00000000
00000000
00000000
00000000
00000000
00000000
00000000
00000000
00000000
00000000
00000000
00000000
00000000
00000000
00000000
00000000
00000000
00000000
00000000
00000000
00000000
00000000
00000000
00000000
00000000
00000000
00000000
00000000
00000000
00000000
00000000
00000000
00000000
,
00000000
00000000
00000000
00000000
,
00000000
00000000
00000000
00000000
,
00000000
00000000
00000000
00000000
,
00000000
00000000
00000000
00000000
,
00000000
00000000
00000000
00000000
,
00000000
00000000
00000000
00011000
,
01001000
00000000
01000000
00010000
00100000
00000000
01000000
00000000
,
11000000
00000000
10000000
00100000
00000000
00010000
00100000
00000000
,
01000000
00010000
01000000
00001000
00010000
00000000
00000100
00000000
,
00000110
00000000
00000010
00001000
00010000
00000000
00000100
00000000
,
00001100
00000000
00001000
00000010
00000100
00000000
00000001
00000000
,
00000011
00000000
00000010
00001000
00000000
00010000
00001000
00000000
,
01000000
00010000
01000000
00100000
10000000
00000000
01000000
00010000
,
00001000
00000100
00000110
00000010
,
00002002
00000000
00000000
00000000
00000000
00003003
00000000
00000000
00010000
00000000
00000000
00000000
00001000
00000000
00000000
00000000
01000000
00000000
00000000
00000000
01010000
00000000
00000000
00000000
00000000
00000000
10100000
00000000
00000000
00000000
00000000
00000000
00010000
00000000
00000000
00000000
00000000
00000000
00100000
00000000
00100000
00000000
00000000
00000000
01000000
00000000
00000000
00000000
00100000
00000000
00000000
00000000
00001000
00000000
00000000
00000000
00020000
00000000
00000010
00000000
00000000
00030000
00000000
00000000
,
00001100
00000000
00000000
00000000
00000001
00000000
00000000
00000000
00000100
00000000
00000000
00000000
00000010
00000000
00000000
00000000
00010000
00000000
00000000
00000000
00011000
00000000
00000000
00000000
00000000
00000000
00110000
00000000
00000000
00000000
00000000
00000000
11000000
00000000
00000000
00000000
00010000
00000000
00000000
00000000
01000000
00000000
00000000
00000000
00001000
00000000
00010000
00000000
00001000
00000000
00000000
00000000
00000010
00000000
00000100
00000000
00001000
00000000
00000001
00000000
00001000
00000000
00000001
00000100
,
00000000
00000000
00000000
00000000
00000000
00000000
00000000
00000000
00022000
00000000
00000000
00033000
00000000
00000000
00000000
00000000
00000000
00000000
00000000
00000000
00000000
00000000
00000000
00000000
00000000
00000000
00000000
00000000
00000000
00000000
00000000
00000000
,
00000000
00000000
00000000
00000000
,
00000000
00000000
00000000
00000000
,
00000000
00000000
00000000
00000000
,
00000000
00000000
00000000
00000000
,
00000000
00000000
00000000
00000000
,
00000000
00000000
00000000
00000000
,
00000000
00000000
00000000
00000000
,
00000000
00000000
00000000
00000000
,
00000000
00000000
00000000
00000000
,
00000000
00000000
00000000
00000000
,
00000000
00000000
00000000
00000000
,
00000000
00022000
00000000
00033000
,
00000000
00000000
00000000
00000000
,
00000000
00000000
00000000
00000000
,
00000000
00000000
00000000
00000000
,
00000000
00000000
01000000
01010000
,
00010000
10000000
00010000
00000000
00100000
00000000
01000000
10000000
,
00000000
00100000
10000000
00000000
01000000
00000000
00100000
00001000
,
00000000
00010000
00001000
00000000
00000100
00000000
00000101
00000000
,
00000011
00000110
00001100
00001010
,
00000010
00000100
00000010
00000000
00001000
00000000
00000100
00010000
,
00000000
00001000
00010000
00000000
00100000
00000000
01000000
00010000
,
00000000
00100000
00010000
00000000
10000000
00000000
10100000
00000000
,
11000000
01100000
00110000
01010000
,
01000000
00001000
01000000
00000000
00010000
00000000
00100000
01000000
,
00000000
00100000
00010000
00000000
01000000
00000000
00001000
00010000
,
00000000
00000100
00001000
00000000
00000010
00000000
00001010
00000000
,
00001100
00010100
00011000
01001000
,
01000000
00010000
01000000
00000000
00100000
00000000
10000000
01000000
,
00000000
10000000
00100000
00000000
00010000
00000000
00001000
00100000
,
00000000
00010000
00100000
00000000
01000000
00000000
01100000
00000000
,
00110000
00000000
01010000
00000000
01001000
00000000
00001000
00010000
,
00001000
00000000
00000010
00000000
00000100
00000000
00001000
00000010
,
00001000
00000000
00000100
00000000
00000010
00000000
00000001
00000100
,
00000000
00001000
00000100
00000000
00000010
00000000
00010010
00000000
,
00011000
00000000
00010100
00000000
00011000
00000000
00001000
00100000
,
00001000
00000000
00010000
00000000
00100000
00000000
10000000
01000000
,
10000000
00000000
00010000
00000000
00100000
00000000
01000000
10000000
,
00000000
01000000
00010000
00000000
00001000
00000000
01001000
00000000
,
00011000
00000000
00101000
00000000
00011000
00000000
00010000
00000100
,
00010000
00000000
00001000
00000000
00000010
00000000
00000100
00001000
,
00000100
00000000
00010000
00000000
00001000
00000000
01000000
00100000
,
00000000
00010000
00100000
00000000
10000000
00000000
11000000
00000000
,
10100000
00000000
11000000
00000000
10100000
00000000
00100000
01000000
,
00100000
00000000
10000000
00000000
00010000
00000000
00100000
00001000
,
00100000
00000000
00010000
00000000
00001000
00000000
00000100
00000010
,
00000000
00001000
00000010
00000000
00000001
00000000
00000101
00000000
,
00000011
00000000
00000101
00000000
00000011
00000000
00000010
00000100
,
00000010
00000100
00001000
00000000
00000010
00000100
00000010
00000100
,
00000001
00000000
00001000
00000100
00001000
00000100
00010000
00000000
,
00001000
01000000
00001000
01000000
00010000
00000000
00100000
01000000
,
10000000
01000000
00100000
00000000
00010000
01000000
00100000
01000000
,
00010000
00000000
10000000
01000000
10000000
00010000
10000000
00100000
,
01000000
00010000
00200000
00000000
00000000
00000000
00000000
00000000
,
00000000
00000000
00000000
00000000
,
00000000
00000000
00000000
00000000
,
00000000
00000000
00000000
00000000
,
00000000
00000000
00301000
00010000
00001000
00010000
00001000
00010000
,
00001000
00010000
00001000
00010000
00001000
00010000
00001000
00010000
,
00001000
00010000
00001000
00010000
00001000
00010000
00001000
00010000
,
00001000
00010000
00001000
00010000
00001000
00010000
00001000
00010000
,
00001000
00010000
00000020
00000000
00000030
00000000
00000100
00001000
,
00000100
00000001
00000010
00000000
00000210
00000000
00000000
00000000
,
00010300
00000000
01000000
00010000
01000000
10000000
00100000
00000000
,
02100000
00000000
13000000
01000000
00010000
00100000
00001000
00100000
,
01000000
00010000
01000000
10000000
00100000
00000000
02100000
00000000
,
00000000
00000000
03001000
00000000
00000100
00001000
00000100
00000001
,
00000010
00000000
00000210
00000000
00000301
00000100
00001000
00000010
,
00010000
00000010
00000200
00000000
00000000
00000000
00000000
00000000
,
00000000
00000000
00000000
00000000
,
00000000
00000300
00022000
00000000
00000000
00000000
00000000
00000000
,
00000000
00033000
00000000
00000000
02001000
00000000
00000000
00000000
00000000
00000000
00000000
00000000
00010000
00000000
00000000
00000000
,
00000000
03200000
00000000
20300000
,
00000000
32000000
00000000
00010000
,
00000000
03200000
00000000
00302000
,
00000000
00023000
00000000
00000010
,
00000000
00030200
00000000
00000302
,
00000000
00000203
00000000
00000320
,
00000000
00000032
00000000
00002003
,
00000000
00003000
00000000
00000000
00020010
00000000
00000000
00000000
00000000
00000000
00000000
00000000
00001000
00000000
00000000
00000000
,
00000000
02030000
00000000
03200000
,
00000000
00302000
00000000
00023000
,
00000000
00230000
00000000
10000000
,
00000000
02300000
00000000
00010000
,
00000000
10000000
00000000
00010000
,
00000000
03002000
00000000
00100000
,
00000000
00023000
00000000
00030020
,
00000000
00000000
00000130
00000001
00000010
00000100
00000001
00000100
,
00001000
00000010
00001000
00010000
01000000
00010000
00100000
01000000
,
10000000
00100000
02000000
00000000
00000000
00000000
00000000
00000000
,
00000000
00000000
13000000
01000000
00010000
00100000
01000000
00010000
,
00001000
00010000
00100000
01000000
00010000
10000000
01000000
00010000
,
00001000
00000010
00000100
00000001
00000100
00001000
00000010
00010000
,
00001000
00000100
00000010
00001000
00010000
01000000
00010000
00100000
,
01000000
00010000
00002000
00000000
00000000
00000000
00003200
00000000
,
00000000
00000000
00001300
00010000
01000000
00100000
01000000
10000000
,
00100000
01000000
00100000
00010000
00001000
00000010
00000001
00000100
,
00000001
00000010
00002000
00000000
00000000
00000000
00023000
00000000
,
00000000
00000000
00130000
01000000
00100000
10000000
01000000
00010000
,
00001000
00100000
00010000
00001000
00000100
00010000
00000010
00000100
,
00001000
00000100
00000001
00000010
00001000
00000010
00000100
00010000
,
00001000
01000000
00100000
00010000
00100000
10000000
01000000
00010000
,
00001000
00000100
00000002
00000000
00000000
00000000
00000023
00000000
,
00000000
00000030
00002001
00000000
00013000
00000000
00000000
00000000
;

//---------------dance-double - RGTM-CDP----------------
#NOTEDATA:;
#CHARTNAME:RGTM-CDP;
#STEPSTYPE:dance-double;
#DESCRIPTION:RGTM-CDP;
#DIFFICULTY:Challenge;
#METER:19;
#CREDIT:RGTM;
#NOTES:
00000000
00000000
00000000
00000000
00000000
00000000
MMMMMMMM
MMMMMMMM
,
MMMMMMMM
MMMMMMMM
MMMMMMMM
MMMMMMMM
MMMMMMMM
MMMMMMMM
MMMMMMMM
MMMMMMMM
,
MMMMMMMM
MMMMMMMM
MMMMMMMM
MMMMMMMM
MMMMMMMM
MMMMMMMM
MMMMMMMM
MMMMMMMM
,
MMMMMMMM
MMMMMMMM
MMMMMMMM
MMMMMMMM
MMMMMMMM
MMMMMMMM
MMMMMMMM
MMMMMMMM
,
MMMMMMMM
MMMMMMMM
MMMMMMMM
MMMMMMMM
MMMMMMMM
MMMMMMMM
MMMMMMMM
MMMMMMMM
,
MMMMMMMM
MMMMMMMM
MMMMMMMM
MMMMMMMM
MMMMMMMM
MMMMMMMM
MMMMMMMM
MMMMMMMM
,
MMMMMMMM
MMMMMMMM
MMMMMMMM
MMMMMMMM
MMMMMMMM
MMMMMMMM
MMMMMMMM
MMMMMMMM
,
MMMMMMMM
MMMMMMMM
MMMMMMMM
MMMMMMMM
MMMMMMMM
MMMMMMMM
MMMMMMMM
MMMMMMMM
,
MMMMMMMM
MMMMMMMM
MMMMMMMM
MMMMMMMM
MMMMMMMM
MMMMMMMM
MMMMMMMM
MMMMMMMM
,
MMMMMMMM
MMMMMMMM
MMMMMMMM
MMMMMMMM
MMMMMMMM
MMMMMMMM
MMMMMMMM
MMMMMMMM
,
MMMMMMMM
MMMMMMMM
MMMMMMMM
MMMMMMMM
MMMMMMMM
MMMMMMMM
MMMMMMMM
MMMMMMMM
,
MMMMMMMM
MMMMMMMM
00000000
00000000
00000000
00000000
00000000
00000000
,
00000000
00000000
00000000
00000000
,
00000000
00000000
00000000
00000000
,
20100000
00000000
00000000
00000000
30100000
01000000
00100000
01000000
00010000
00000000
00000000
00000000
00010000
00000000
00100000
00000000
,
00101000
00000000
00001000
00000000
00010000
00000000
00000000
00000000
00010010
00000000
00000000
00000000
00000010
00000100
00000010
00000100
,
00000001
00001000
00000100
00000000
00001001
00000000
00000001
00000010
,
00000110
00000000
00010100
00000000
01001000
00000000
00010000
00100000
,
00000000
00000000
00000000
00010000
10000000
00000000
00000000
00000000
10010000
00000000
10000000
00000000
01000000
00000000
00100000
00000000
,
00100000
00001000
00011000
00000000
00010010
00000000
00000100
00000010
,
00002001
00000000
00003100
00000000
00001001
00000000
00000001
00000100
,
00000110
00000000
00010010
00000000
00101000
00000000
00010000
01000000
,
00000000
00000000
00000000
00010000
10000000
00000000
00000000
00000000
10010000
00000000
10000000
00000000
00100000
00000000
01000000
00000000
,
01000000
00000000
00001000
00000000
00011000
00000000
00000000
00000000
00000110
00000000
00000000
00000000
00000011
00000001
00000100
00000010
,
00000010
00000000
00010000
00000000
00001000
00000000
00100000
00000000
01100000
00000000
00000000
00000000
10000000
00000000
01010000
00000000
00000000
00000000
00000000
00010000
10000000
00000000
00000000
00000000
10100000
00000000
10000000
00000000
01000000
00000000
00100000
00000000
,
00210000
00000000
00302000
00000000
00003010
00000000
00000100
00000010
00002001
00000000
00003010
00000000
00000101
00000001
00000010
00000100
,
00000100
00000000
00010000
00000000
00001000
00000000
01000000
00000000
01100000
00000000
00000000
00000000
10000000
00000000
00110000
00000000
00000000
00000000
00000000
00010000
10000000
00000000
00000000
00000000
10000000
00000000
00100000
00000000
00000000
00000000
00001000
00000000
,
00000010
00000000
00000000
00000000
00000000
00000000
00000000
00000000
00000000
00000000
00000000
00000000
00000000
00000000
00000000
00000000
00000000
00000000
00000000
00000000
00000000
00000000
00000000
00000000
00000200
00000000
00000000
00000000
00000000
00000000
00000000
00000000
00000000
00000000
00000000
00000000
00000000
00000000
00000000
00000000
00000000
00000000
00000000
00000000
00000000
00000000
00000000
00000000
00020300
00000000
00000000
00000000
00000000
00000000
00000000
00000000
00000000
00000000
00000000
00000000
00000000
00000000
00000000
00000000
00000000
00000000
00000000
00000000
00000000
00000000
00000000
00000000
10030000
00000000
00000000
00000000
00000000
00000000
00000000
00000000
00000000
00000000
00000000
00000000
00000000
00000000
00000000
00000000
00000000
00000000
00000000
00000000
00000000
00000000
00000000
00000000
10010000
00000000
00000000
00000000
00000000
00000000
00000000
00000000
00000000
00000000
00000000
00000000
00000000
00000000
00000000
00000000
00000000
00000000
00000000
00000000
00000000
00000000
00000000
00000000
00011000
00000000
00000000
00000000
00000000
00000000
00000000
00000000
00000000
00000000
00000000
00000000
00000000
00000000
00000000
00000000
00000000
00000000
00000000
00000000
00000000
00000000
00000000
00000000
00001001
00000000
00000000
00000000
00000000
00000000
00000000
00000000
00000000
00000000
00000000
00000000
00001000
00000000
00000000
00000000
00000000
00000000
00000001
00000000
00000000
00000010
00000100
00000000
00000010
00000000
00000000
00000000
00000000
00000000
00000210
00000000
00000000
00000000
00000000
00000000
00010300
00000000
00000000
00011000
00000000
00000000
00000000
00000000
00000000
00000000
00000000
00000000
,
00001000
00000000
00000000
00000000
00000000
00000000
00000000
00000000
00000000
01100000
00000000
00000000
10010000
00000000
00000000
00000000
00000000
00000000
10000000
00000000
00000000
00000000
00000000
00000000
10000000
00000000
00000000
00020000
00000000
00000000
10030000
00000000
00000000
00000000
00000000
00000000
10010000
00000000
00000000
01100000
00000000
00000000
00000000
00000000
00000000
00000000
00000000
00000000
00011000
00000000
00000000
00010000
00000000
00000000
00001000
00000000
00000000
00100000
00000000
00000000
00010000
00000000
00000000
01000000
00000000
00000000
00100000
00000000
00000000
10000000
00000000
00000000
01000000
00000000
00000000
00100000
00000000
00000000
00010000
00000000
00000000
01000000
00000000
00000000
00001000
00000000
00000000
00010000
00000000
00000000
00000100
00000000
00000000
00000010
00000000
00000000
00000001
00000000
00000000
00000100
00000000
00000000
00000010
00000000
00000000
00001000
00000000
00000000
00000100
00000000
00000000
00010000
00000000
00000000
00001000
00000000
00000000
01000000
00000000
00000000
00100000
00000000
00000000
00100000
00000000
00000000
00100000
00000000
00000000
00100000
00000000
00000000
10000000
01000000
00000000
00100000
00001000
00000000
00010000
00000010
00000000
00000100
00000001
00000000
MMMMMMMM
00000000
00000000
00000000
00000000
00000000
00000000
00000000
00000000
00000000
00000000
00000000
00000000
00000000
00000000
00000000
00000000
00000000
00000000
00000000
00000000
00000000
00000000
00000000
MMMMMMMM
00000000
00000000
00000000
00000000
00000000
00000000
00000000
00000000
00000000
00000000
00000000
00000000
00000000
00000000
00000000
00000000
00000000
00000000
00000000
00000000
00000000
00000000
00000000
,
MMMMMMMM
MMMMMMMM
MMMMMMMM
MMMMMMMM
MMMMMMMM
MMMMMMMM
MMMMMMMM
MMMMMMMM
,
MMMMMMMM
MMMMMMMM
MMMMMMMM
MMMMMMMM
MMMMMMMM
MMMMMMMM
MMMMMMMM
MMMMMMMM
,
MMMMMMMM
MMMMMMMM
MMMMMMMM
MMMMMMMM
MMMMMMMM
MMMMMMMM
MMMMMMMM
MMMMMMMM
,
MMMMMMMM
MMMMMMMM
MMMMMMMM
MMMMMMMM
MMMMMMMM
MMMMMMMM
00000000
00000000
,
00000000
00000000
00000000
00000000
,
00000000
00000000
00000000
00000110
,
00000011
00000001
00000100
00000010
00000010
00010000
00001000
00100000
,
01100000
00000000
00000000
00000000
10000000
00000000
01010000
00000000
00000000
00000000
00000000
00010000
10000000
00000000
00000000
00000000
,
10100000
10000000
01000000
00100000
00210000
00000000
00302000
00000000
,
00003010
00000000
00000100
00000010
00002001
00000000
00003010
00000000
,
00000101
00000001
00000010
00000100
00000100
00010000
00001000
01000000
,
01100000
00000000
00000000
00000000
10000000
00000000
00110000
00000000
00000000
00000000
00000000
00010000
10000000
00000000
00000000
00000000
,
10000000
00100000
00000000
00001000
00000010
00000000
00000200
00000000
,
00020300
10030000
10010000
00011000
,
00001001
00000000
00000000
00000000
00000000
00000000
00000000
00000000
00001000
00000000
00000000
00000000
00000001
00000000
00000010
00000100
00000010
00000000
00000000
00000000
00000210
00000000
00000000
00000000
00010300
00000000
00011000
00000000
00000000
00000000
00000000
00000000
00001000
00000000
00000000
00000000
00000000
00000000
01100000
00000000
10010000
00000000
00000000
00000000
10000000
00000000
00000000
00000000
01000000
00000000
00200000
00000000
01300000
00000000
00000000
00000000
10010000
00000000
01100000
00000000
00000000
00000000
00000000
00000000
,
00011000
00000000
00010000
00000000
00001000
00000000
00100000
00000000
00010000
00000000
01000000
00000000
00100000
00000000
10000000
00000000
01000000
00000000
00100000
00000000
00010000
00000000
01000000
00000000
00001000
00000000
00010000
00000000
00000100
00000000
00000010
00000000
00000001
00000000
00000100
00000000
00000010
00000000
00001000
00000000
00000100
00000000
00010000
00000000
00001000
00000000
01000000
00000000
00100000
00000000
00100000
00000000
00100000
00000000
00100000
00000000
10000000
01000000
00100000
00010000
00001000
00000100
00000010
00000001
,
00000000
00000000
00000000
00000000
00000000
00000000
00000000
00000000
00000220
00000000
00000000
00000330
MMMMMMMM
00000000
00000000
00000000
MMMMMMMM
00000000
00000000
00000000
MMMMMMMM
00000000
00000000
00000000
MMMMMMMM
00000000
00000000
00000000
MMMMMMMM
00000000
00000000
00000000
,
MMMMMMMM
MMMMMMMM
MMMMMMMM
MMMMMMMM
MMMMMMMM
MMMMMMMM
MMMMMMMM
MMMMMMMM
,
MMMMMMMM
MMMMMMMM
MMMMMMMM
MMMMMMMM
MMMMMMMM
MMMMMMMM
MMMMMMMM
MMMMMMMM
,
MMMMMMMM
MMMMMMMM
MMMMMMMM
MMMMMMMM
MMMMMMMM
MMMMMMMM
MMMMMMMM
MMMMMMMM
,
MMMMMMMM
MMMMMMMM
MMMMMMMM
MMMMMMMM
MMMMMMMM
MMMMMMMM
MMMMMMMM
MMMMMMMM
,
MMMMMMMM
MMMMMMMM
MMMMMMMM
MMMMMMMM
MMMMMMMM
MMMMMMMM
MMMMMMMM
MMMMMMMM
,
MMMMMMMM
MMMMMMMM
MMMMMMMM
MMMMMMMM
MMMMMMMM
MMMMMMMM
MMMMMMMM
MMMMMMMM
,
MMMMMMMM
MMMMMMMM
MMMMMMMM
MMMMMMMM
MMMMMMMM
MMMMMMMM
MMMMMMMM
MMMMMMMM
,
MMMMMMMM
MMMMMMMM
MMMMMMMM
MMMMMMMM
MMMMMMMM
MMMMMMMM
MMMMMMMM
MMMMMMMM
,
MMMMMMMM
MMMMMMMM
MMMMMMMM
MMMMMMMM
MMMMMMMM
MMMMMMMM
MMMMMMMM
MMMMMMMM
,
MMMMMMMM
MMMMMMMM
00000000
00000000
00000000
00000000
00000000
00000000
,
00000000
00000000
00000000
00000000
,
00000000
00000220
00000000
00000330
,
00000000
00000000
00000000
00000000
,
00000000
00000000
00000000
00000000
,
00000000
00000000
00000000
00000000
,
00000000
00000000
00000010
00001001
,
00000001
00000100
00001000
00000000
00010000
00000000
00100000
10000000
,
01000000
00010000
00001000
00000000
00000110
00000000
00001000
00010000
,
01000000
10000000
00100000
00000000
01000000
00000000
00011000
00000000
,
00101000
00010010
00000101
00001001
,
00000001
00000010
00001000
00000000
00010000
00000000
01000000
10000000
,
00100000
00010000
00001000
00000000
00000110
00000000
00001000
00010000
,
00100000
10000000
01000000
00000000
00100000
00000000
00011000
00000000
,
00010100
01001000
10100000
10010000
,
10000000
01000000
00010000
00000000
00001000
00000000
00000010
00000001
,
00000100
00001000
00010000
00000000
01100000
00000000
00010000
00001000
,
00000100
00000001
00000010
00000000
00000100
00000000
00011000
00000000
,
00010010
00101000
11000000
10010000
,
10000000
00100000
00010000
00000000
00001000
00000000
00000100
00000001
,
00000010
00001000
00010000
00000000
01100000
00000000
00010000
00001000
,
00000010
00000001
00000100
00000000
00000010
00000000
00011000
00000000
,
01001000
00000000
00010100
00000000
00000011
00000000
00000001
00000010
,
00001000
00000010
00000001
00000100
00001000
00000000
00010000
00100000
,
10000000
01000000
00010000
01000000
10000000
00000000
01000000
00010000
,
00001000
00000100
00000010
00001000
00000100
00000000
00010100
00000000
,
00001010
00000000
00110000
00000000
01001000
00000000
10000000
00100000
,
00010000
00100000
10000000
01000000
00010000
00000000
00001000
00000010
,
00000001
00000100
00001000
00000100
00000001
00000000
00000100
00001000
,
00010000
01000000
00100000
00010000
01000000
00000000
01001000
00000000
,
00010010
00000000
00101000
00000000
10100000
00000000
10000000
01000000
,
00010000
01000000
10000000
00100000
00010000
00000000
00001000
00000100
,
00000001
00000010
00001000
00000010
00000001
00000000
00000010
00001000
,
00010000
00100000
01000000
00010000
00100000
00000000
01001000
00000000
,
00110000
00000000
00001010
00000000
00010100
00000000
00000001
00000100
,
00001000
00000100
00000001
00000010
00001000
00000000
00010000
01000000
,
10000000
00100000
00010000
00100000
10000000
00000000
00100000
00010000
,
00001000
00000010
00000100
00001000
00000010
00000000
00010100
00000000
,
00101000
00000000
00010010
00000000
00001100
00000000
00001000
00000100
,
00000010
00000100
00001000
00000000
00001000
00000010
00000001
00000010
,
00001000
00000000
00010000
01000000
00100000
01000000
00010000
00000000
,
00010000
00100000
10000000
00100000
00010000
00000000
00001000
00000100
,
00000001
00000100
00001000
00000000
00010000
01000000
10000000
01000000
,
00010000
00000000
00001000
00000100
00000010
00000001
00000100
00001000
,
00010000
01000000
10000000
00000000
00000000
00000000
00000000
00000000
,
00000000
00000000
00000000
00000000
,
00000000
00000000
00000000
00000000
,
00000000
00000000
00000000
00000000
,
00000000
00000000
10000000
01000000
00100000
00010000
01000000
00001000
,
00010000
00000100
00001000
00000001
00000100
00000010
00001000
00000100
,
00010000
00001000
01000000
00010000
10000000
00100000
01000000
00010000
,
00100000
00001000
00010000
00000010
00001000
00000001
00000010
00000100
,
00001000
00000010
00000200
00000000
00000310
00000000
00001001
00000001
,
00000010
00000110
00000100
00010000
00021000
00000000
00000000
00000000
,
00130000
00000000
10010000
10000000
01000000
01100000
00100000
00001000
,
00012000
00000000
00003100
00000001
00000010
00000110
00000100
00001000
,
00001001
00000001
00000100
00000110
00000010
00010000
00021000
00000000
,
00000000
00000000
01030000
00000000
10010000
10000000
00100000
01100000
,
01000000
00001000
00012000
00000000
00003010
00000001
00000100
00000110
,
00000010
00001000
00000001
00000000
00000010
00000000
00000100
00000000
,
00010000
00001000
00100000
01000000
,
10000000
00000000
00200000
02300000
03002000
00023000
00030200
00000320
,
00000032
00001003
00002001
00000000
00000000
00000000
00000010
00000000
,
00000000
00003002
00000000
00000023
,
00000000
00002030
00000000
00100000
,
00000000
00023000
00000000
00032000
,
00000000
02003000
00000000
00100000
,
00000000
23000000
00000000
30020000
,
00000000
00230000
00000000
20300000
,
00000000
32000000
00000000
03020000
,
00000000
00032000
00000000
01000000
,
00000000
00023000
00000000
00030200
,
00000000
00000302
00000000
00000203
,
00000000
00000320
00000000
00000100
,
00000000
00000032
00000000
00000010
,
00000000
00010000
00000000
00001000
,
00000000
00000203
00000000
00000010
,
00000000
00002300
00000000
00023000
,
00000000
00000000
00000000
00000000
00031000
00010000
00001000
00000000
00010000
00000000
00000010
00000000
00000001
00000000
00000010
00000000
,
00010000
00000000
00001000
00000000
00100000
01000000
00100000
01000000
10000000
00000000
00100000
00000000
00001000
00000000
00100000
00000000
,
10000000
01000000
00200000
00000000
00000000
00000000
00302000
00000000
,
00000000
00000000
00000000
00000000
00013000
00000000
00001000
00000000
00000010
00000100
00000010
00000100
00001000
00000000
00000001
00000000
,
00000100
00000000
00010000
00000000
00000100
00000010
00000100
00000000
00001000
00000000
00010000
00001000
00010000
00000000
00100000
00000000
,
10000000
01000000
00001000
01000000
10000000
00100000
00010000
00001000
,
00000010
00000100
00000010
00000000
00000001
00000000
00000100
00000000
00001000
00000000
00010000
00000000
00100000
01000000
00100000
00000000
,
10000000
00010000
00200000
00000000
00000000
00000000
02300000
00000000
,
00000000
00000000
03010000
00001000
00000001
00001000
00010000
00000010
,
00001000
00000001
00001000
00000001
00000100
00000000
00001000
00000000
00010000
00000000
10000000
00000000
00010000
00000000
00001000
00000000
,
00010000
01000000
20000000
00000000
00000000
00000000
30200000
00000000
,
00000000
00000000
00000000
00000000
00310000
00001000
00010000
00000000
00000010
00000100
00000010
00000100
00000010
00000000
00010000
00000000
,
00100000
00000000
00010000
00000000
00000010
00000100
00000010
00000000
00000100
00000000
00000001
00001000
00000001
00000000
00001000
00000000
,
00000100
00000000
00010000
00000000
01000000
00000000
00010000
00000000
00000100
00000000
00000010
00000000
00001000
00010000
00001000
00000000
,
01000000
00001000
01000000
00000000
00100000
00000000
10000000
00000000
00010000
00100000
01000000
10000000
00010000
00000000
01000000
00000000
,
00100000
10000000
02000000
00000000
00000000
00000000
03020000
00000000
,
00000000
00032000
00003001
00000000
;
