#TITLE:Air Guardian '17;
#ARTIST:fractilx vs アイスベア;
#ARTISTTRANSLIT:fractilx vs Ice Bear;
#BANNER:Air Guardian '17.png;
#BACKGROUND:Air Guardian '17-bg.png;
#MUSIC:Air Guardian '17.ogg;
#OFFSET:1.300273;
#SAMPLESTART:53.352;
#SAMPLELENGTH:15;
#BPMS:0=180,68=90,84=180;
#STOPS:146=0.167,146.5=0.167,273=0.167,273.5=0.167;

//---------------dance-single - NewbStepper-bSP----------------
#NOTES:
     dance-single:
     NewbStepper:
     Beginner:
     3:
     :
0000
0000
0000
0000
,
0000
0000
0000
0000
,
0000
0000
0000
0000
,
0000
0000
0000
0000
,
0000
0000
0000
0000
,
0010
0000
0000
0000
,
0000
0000
0000
0000
,
0010
0000
0000
0000
,
1000
0000
0000
0000
,
0001
0000
0000
0000
,
0000
0000
0000
0000
,
0001
0000
0000
0000
,
0000
0000
0000
0000
,
1000
0000
0000
0000
,
1000
0000
0000
0000
,
0001
0001
0001
0001
,
0001
0000
0000
0000
,
0010
0000
0010
0000
,
0010
0000
0010
0000
,
0010
0000
0010
0000
,
0010
0000
0010
0000
,
1000
1000
0000
0000
,
0001
0001
0000
0000
,
1000
1000
0000
0000
,
0010
0010
0000
0000
,
0100
0100
0000
0000
,
0001
0000
0001
0000
,
0100
0000
0100
0000
,
1000
0000
1000
0000
,
0010
0010
0000
0000
,
1000
1000
0000
0000
,
0100
0100
0000
0000
,
0001
0001
0000
0000
,
0010
0000
0000
0000
,
0010
0000
0000
0000
,
1000
1000
1000
1000
,
1000
0000
0000
0000
,
0001
0000
0000
1000
,
1000
0000
0000
0100
,
0100
0000
0000
0001
,
0001
0000
0000
0010
,
0010
0000
0000
1000
,
1000
0000
0000
0001
,
0001
0000
0000
0100
,
0100
0000
0000
0010
,
0000
0010
0000
0010
,
0000
0010
0000
1000
,
0000
1000
0000
1000
,
0000
1000
0000
0001
,
0000
0001
0000
0001
,
0000
0001
0000
0100
,
0000
0100
0000
0100
,
0000
0100
0000
0010
,
0000
0000
0000
0000
,
0000
0000
0000
1000
,
0000
0000
0000
0000
,
0000
0000
0000
0001
,
0000
0000
0000
0000
,
0000
0000
0000
0100
,
0000
0000
0000
0000
,
0000
0000
0000
0001
,
0000
0001
0000
1000
,
0000
1000
0000
0001
,
0000
0001
0000
0100
,
0000
0100
0000
0001
,
0000
0010
0000
0100
,
0000
1000
0000
0020
,
0000
0000
0030
0000
,
0000
0000
0000
1000
,
0000
0000
0001
0001
,
0000
0000
0100
0100
,
0000
0000
1000
1000
,
0000
0000
0010
0010
,
0010
0000
1000
1000
,
1000
0000
0001
0001
,
0001
0000
1000
1000
,
1000
0000
0001
0000
,
1000
0000
0001
0000
,
1000
0000
0010
0000
,
0100
0000
0010
0000
,
0100
0000
0001
0001
,
0000
0000
1000
1000
,
0000
0000
0100
0100
,
0100
0100
0200
0000
,
0300
0000
0100
0000
;

//---------------dance-single - NewbStepper-BSP----------------
#NOTES:
     dance-single:
     NewbStepper:
     Easy:
     9:
     :
0000
0000
0000
0000
,
0000
0000
0000
0000
,
0000
0000
0000
0000
,
0000
0000
0000
0000
,
0000
0000
0000
0000
,
2000
0000
0000
0000
,
0000
0000
3000
0000
,
0002
0000
0003
0000
,
1001
0000
0000
0000
,
1000
0000
0100
0000
1000
0010
0000
0010
,
0000
0100
0001
0100
,
0001
0000
0010
0000
0001
1000
0001
0000
,
1000
0100
0001
0010
,
1000
0100
1000
0000
0001
0100
0000
0100
,
0000
0001
0010
0000
0100
0000
0010
0000
,
2002
0000
0000
3003
,
1001
0000
0000
0000
,
2000
0000
3000
0000
,
0200
0000
0300
0000
,
0020
0000
0030
0000
,
0002
0000
0003
0000
,
1000
0100
1000
0000
,
0100
0001
0100
0000
,
0001
0010
0001
0000
,
0010
1000
0010
0000
,
1000
1000
0100
0100
,
0010
0010
0001
0001
,
0101
1100
0101
0110
,
2002
0000
0000
3003
,
1010
0010
0010
0010
,
0010
0010
0010
0010
,
0101
0100
0100
0100
,
0100
0100
0100
0100
,
0001
0100
0001
0000
1000
0000
0100
0000
,
1000
0100
1000
0000
0001
0000
0100
0000
,
0010
0100
0010
0000
0100
0010
0100
0000
,
1001
0000
0000
1000
,
0100
0001
0010
1000
,
1100
0001
0101
0010
,
0001
0100
1000
0010
,
0110
0000
1000
0000
1001
0000
0010
0100
,
0010
0000
1000
0000
0001
0000
0010
0100
,
0010
0001
1000
0001
,
0100
1000
0010
0001
,
0100
0010
1001
1100
,
0010
0010
0010
0001
,
0100
0010
1000
0101
,
0010
0010
0010
1000
,
0100
0000
0010
0000
0001
0000
1000
0100
,
0100
0000
0001
0100
0100
0000
1000
0010
,
0010
0000
0001
0010
0010
0000
1000
0000
,
0100
0001
0010
2002
,
0000
0000
3003
0020
,
0000
0000
0030
2000
,
0000
0000
3000
0200
,
0000
0000
0300
0002
,
0000
0000
0003
0020
,
0000
0000
0030
2000
,
0000
0000
3000
0200
,
0000
0000
0300
0002
,
0000
0000
0003
1000
,
1000
1000
1000
1000
,
1000
1000
1000
0001
,
0001
0001
0001
0001
,
0001
0001
0001
0100
,
0100
0100
0100
0100
,
0100
0000
0100
0000
0100
0000
0010
1000
,
0010
0000
0100
0001
0100
0000
0110
0000
,
0000
0000
1001
0000
0010
0000
1000
0010
,
1000
0000
0000
0000
0010
0000
0001
0010
,
0001
0000
0000
0000
0100
0000
1000
0100
,
1000
0000
0000
0000
0100
0000
0001
0100
,
0001
0000
1000
0001
,
1000
0000
0000
0000
0010
1000
0001
0000
,
0010
0001
1000
0000
0100
0010
0100
0000
,
1000
0001
1000
0000
1100
0000
0001
0000
,
0101
0000
1000
0000
0010
1000
0010
1000
,
0001
0000
0000
0000
0010
0001
0010
0001
,
1000
0000
0000
0000
0100
1000
0100
1000
,
0001
0000
0000
0000
0100
0001
0100
0001
,
1000
0000
0010
1000
,
0100
0100
0010
1000
,
0100
0100
0001
0010
,
0100
0000
1000
0000
0001
0100
0001
1000
,
0100
1000
0001
0000
0100
0000
0000
0000
;

//---------------dance-single - NewbStepper-DSP----------------
#NOTES:
     dance-single:
     NewbStepper:
     Medium:
     11:
     :
0000
0000
0000
0000
,
0000
0000
0000
0000
,
0000
0000
0000
0000
,
0000
0000
0000
0000
,
0000
0000
0000
0000
,
0002
0000
0000
0000
,
2000
0000
0003
0000
,
0020
0000
3030
0000
,
0110
0000
0000
0000
,
0001
0000
0001
0000
0001
0000
0100
0010
,
1000
0000
1000
0000
1000
0000
0100
0010
,
0001
0100
0010
1000
,
0100
0000
0001
0000
0100
0010
0110
0000
,
1000
0100
1000
0000
0100
0001
0100
0000
,
0001
0010
0001
0000
0010
1000
0010
0000
,
1000
0100
0010
0001
0100
0010
1000
0001
,
0020
0000
0000
0000
,
0032
0003
2000
3000
,
0020
0030
0200
0300
,
0002
0103
0200
1300
,
2000
3010
0020
0031
,
1001
0000
0100
0000
0010
0000
1000
0001
,
0010
0000
0100
0000
0010
0000
0001
1000
,
0010
0000
0100
0000
1000
0000
0100
0001
,
0010
0000
0100
0000
0001
0000
0100
1000
,
0010
0000
0100
0000
0001
0001
0001
0000
,
0010
0000
0100
0000
1000
1000
1000
0000
,
0100
0010
0100
0000
1000
0001
1000
0000
,
0220
0000
0000
0330
,
1001
0010
0010
0010
,
0010
0010
0010
0010
,
1001
0100
0100
0100
,
0100
0100
0100
0100
,
0101
0001
0010
0000
0100
1000
0010
0000
,
1100
1000
0010
0000
0100
0001
0010
0000
,
0110
1000
0001
0000
0110
0001
1000
0000
,
2002
0000
0000
3003
0000
1001
0001
0000
,
0100
0000
1000
0100
0001
0000
1000
0000
,
0100
0000
0001
0100
1000
0000
0010
0000
,
0100
0000
0001
0010
0100
1000
0100
0000
,
0011
0100
1010
1000
,
0100
0000
0001
0100
1000
0000
0001
0000
,
0100
0000
1000
0100
0001
0000
0010
0000
,
0100
0000
1000
0010
0100
0001
0100
0000
,
1010
0000
0100
0000
0011
0000
1000
0100
,
0010
0000
0100
0000
1000
0000
0000
0001
0000
0000
1000
0000
0001
0000
0100
0000
,
0010
0000
0100
0000
0001
0000
0000
1000
0000
0000
0001
0000
0010
0000
0100
0000
,
1000
0000
0010
0100
0001
0000
0101
0000
,
0010
0000
1100
0000
0010
0000
0001
0100
,
0001
0000
0100
1000
0100
0000
1000
0010
,
1000
0000
0010
0001
0010
0000
0001
0100
,
0010
1000
0100
0010
0001
0100
0010
1000
,
0001
0010
0100
1000
0001
0000
2000
0000
,
0000
0100
0100
3002
,
0000
0100
0100
2003
,
0000
0010
0010
3002
,
0000
0010
0013
0100
,
1000
0010
1010
0100
,
0001
0010
0011
0001
,
0100
1000
0100
2002
,
0000
0000
0000
0000
3003
0000
0010
1000
,
0010
0000
0100
0001
0100
0000
0001
1000
,
0100
0000
1000
0001
0100
0000
0001
0100
,
1000
0000
0100
0010
0100
0000
0001
0010
,
0100
0000
1000
0010
0100
0000
0001
1000
,
0010
1000
0001
0010
0001
0000
1000
0001
,
0010
0001
1000
0010
1000
0000
0001
0100
,
0001
0100
0010
1000
0010
1000
0100
0000
,
0220
0000
0000
0000
0330
0000
1001
0000
0010
0000
0000
0001
0000
0000
0100
0000
,
0010
0000
1000
0000
0010
0000
0000
0000
0100
0000
0000
0100
0000
0000
0010
0000
,
0000
0010
0000
0000
1000
0000
1000
0000
0010
0000
0000
1000
0000
0000
0100
0000
,
0010
0000
0001
0000
0010
0000
0000
0000
0100
0000
0000
1000
0000
0000
0001
0000
,
0000
1000
0000
0000
0100
0000
0010
0000
0001
0000
0000
0100
0000
0000
0010
0000
,
0000
0100
0000
0000
0001
0000
0010
0000
0100
0000
1000
0000
0000
0001
0000
0000
,
1000
0000
0000
0100
0000
0000
0010
0000
0001
0000
0100
0000
0001
0000
0000
0000
,
1000
0100
1000
0000
1010
0000
0101
0000
,
0110
0000
0000
0000
1001
0000
0000
0000
0010
0000
0000
1000
0000
0000
0010
0000
,
0010
0000
0000
0001
0000
0000
0010
0000
0010
0000
0000
1000
0000
0000
0100
0000
,
0010
0000
0001
0000
1000
0000
0100
0000
0010
0000
0000
0001
0000
0000
0010
0000
,
0010
0000
0000
1000
0000
0000
0010
0000
0010
0000
0000
0001
0000
0000
0100
0000
,
0000
0010
1000
0000
0001
0100
0001
0000
,
0100
1000
0100
0000
1000
0010
1000
0000
,
0010
0001
0010
0000
0001
0100
0010
1000
,
0100
0010
0001
1000
0010
0000
0101
0000
,
0010
1100
1001
0000
;

//---------------dance-single - Marten-ESP----------------
#NOTES:
     dance-single:
     Marten:
     Hard:
     15:
     :
0000
0000
0000
0000
,
0000
0000
0000
0000
,
0000
0000
0000
0000
,
0000
0000
0000
0000
,
0000
0000
0000
0000
,
1000
1010
0100
1001
,
0001
0011
0100
1001
,
0100
1100
0010
0110
,
2002
0000
0000
3003
,
0001
0100
0001
1000
0100
0010
1000
0010
,
0000
0000
0001
0000
1000
0000
0100
0000
1000
0000
0010
0100
0000
0010
0100
0000
,
0001
0100
1000
0100
0001
0010
0100
0010
,
0001
0000
1000
0010
0000
1000
0010
0000
0100
0000
0001
1000
0000
0100
0010
0001
,
0010
0001
0010
0001
1000
0010
1000
0010
,
0100
0001
0100
0001
1000
0100
1000
0100
,
0010
0001
1000
0000
0010
0100
0001
0000
1000
0100
0010
0001
0010
0100
1000
0001
,
0200
0000
0000
0000
,
0302
0013
2000
3010
,
0002
0103
2000
3100
,
0020
0031
0200
1300
,
0020
1030
0200
0301
,
1001
0000
0000
0000
0100
0000
0000
0000
0010
0000
0000
1000
0000
0000
0001
0000
,
0100
0000
0000
0000
0011
0000
0000
0000
0100
0000
0000
1000
0000
0000
0010
0000
,
1000
0000
0000
0000
0101
0000
0000
0000
0010
0000
0000
0001
0000
0000
0100
0000
,
0010
0000
0000
0000
1100
0000
0000
0000
0010
0000
0000
0001
0000
0000
1000
0000
,
0010
0000
0000
0000
1001
0000
0000
0000
0100
0000
0000
0010
0000
0000
0001
0000
,
1000
0000
0000
0000
0110
0000
0000
0000
0100
0000
0000
0001
0000
0000
0010
0000
,
1000
0000
0000
0000
0110
0000
0000
0000
0001
0000
0000
0010
0000
0000
0100
0000
,
0010
0000
0000
0000
1100
0000
0000
0000
1000
0000
0000
0010
0000
0000
0100
0000
,
2001
0001
0010
0010
,
0100
0100
0001
3001
,
1002
1000
0100
0100
,
0010
0000
0000
0000
0013
0000
0000
0000
0001
0000
1000
0000
0010
0100
0000
0100
,
0010
1000
0001
1000
0010
1000
0001
1000
,
0100
0010
0001
0010
0100
0010
0001
0010
,
0100
1000
0100
1000
0001
1000
0001
1000
0010
1000
0100
0010
0100
1000
0001
0100
,
0020
0030
0020
0030
0110
1001
0101
0001
,
0010
0000
0100
0000
0010
0000
0001
1000
0000
0000
0100
0000
1000
0000
0010
0000
,
0001
0000
0010
0000
1000
0000
0100
1000
0000
0001
0100
0001
0010
0000
0100
0000
,
0010
0000
0001
0000
1000
0000
0010
0100
0000
0000
0001
0000
0010
0000
0001
0000
,
1000
0000
0100
0000
0001
0000
0100
1000
0000
0010
1000
0000
0100
0000
1000
0000
,
0001
0000
0100
0000
1000
0000
0100
0001
0000
0000
0010
0000
0001
0000
1000
0000
,
0100
0000
0010
0000
0100
0000
1000
0010
0000
0100
0001
0100
0001
0000
1000
0000
,
0001
0000
0100
0000
0010
0000
0001
0010
0000
0000
1000
0000
0001
0000
0010
0000
,
0100
1000
0001
1000
0100
0010
0110
0100
,
1100
0000
0000
0000
1001
0000
0000
0001
0100
0000
0010
0000
0001
0000
0010
0000
,
1000
0000
0100
0000
1000
0000
0001
0010
0000
0001
0100
0000
0101
0000
0001
0000
,
1001
0000
0000
0000
0110
0000
0000
0010
1000
0000
0001
0000
0010
0000
0001
0000
,
0100
1000
0100
0001
1000
0001
0100
0100
,
0010
0010
1000
1000
0001
0001
0010
0010
,
0100
0100
1000
1000
0001
0001
1000
0010
,
0001
0000
0010
0000
1000
0000
0100
0000
0001
0000
0100
0000
1000
0100
1000
0001
,
1000
0010
0100
0001
0100
0010
1000
0001
0010
0001
0100
0010
2000
0000
0000
0000
,
3020
0230
0302
2003
,
3002
0023
0230
2300
,
3002
0203
2300
3200
,
0302
0023
2030
3020
,
0032
2003
3020
0230
,
0302
2003
3200
0320
,
0032
0000
2003
0000
3002
0000
0013
0100
,
1000
0001
0100
0010
1000
0001
0010
0001
,
1000
0010
0100
0010
1000
0100
0010
0100
,
1000
0001
0100
0010
0100
0001
0010
1000
,
0010
0001
0100
0010
1000
0010
0100
0001
,
1000
0000
0100
0000
0001
0000
0100
0000
1000
0000
0010
0000
1000
0000
0001
0010
,
0001
0000
0100
0001
0100
0000
0010
1000
0010
0000
1000
0001
1000
0000
0100
0010
,
0001
0000
0100
0010
1000
0000
0001
0010
0100
0000
1000
0001
0100
0000
0001
0000
,
0100
0000
0010
0000
1000
0010
0100
0010
1000
0001
1000
0100
0020
0000
0030
0000
,
0020
0000
0030
0000
0110
0000
1001
0000
0100
1000
0000
0001
0000
0100
0001
0000
,
0010
0000
0100
1000
0000
0001
1000
0000
0010
0000
1000
0010
0000
0100
0010
0000
,
1000
0000
0001
0000
0100
0000
1000
0000
0100
0000
0001
0010
0000
0001
1000
0000
,
0010
0100
0000
0001
1000
0000
0001
0000
0010
0000
0100
1000
0000
0001
1000
0000
,
0010
1000
0000
0010
0100
0000
0001
0000
0010
0000
1000
0010
0000
0001
0010
0000
,
0100
1000
0000
0001
0100
0001
0000
1000
0000
0000
0200
0000
0000
2300
0000
0000
,
3020
0000
0000
0230
0000
0000
0301
0000
1001
0000
0000
0001
0000
0000
0010
0000
,
0100
0000
0010
0000
0001
0100
0001
0100
0010
0000
0000
1000
0000
0000
0100
0000
,
0010
0000
0100
0000
1000
0001
1000
0001
0100
0000
0000
0001
0000
0000
1000
0000
,
0100
1000
0000
0001
0000
0100
0010
0000
1000
0000
0010
0100
0000
0001
0000
0100
,
0001
0010
0001
0020
0000
0000
0130
0000
1000
0000
0000
0001
0000
0000
0100
0010
,
0000
1000
0000
0010
0100
0000
0001
0000
0010
0000
0000
0100
0000
1000
0001
0000
,
0000
0100
0001
0000
1000
0000
0001
0010
0001
0000
0100
0000
0010
0000
1000
0000
,
0010
0100
0001
1000
0100
0010
0001
1000
,
0010
0001
0010
1000
0001
0100
1000
0100
,
0001
0000
0010
0000
0100
0000
1000
0000
0001
0100
0001
0100
0010
0100
0010
0100
,
0001
0010
0100
2000
0000
0000
0000
0000
3001
0000
0000
0000
0000
0000
0000
0000
;

//---------------dance-single - Marten-CSP----------------
#NOTES:
     dance-single:
     Marten:
     Challenge:
     18:
     :
0000
0000
0000
0000
,
0000
0000
0000
0000
,
0000
0000
0000
0000
,
0000
0000
0000
0000
,
0000
0000
0000
0000
,
0001
0100
0010
0100
0001
0010
0100
1000
,
0001
1000
0100
1000
0010
0001
0010
1000
,
0001
0100
0010
0100
1000
0001
0010
1000
,
2002
0000
0000
3003
,
0101
0001
0010
1000
0001
0100
1000
0010
,
0001
0000
0010
0000
0100
0000
0001
0000
0010
0000
0100
0010
0000
0001
1000
0000
,
0010
0000
0100
0000
0001
0000
1000
0000
0010
0000
0001
0000
0010
1000
0001
0000
,
0010
0000
0001
1000
0000
0010
1000
0001
0010
0000
0100
0010
0000
0001
0100
0010
,
1000
0000
0001
0100
1000
0000
1000
0100
0001
0000
0001
0010
1000
0000
1000
0010
,
0001
0000
1000
0010
0100
0000
0001
0010
0100
0000
1000
0100
0010
0001
0100
0010
,
0100
0001
0010
0100
0010
0001
0010
0100
1000
0010
1000
0100
1000
0010
0001
0010
,
2000
0000
0000
0000
,
3002
0000
0000
0000
0100
0000
0000
0000
0023
0000
0000
1000
0000
0000
0001
0000
0230
0000
0000
0000
0010
0000
0000
0000
2300
0000
0000
0010
0000
0000
0100
0000
,
3020
0000
0000
0000
0001
0000
0000
0000
0230
0000
0000
1000
0000
0000
0010
0000
0302
0000
0000
0000
0013
0000
2000
0000
0000
0000
3010
0000
0002
0000
0100
0000
,
0023
0000
0000
0000
0001
0000
0000
0000
0230
0000
0000
0001
0000
0000
0010
0000
2300
0000
0000
0000
0001
0000
0000
0000
3020
0000
0000
0001
0000
0000
0100
0000
,
2030
0000
0000
0000
0010
0000
0000
0000
3200
0000
0000
1000
0000
0000
0010
0000
0302
0000
0000
0000
0000
0000
0023
0000
0000
0000
0000
0000
0130
0000
0000
0000
,
0001
0000
0100
0000
1010
0000
1000
0000
0100
0000
0001
0100
0000
1000
0001
0000
,
0100
0000
0010
0000
0101
0000
0010
0000
1000
0000
0010
0001
0010
0100
0010
1000
,
0001
0000
0100
0000
0011
0000
0100
0000
0001
0000
1000
0010
0000
0001
1000
0010
,
1000
0000
0001
0000
1100
0000
0010
0000
0001
0000
0100
0010
0100
1000
0100
0001
,
1000
0000
0001
0000
0110
0000
1000
0000
0001
0000
0010
1000
0000
0001
0100
0000
,
1000
0000
0010
0000
1001
0000
0100
0010
0100
0000
0001
0010
0001
0100
0010
0001
,
0010
0000
1000
0000
0110
0000
0001
0000
1000
0000
0010
0001
0000
1000
0100
0000
,
0001
0000
0010
0000
1001
0000
0100
0000
0010
0000
0001
1000
0100
0001
0100
1000
,
0001
0001
1000
1000
,
0010
0010
0100
0100
,
0001
0010
0100
1000
0001
0010
0100
1000
,
0001
0100
0010
1000
0001
0100
0010
1000
,
0001
0100
0001
0010
0001
0100
0010
1000
0100
1000
0010
1000
0100
1000
0010
0100
,
0001
0010
0100
0010
0001
0010
0100
0010
0001
0100
0010
0100
0001
0100
0010
1000
,
0100
0010
0001
0100
0010
1000
0100
0010
0001
0100
0010
1000
0100
0010
0001
0000
,
2002
3003
2020
3030
0101
0110
1001
0010
,
0010
0000
1000
0001
0100
0000
0001
0010
0000
0010
0100
0000
1000
0000
0010
0000
,
0010
0000
0001
1000
0010
0000
0100
0001
1000
0001
0010
0100
1000
0000
0100
0000
,
0100
0000
0001
1000
0010
0000
0100
0001
0000
0001
0010
0000
0001
0000
0100
0000
,
0100
0000
1000
0001
0100
0000
0010
0100
0001
0010
0100
0010
0001
0000
0010
0001
,
1000
0000
0100
0000
0100
0000
0001
1000
0000
0010
0100
0000
0001
0000
0010
0000
,
0010
0000
1000
0010
0100
0000
0001
0100
0010
0100
1000
0100
0010
0000
1000
0100
,
0010
0000
0100
0000
0100
0000
0001
0100
0000
0010
0100
0000
0001
0000
0100
0000
,
0100
0000
1000
0001
0100
0000
0001
0010
0100
0001
0100
0000
1100
0000
0001
0000
,
1010
0000
0001
0000
1100
0000
0010
0001
0000
1000
0010
0000
0101
0000
1000
0000
,
0011
0000
1000
0000
0101
0000
0001
1000
0010
1000
0001
0000
1001
0000
0100
0000
,
1001
0000
0010
0000
1001
0000
0100
0001
0000
1000
0100
0000
0110
0000
0001
0000
,
0110
0000
1000
0000
0110
0000
0001
1000
0010
0100
0001
0000
1000
0100
0010
0100
,
1000
0100
0010
0100
1000
0010
0100
0010
1000
0010
0100
0001
0100
0010
0100
0001
,
0010
0100
0010
0001
0010
0100
0010
0001
0100
0010
0100
0001
1000
0010
0100
0001
,
1000
0010
0100
0001
0010
0100
0010
0001
0100
0010
1000
0010
0100
0010
1000
0100
,
0010
0100
1000
0100
0010
0001
0100
0010
1000
0100
0010
0001
2000
0000
0000
0000
,
3020
0032
0023
2030
,
3200
0302
0203
2300
,
3020
0230
0302
0023
,
0230
2300
3002
0023
,
2030
3002
0203
2300
,
3002
2003
3020
0032
,
2003
3200
0302
0023
,
2030
0000
3200
0000
0302
0000
1003
0100
,
0001
0100
1000
0010
0001
0010
0100
0001
,
0010
1000
0001
0100
1000
0001
0100
1000
,
0001
1000
0100
0001
0010
1000
0001
1000
,
0010
0000
0001
0000
1000
0000
0010
0000
0100
0000
0001
0000
1000
0100
0010
0100
,
1000
0001
0100
0001
1000
0001
0100
0001
0010
0001
0100
0001
0010
0001
0100
0010
,
0100
0001
0100
0010
0100
0001
1000
0100
0010
0100
1000
0100
0010
0001
1000
0010
,
1000
0001
0010
0001
1000
0001
0010
0100
0010
0001
1000
0000
2002
0000
3003
0000
,
0022
0000
0033
0000
1100
0000
0110
0000
0001
0010
0001
0100
0000
0010
1000
0000
,
0001
0000
0100
0001
0000
1000
0100
0000
0010
0001
1000
0010
0000
0100
0001
0000
,
0020
0000
1000
0000
0230
0000
0001
0000
1300
0000
1000
0010
0000
0010
0001
0000
,
0001
0100
0000
0100
1000
0010
0100
0000
1001
0000
0001
0100
0000
0100
0010
0000
,
0010
0001
0000
0001
1000
0100
0001
0000
1000
0000
0100
0010
0000
0010
1000
0000
,
1000
0001
0000
0001
0100
1000
0000
1000
0001
0000
0011
0000
0000
0101
0000
0000
,
1100
0000
0000
1010
0000
0000
0110
0000
1002
0000
0000
0010
0000
0000
1000
0000
,
0103
0010
1000
0100
0010
0001
0010
0100
2000
0000
0000
0010
0000
0000
0001
0000
,
3100
0010
0000
0000
0001
0010
0100
1000
0001
0100
0000
0001
0100
0000
0010
0000
,
1000
0100
0000
1000
0100
0000
0010
0000
0001
1000
0010
0000
1000
0001
0010
0100
,
0010
0001
1000
0010
0100
0000
0001
0000
1000
0000
0001
0100
0000
0010
0000
1000
,
0001
0010
0000
0100
1000
0001
0100
0000
0001
0000
0100
1000
0000
0100
0001
0000
,
1000
0010
0100
0000
0001
0010
0100
0000
1000
0000
1000
0000
0001
0000
0001
0000
,
0100
0100
0010
0010
1010
1000
1001
0001
,
0011
0000
0010
0000
0110
0000
0100
0000
1000
0001
0100
0001
1000
0001
0100
0001
,
0010
0100
0010
0001
0010
0100
0010
0001
1000
0010
0100
0010
1000
0010
0100
0010
,
1000
0100
0010
0002
0000
0000
0000
0000
1003
0000
0000
0000
0000
0000
0000
0000
;

//---------------dance-double - NewbStepper-BDP----------------
#NOTES:
     dance-double:
     NewbStepper:
     Easy:
     9:
     :
00000000
00000000
00000000
00000000
,
00000000
00000000
00000000
00000000
,
00000000
00000000
00000000
00000000
,
00000000
00000000
00000000
00000000
,
00000000
00000000
00000000
00000000
,
20000000
00000000
00000000
00000000
,
00000000
00000000
30000000
00000000
,
00020000
00000000
00030000
00000000
,
10010000
00000000
00000000
00000000
,
10000000
00000000
01000000
00000000
10000000
00100000
00000000
00100000
,
00000000
00010000
00001000
00010000
,
00000100
00000000
00001000
00000000
00000001
00001000
00000001
00000000
,
00000100
00001000
00010000
00100000
,
10000000
01000000
10000000
00000000
00010000
01000000
00000000
01000000
,
00000000
00001000
00010000
00000000
00000100
00000000
00000010
00000000
,
00002002
00000000
00000000
00003003
,
00001001
00000000
00000000
00000000
,
00002000
00000000
00003000
00000000
,
00000200
00000000
00000300
00000000
,
00000020
00000000
00000030
00000000
,
00002000
00000000
00003000
00000000
,
00010000
00001000
00010000
00000000
,
01000000
10000000
01000000
00000000
,
10000000
00100000
10000000
00000000
,
00100000
00010000
00100000
00000000
,
00010000
00010000
00001000
00001000
,
00000100
00000100
00000010
00000010
,
00001010
00000101
00001100
00000110
,
00002002
00000000
00000000
00003003
,
00000011
00000010
00000010
00000010
,
00000010
00000010
00000010
00000010
,
00001100
00000100
00000100
00000100
,
00000100
00000100
00000100
00000100
,
00010000
00001000
00010000
00000000
01000000
00000000
10000000
00000000
,
00100000
10000000
00100000
00000000
10000000
00000000
01000000
00000000
,
00010000
00001000
00010000
00000000
00001000
00010000
00001000
00000000
,
00011000
00000000
00000000
00001000
,
00000100
00000001
00000010
00001000
,
00011000
00100000
00011000
01000000
,
10000000
00100000
00010000
00001000
,
00011000
00000000
00000100
00000000
00000010
00000000
00001000
00000001
,
00001000
00000000
00000001
00000000
00000100
00000000
00001000
00010000
,
00001000
00100000
00010000
10000000
,
01000000
00010000
00001000
00000100
,
00000001
00000010
00001001
00000101
,
00000010
00000010
00000010
00001000
,
00000100
00010000
00001000
01010000
,
00100000
00100000
00100000
10000000
,
01000000
00000000
00100000
00000000
00010000
00000000
10000000
01000000
,
10000000
00000000
00010000
01000000
00010000
00000000
00100000
00001000
,
00100000
00000000
00001000
00010000
00001000
00000000
00000100
00000000
,
00000001
00000010
00001000
00022000
,
00000000
00000000
00033000
02000000
,
00000000
00000000
03000000
00020000
,
00000000
00000000
00030000
00002000
,
00000000
00000000
00003000
00000020
,
00000000
00000000
00000030
00000002
,
00000000
00000000
00000003
00000200
,
00000000
00000000
00000300
00000020
,
00000000
00000000
00000030
00020000
,
00000000
00000000
00030000
00001000
,
00001000
00001000
00001000
00001000
,
00001000
00001000
00001000
00010000
,
00010000
00010000
00010000
00010000
,
00010000
00010000
00010000
01000000
,
01000000
01000000
01000000
01000000
,
01000000
00000000
01000000
00000000
01000000
00000000
10000000
00100000
,
10000000
00000000
00010000
00100000
00010000
00000000
10010000
00000000
,
00000000
00000000
10010000
00000000
00100000
00000000
10000000
00100000
,
10000000
00000000
00000000
00000000
00100000
00000000
00010000
00100000
,
00010000
00000000
00000000
00000000
00001000
00000000
00010000
00001000
,
00010000
00000000
00000000
00000000
00000010
00000000
00000100
00000010
,
00000100
00000000
00000001
00001000
,
00000001
00000000
00000000
00000000
00001000
00000001
00000100
00000000
,
00000001
00001000
00000100
00000000
00010000
00001000
00010000
00000000
,
00100000
01000000
00100000
00000000
10100000
00000000
01000000
00000000
,
00110000
00000000
01000000
00000000
10000000
00100000
10000000
00100000
,
01000000
00000000
00000000
00000000
00010000
01000000
00010000
01000000
,
00001000
00000000
00000000
00000000
00010000
00000100
00010000
00000100
,
00001000
00000000
00000000
00000000
00000010
00000100
00000010
00000100
,
00000001
00000000
00000010
00001000
,
00010000
00010000
00100000
01000000
,
10000000
10000000
01000000
00010000
,
00100000
00000000
00001000
00000000
00010000
00000100
00010000
00001000
,
00100000
00001000
00010000
00000000
00001000
00000000
00000000
00000000
;

//---------------dance-double - NewbStepper-DDP----------------
#NOTES:
     dance-double:
     NewbStepper:
     Medium:
     11:
     :
00000000
00000000
00000000
00000000
,
00000000
00000000
00000000
00000000
,
00000000
00000000
00000000
00000000
,
00000000
00000000
00000000
00000000
,
00000000
00000000
00000000
00000000
,
00000020
00000000
00000000
00000000
,
00020000
00000000
00000030
00000000
,
00002000
00000000
00033000
00000000
,
00011000
00000000
00000000
00000000
,
10000000
00000000
10000000
00000000
10000000
00000000
01000000
00100000
,
00010000
00000000
00010000
00000000
00010000
00000000
01000000
00100000
,
10000000
01000000
00010000
00001000
,
00000100
00000000
00000001
00000000
00000100
00000010
00000110
00000000
,
00000001
00000100
00000001
00000000
00000100
00001000
00000100
00000000
,
00001000
00010000
00001000
00000000
00010000
00100000
00010000
00000000
,
00100000
10000000
00010000
00100000
01000000
10000000
00100000
00010000
,
00002000
00000000
00000000
00000000
,
00203000
00300000
00020000
00030000
,
00002000
00003000
00000200
00000300
,
00000020
00000031
00000002
00000103
,
00000200
00001300
00002000
00013000
,
00011000
00000000
01000000
00000000
00100000
00000000
10000000
00010000
,
00100000
00000000
01000000
00000000
00100000
00000000
00010000
10000000
,
00100000
00000000
00010000
00000000
00001000
00000000
00000100
00000001
,
00000010
00000000
00001000
00000000
00010000
00000000
01000000
10000000
,
00100000
00000000
00010000
00000000
00001000
00001000
00001000
00000000
,
00000010
00000000
00001000
00000000
00010000
00010000
00010000
00000000
,
00100000
01000000
00100000
00000000
10000000
00010000
10000000
00000000
,
02200000
00000000
00000000
03300000
,
10010000
00100000
00100000
00100000
,
00100000
00100000
00100000
00100000
,
00011000
00000010
00000010
00000010
,
00000010
00000010
00000010
00000010
,
00001001
00000000
00000100
00000000
00000010
00001000
00000100
00000000
,
00011000
00000000
01000000
00000000
00100000
00010000
01000000
00000000
,
10100000
01000000
00110000
01000000
,
20020000
00000000
00000000
30030000
00000000
10010000
10000000
00000000
,
01000000
00000000
00010000
00001000
00000100
00000000
00000001
00000000
,
00000100
00000000
00001000
00010000
01000000
00000000
10000000
00000000
,
00100000
00000000
01000000
00010000
00100000
00001000
00010000
00000000
,
00011000
01000000
00011000
00001000
,
00000100
00000000
00000001
00000100
00001000
00000000
00010000
00000000
,
01000000
00000000
10000000
01000000
00010000
00000000
00001000
00000000
,
00000010
00000000
00000100
00001000
00000001
00000100
00000010
00000000
,
00001010
00000000
00000100
00000000
00000011
00000000
00001000
00000100
,
00000010
00000000
00000100
00000000
00001000
00000000
00000000
00000001
00000000
00000000
00001000
00000000
00000100
00000000
00010000
00000000
,
00001000
00000000
01000000
00000000
00010000
00000000
00000000
10000000
00000000
00000000
00010000
00000000
00100000
00000000
01000000
00000000
,
10000000
00000000
00100000
01000000
00010000
00000000
11000000
00000000
,
00100000
00000000
01010000
00000000
00100000
00000000
10000000
01000000
,
10000000
00000000
01000000
00010000
01000000
00000000
00010000
00001000
,
00010000
00000000
00001000
00000010
00001000
00000000
00000010
00000001
,
00001000
00000010
00000100
00000001
00000010
00001000
00010000
00001000
,
01000000
00010000
10000000
01000000
00010000
00000000
00002000
00000000
,
00000000
00010000
00010000
02003000
,
00000000
00010000
00010000
03002000
,
00000000
00000010
00000010
00023000
,
00000000
00100000
00100000
00031000
,
00000100
00000001
00000011
00000100
,
00001000
00000010
00001010
00010000
,
00001000
00100000
00010000
20020000
,
00000000
00000000
30030000
00100000
,
00100000
01000000
01000000
00010000
,
00010000
00000000
00001000
00000000
00001000
00000000
00000100
00000001
,
00000100
00000000
00000001
00000010
00000001
00000000
00000010
00001000
,
00000010
00000000
00001000
00010000
00001000
00000000
00010000
01000000
,
10000000
01000000
00100000
00010000
10000000
00000000
00010000
00100000
,
00001000
01000000
00010000
00100000
00001000
00000000
00010000
00000100
,
00010000
00000100
00001000
00000010
00001000
00000010
00000100
00000000
,
00000220
00000000
00000000
00000000
00000330
00000000
00001001
00000000
00000010
00000000
00000000
00000001
00000000
00000000
00000100
00000000
,
00000010
00000000
00001000
00000000
00000010
00000000
00000000
00000000
00010000
00000000
00000000
00010000
00000000
00000000
00001000
00000000
,
00000000
00001000
00000000
00000000
00100000
00000000
00100000
00000000
00010000
00000000
00000000
10000000
00000000
00000000
01000000
00000000
,
00010000
00000000
00001000
00000000
00010000
00000000
00000000
00000000
00000010
00000000
00000000
00001000
00000000
00000000
00000001
00000000
,
00000000
00001000
00000000
00000000
00000100
00000000
00000010
00000000
00000001
00000000
00000000
00000100
00000000
00000000
00000010
00000000
,
00000000
00000100
00000000
00000000
00001000
00000000
00010000
00000000
01000000
00000000
10000000
00000000
00000000
00010000
00000000
00000000
,
10000000
00000000
00000000
01000000
00000000
00000000
00100000
00000000
00010000
00000000
01000000
00000000
00010000
00000000
00000000
00000000
,
10000000
01000000
10000000
00000000
10100000
00000000
01010000
00000000
,
01100000
00000000
00000000
00000000
10010000
00000000
00000000
00000000
00100000
00000000
00000000
00001000
00000000
00000000
00010000
00000000
,
00010000
00000000
00000000
00000010
00000000
00000000
00010000
00000000
00010000
00000000
00000000
00001000
00000000
00000000
01000000
00000000
,
00010000
00000000
00100000
00000000
00001000
00000000
00010000
00000000
00000010
00000000
00000000
00010000
00000000
00000000
00001000
00000000
,
00001000
00000000
00000000
00100000
00000000
00000000
00001000
00000000
00001000
00000000
00000000
00010000
00000000
00000000
00000010
00000000
,
00000000
00000010
00000100
00000000
00000001
00000100
00000001
00000000
,
00000100
00001000
00000100
00000000
00001000
00010000
00001000
00000000
,
00010000
00100000
00010000
00000000
00100000
10000000
00010000
00100000
,
01000000
10000000
00100000
00010000
00001000
00000000
00011000
00000000
,
00000010
00001100
00001001
00000000
;

//---------------dance-double - NewbStepper-EDP----------------
#NOTES:
     dance-double:
     NewbStepper:
     Hard:
     15:
     :
00000000
00000000
00000000
00000000
,
00000000
00000000
00000000
00000000
,
00000000
00000000
00000000
00000000
,
00000000
00000000
00000000
00000000
,
00000000
00000000
00000000
00000000
,
10000000
01000000
00100000
00010000
,
00001000
00000100
00000010
00000001
,
00002000
00000000
00000000
00003000
,
00001001
00000000
00000000
00000000
,
00000010
00000001
00000100
00001000
00000100
00000010
00000000
00001000
,
00000000
00000000
00010000
00000000
00001000
00000000
00000000
00000000
00000100
00000000
00010000
00001000
00000000
00010000
00001000
00000000
,
00100000
00010000
01000000
10000000
01000000
00010000
00100000
01000000
,
00010000
00000000
00000000
00001000
00000000
00000000
00000010
00000000
00000010
00000000
00000000
00001000
00000000
00000000
00010000
00000000
,
00100000
10000000
00100000
00010000
00001000
01000000
00010000
00001000
,
00000010
00000100
00001000
00010000
00000100
00001000
00100000
00010000
,
00001000
00100000
00001000
00000000
00010000
00000100
00010000
00000000
00000010
00001000
00000010
00001000
00000001
00001000
00000100
00010000
,
00002000
00000000
00000000
00003000
,
00020000
00130000
20000000
30100000
,
00020000
00031000
00000200
00001300
,
00020000
00030010
00000002
00000013
,
00002000
00003100
00020000
00031000
,
00011000
00000000
00000000
00000000
00010000
00000000
00000000
00000000
01000000
00000000
00000000
10000000
00000000
00000000
00100000
00000000
,
00010000
00000000
00000000
00000000
00001000
00000000
00000000
00000000
00000100
00000000
00000000
00000001
00000000
00000000
00000010
00000000
,
00001000
00000000
00000000
00000000
00010000
00000000
00000000
00000000
00100000
00000000
00000000
10000000
00000000
00000000
01000000
00000000
,
00010000
00000000
00000000
00000000
00001000
00000000
00000000
00000000
00000010
00000000
00000000
00000001
00000000
00000000
00000100
00000000
,
00001000
00000000
00010000
00000000
01000000
00000000
00010000
00000000
00011000
00000000
00000000
00001010
00000000
00000000
00011000
00000000
,
00010000
00000000
00001000
00000000
00000100
00000000
00001000
00000000
00011000
00000000
00000000
00110000
00000000
00000000
00011000
00000000
,
00001000
00000000
00000100
00000000
00000001
00000000
00000100
00000000
00001000
00000000
00000000
00010000
00000000
00000000
00000010
00000000
,
00010000
00000000
01000000
00000000
10000000
00000000
01000000
00000000
00010000
00000000
00000000
00001000
00000000
00000000
00100000
00000000
,
00020000
01000000
10000000
00100000
,
00032000
00000100
00000001
00000010
,
00023000
01000000
10000000
00100000
,
00032000
00000100
00000001
00000010
,
00013000
01000000
00010000
01000000
00100000
10000000
00100000
10000000
,
01000000
00010000
01000000
00010000
00001000
00000100
00001000
00000100
,
00000001
00000010
00000001
00000000
00001000
00000010
00001000
00000000
00000100
00010000
00000100
00010000
00001000
00010000
00001000
00100000
,
00020000
00000000
20030000
00000000
30100000
01100000
10010000
10000000
,
01000000
00010000
00001000
00100000
00010000
00001000
00000010
00000100
,
00000001
00000100
00001000
00010000
01000000
00100000
00001000
00000100
,
00001000
00010000
00000100
00000010
00000001
00000100
00001000
00010000
,
01000000
00100000
00010000
00000010
00000100
00001000
00010000
01000000
,
00100000
10000000
01000000
00010000
00001000
00010000
00000010
00010000
,
00001000
00000100
00000001
00000010
00000100
00010000
00000100
00001000
,
00010000
01000000
00100000
00010000
00001000
00000010
00000100
00001000
,
01000000
00100000
00010000
10000000
10010000
00000000
00100000
10000000
,
01000000
00000000
00010000
00000000
00001000
00000000
00000100
00000010
00000000
00001000
00000100
00000000
00000001
00000000
00000100
00000000
,
00001000
00000000
00010000
00000000
00100000
00000000
00001000
00010000
00000000
01000000
00100000
00000000
10000000
00000000
00100000
00000000
,
00010000
00000000
01000000
00000000
00010000
00000000
00100000
00001000
00000000
00010000
00000100
00000000
00000001
00000000
00000100
00000000
,
00001000
00000010
00010000
00001000
00000010
00000000
00000001
00000100
,
00000001
00000100
00000010
00001000
00000010
00001000
00010000
01000000
,
00010000
01000000
00100000
10000000
00100000
10000000
01000000
00010000
,
00001000
00000000
00000100
00000000
00000001
00000000
00001000
00000000
00000100
00000000
00010000
00000000
00001000
00100000
00001000
00000000
,
01000000
00010000
01000000
00000000
00100000
10000000
00100000
10000000
00010000
00100000
01000000
10000000
00020000
00000000
00000000
00000000
,
02030000
03002000
00023000
00230000
,
00302000
00003200
00000320
00000032
,
00000203
00020300
00032000
00003020
,
00000230
00002300
02003000
03020000
,
00100000
10000000
01000000
00032000
,
00000010
00000001
00000100
00023000
,
00100000
00000000
10000000
00000000
01000000
00000000
00031000
00000100
,
00000010
00000001
00000100
00001000
00010000
01000000
10000000
00100000
,
00010000
00100000
01000000
00010000
00001000
00000010
00001000
00000001
,
00001000
00000100
00001000
00010000
01000000
00010000
10000000
00010000
,
00100000
00010000
00001000
00000100
00000001
00001000
00000010
00000001
,
00000100
00000000
00000010
00000000
00001000
00000000
00010000
00000000
01000000
00000000
00100000
00000000
10000000
00000000
01000000
10000000
,
00000000
00010000
01000000
00000000
00001000
00010000
00000000
00010000
00000100
00000000
00000010
00000001
00000010
00000000
00000001
00000100
,
00000000
00000010
00001000
00000000
00000100
00010000
00000100
00010000
00000000
00001000
00010000
00000000
00100000
10000000
00000000
00010000
,
00100000
00000000
00001000
00010000
00000000
00010000
00000100
00000000
00010000
00000010
00010000
00000010
00002000
00000000
00000000
00000000
,
00003002
00000000
00000000
00000000
00000013
00000000
00000110
00000000
00000001
00001000
00000000
00000010
00000000
00001000
00000010
00000000
,
00000100
00000000
00000010
00010000
00000000
00010000
00001000
00000000
00100000
00010000
00000000
01000000
00100000
00000000
10000000
00010000
,
00000000
01000000
00100000
00000000
10000000
00010000
10000000
00000000
00100000
10000000
00000000
00010000
00100000
00000000
00001000
00010000
,
00000000
00000100
00001000
00000000
00000010
00000100
00000010
00000000
00001010
00000000
00000000
00000101
00000000
00000000
00001100
00000000
,
00000000
00011000
00000000
00000000
01010000
00000000
01100000
00000000
00010000
10000000
00000000
00100000
10000000
00000000
00010000
00100000
,
00000000
00001000
00010000
00000000
00000100
00000010
00000100
00000010
00000000
00000001
00000100
00000000
00000010
00001000
00000000
00001000
,
00000100
00010000
00000000
00010000
00001000
00000000
00100000
00000000
00020000
00000000
00000000
02030000
00000000
00000000
13000000
00000000
,
01000000
00010000
01000000
00010000
10000000
00000000
01000000
00000000
00010000
00000000
00001000
00000000
00000100
00000000
00000001
00000000
,
00001000
00000000
00000100
00000000
00010000
00000000
00001000
00000000
00100000
00010000
00000000
10000000
00000000
00010000
00100000
00000000
,
00001000
00010000
00001000
00010000
00000000
00000100
00000010
00000000
00000001
00000000
00001000
00000010
00000000
00001000
00000000
00000100
,
00010000
00000100
00001000
00000100
00010000
00000000
00001000
00000000
00020000
00000000
00000000
02030000
00000000
00000000
23000000
00000000
,
00000000
32000000
00000000
00000000
03010000
00000000
00001000
00000000
00200000
00000000
00000000
00320000
00000000
00000000
00030020
00000000
,
00000030
00000100
00001000
00000000
00000001
00000000
00001000
00000010
00001000
00000000
00000001
00000000
00000100
00000000
00000001
00000000
,
00001000
00000100
00010000
01000000
10000000
00100000
10000000
00010000
,
00100000
00001000
01000000
00010000
00001000
00000010
00000100
00000001
,
00000010
00000000
00001000
00000000
00010000
00000000
00100000
00000000
10000000
00010000
10000000
00010000
01000000
00010000
01000000
00010000
,
10000000
01000000
00100000
00020000
00000000
00000000
00000000
00000000
10030000
00000000
00000000
00000000
00000000
00000000
00000000
00000000
;

//---------------dance-double - NewbStepper-CDP----------------
#NOTES:
     dance-double:
     NewbStepper:
     Challenge:
     18:
     :
00000000
00000000
00000000
00000000
,
00000000
00000000
00000000
00000000
,
00000000
00000000
00000000
00000000
,
00000000
00000000
00000000
00000000
,
00000000
00000000
00000000
00000000
,
00000001
00000100
00001000
00000000
00100000
00010000
00001000
00010000
,
00000000
01000000
00100000
10000000
01000000
00010000
00001000
00100000
,
00000000
01000000
00010000
00000100
00000001
00000100
00010000
00001000
,
00022000
00000000
00000000
00033000
,
00011000
00010000
00100000
10000000
00010000
01000000
10000000
01000000
,
00100000
00000000
01000000
00000000
00001000
00000000
00010000
00000000
01000000
00000000
00010000
00001000
00000000
00010000
00001000
00000000
,
01000000
00001000
00000010
00000001
00000100
00000001
00000010
00000100
,
00000010
00000000
00001000
00000000
00100000
00000000
01000000
00000000
00100000
00000000
00001000
00010000
00100000
00000000
10000000
00000000
,
00010000
00000000
01000000
00100000
00010000
00000000
00001000
00000000
00000010
00000000
00000100
00001000
00010000
00000000
00001000
00000000
,
00000100
00000000
00000010
00001000
00010000
00000000
00001000
00000000
00000010
00000000
00000100
00000001
00000000
00000100
00001000
00000000
,
00000001
00000100
00001000
00000100
00000010
00001000
00000100
00010000
00001000
00100000
00010000
10000000
00010000
10000000
01000000
00100000
,
00020000
00000000
00000000
00000000
,
00032000
00000000
00000000
00000000
00000100
00000000
00000000
00000000
00000001
00000000
00000000
00000010
00000000
00000000
00010000
00000000
00023000
00000000
00000000
00000000
01000000
00000000
00000000
00000000
10000000
00000000
00000000
00100000
00000000
00000000
00001000
00000000
,
00032000
00000000
00000000
00000000
00000100
00000000
00000000
00000000
00000001
00000000
00000000
00000010
00000000
00000000
00010000
00000000
00023000
00000000
00000000
00000000
01000000
00000000
00000000
00000000
10000000
00000000
00000000
00100000
00000000
00000000
00001000
00000000
,
00032000
00000000
00000000
00000000
00000010
00000000
00000000
00000000
00023000
00000000
00000000
00100000
00000000
00000000
10000000
00000000
02030000
00000000
00000000
00000000
10000000
00000000
00000000
00000000
03200000
00000000
00000000
00010000
00000000
00000000
00001000
00000000
,
00302000
00000000
00000000
00000000
00010000
00000000
00000000
00000000
00003020
00000000
00000000
00000001
00000000
00000000
00000100
00000000
00002030
00000000
00000000
00000000
00000001
00000000
00000000
00000000
00003200
00000000
00000000
00000010
00000000
00000000
00001000
00000000
,
00010300
00000000
01000000
00000000
10000000
00000000
01000000
00000000
01100000
00000000
00000000
00101000
00000000
00000000
00011000
00000000
,
00001000
00000000
00000100
00000000
00000001
00000000
00000100
00000000
00001000
00000000
00010000
00000000
00001000
00000010
00001000
00010000
,
00001000
00000000
01000000
00000000
00110000
00000000
00001000
00000000
00010000
00000000
01000000
10000000
00000000
01000000
00010000
00000000
,
00001000
00000000
00000010
00000000
00000001
00000000
00001000
00000000
00000100
00000000
00000010
00000000
00001000
00010000
00000010
00010000
,
00001000
00000000
00000100
00000000
00000001
00000000
00000100
00000000
00000110
00000000
00000000
00010010
00000000
00000000
00011000
00000000
,
00010000
00000000
01000000
00000000
10000000
00000000
01000000
00000000
00010000
00000000
00001000
00000000
00010000
00100000
00010000
00001000
,
00010000
00000000
00000100
00000000
00001010
00000000
00010000
00000000
00001000
00000000
00000100
00000001
00000000
00000100
00001000
00000000
,
00010000
00000000
00100000
00000000
10000000
00000000
00010000
00000000
01000000
00000000
00100000
00010000
00001000
00100000
00001000
00010000
,
00001000
00001000
00000100
00000100
,
00000001
00000001
00000010
00000010
,
00001000
00010000
01000000
00100000
00001000
00010000
00100000
01000000
,
00010000
00000000
00001000
00000000
00010000
00000000
10000000
00000000
01000000
00000000
00010000
00000000
00001000
00000100
00000000
00001000
,
00010000
00001000
00000010
00000000
00000100
00000010
00000001
00000000
00000100
00001000
00010000
00000000
00001000
00100000
00010000
00000000
,
10000000
00100000
00010000
00000000
00100000
01000000
00010000
00000000
00100000
00001000
00010000
00000000
00000100
00001000
00000010
00000000
,
00000100
00000001
00001000
00000100
00010000
00001000
00100000
00010000
01000000
00100000
10000000
01000000
00100000
01000000
00010000
00001000
,
00020000
00030000
00000220
00000330
00001010
00000101
00001001
00000010
,
00000010
00000000
00000001
00000000
00000100
00000000
00000100
00000000
00010000
00000010
00001000
00000000
00010000
00000000
01000000
00000000
,
10000000
00000000
00100000
00000000
00100000
00000000
00001000
00010000
00000000
00001000
00100000
00010000
10000000
00000000
01000000
00000000
,
01000000
00000000
00001000
00000000
00000010
00000000
00001000
00010000
00000000
00001000
00000010
00000100
00001000
00000000
00000001
00000000
,
00000100
00000100
00010000
00001000
00000110
00000000
00011000
00001000
,
01001000
00000000
00001000
00000000
00011000
00000000
00100000
01000000
00000000
00100000
00010000
00000000
10000000
00000000
00100000
00000000
,
00100000
00000000
00010000
00000000
01000000
00000000
00010000
00100000
00000000
01000000
00010000
00001000
00010000
00000000
00010000
00000000
,
00010100
00000000
00010000
00000000
00011000
00000000
00000100
00000010
00000000
00000001
00000100
00000000
00010000
00000000
00000100
00000000
,
00000010
00001000
00010000
00000000
01000000
00100000
00010000
10000000
00100000
00000000
00000000
00000000
10100000
00000000
00100000
00000000
,
01010000
00000000
00010000
00000000
00101000
00000000
00100000
00010000
00000000
00100000
01000000
00000000
00010000
00000000
00001000
00000100
,
00000010
00000000
00001000
00000001
00000010
00000000
00000100
00010000
00000000
00001000
00000010
00000000
00000011
00000000
00000010
00000000
,
00001100
00000000
00001000
00000000
00010010
00000000
00000010
00001000
00000000
00000010
00000100
00000000
00001000
00000000
00010000
01000000
,
00100000
00000000
00010000
10000000
00100000
00000000
01000000
00001000
00000000
00010000
00100000
00000000
01000000
00010000
01000000
00000000
,
00100000
10000000
00010000
00000000
00100000
00001000
00010000
00001000
00100000
00001000
00010000
00000000
00000100
00001000
00000100
00000000
,
00000010
00000001
00001000
00000000
00000010
00010000
00001000
00010000
00000010
00010000
00001000
00000000
00100000
00010000
10000000
00000000
,
01000000
00010000
00001000
00000000
00100000
00001000
00010000
00000000
00000010
00001000
00000100
00000000
00000010
00000001
00001000
00000001
,
00000100
00001000
00010000
00001000
00100000
00001000
00010000
01000000
00100000
00010000
10000000
00100000
02000000
00000000
00000000
00000000
,
03020000
00230000
20300000
30020000
,
02030000
03002000
00023000
00032000
,
00003200
00000320
00002030
00023000
,
00030020
00000032
00002003
00003200
,
00000302
00000023
00002030
00023000
,
00030200
00002300
00023000
00230000
,
20300000
30200000
00320000
02030000
,
03200000
00000000
20300000
00000000
30020000
00000000
10030000
01000000
,
00010000
00000000
00001000
00100000
00010000
00000010
00010000
00001000
,
00000100
00000000
00000010
00000001
00001000
00000010
00000100
00001000
,
00010000
00000000
00100000
00010000
00001000
00100000
10000000
00100000
,
00010000
00000000
01000000
00000000
00001000
00000000
00010000
00000000
00100000
00000000
00000000
00000000
10000000
00100000
01000000
00000000
,
00010000
00000000
00100000
00000000
00001000
00010000
00001000
00000000
00100000
00000000
00010000
00001000
00000100
00000000
00000001
00000100
,
00000000
00000010
00000001
00000000
00000100
00001000
00010000
00001000
00000100
00001000
00010000
00000000
00100000
10000000
00010000
10000000
,
01000000
00100000
00010000
00100000
00010000
00001000
00000100
00001000
00000100
00000010
00000001
00000100
00002000
00000000
00003000
00000000
,
02200000
00000000
03300000
00000000
00110000
00000000
11000000
00000000
10000000
00010000
00100000
00010000
00000000
01000000
00100000
00000000
,
00010000
00000000
00001000
00000010
00000000
00001000
00010000
00000000
00001000
00000100
00000001
00000100
00000000
00000010
00001000
00000000
,
00000001
00000000
00000100
00001000
00010000
00000000
00100000
00000000
10000000
01000000
00000000
00010000
01000000
00000000
00100000
00001000
,
00000000
00010000
01000000
00000000
00010000
00001000
00000100
00000000
00000001
00000010
00000000
00000001
00000100
00000000
00001000
00000100
,
00000000
00000010
00001000
00000000
00010000
01000000
00100000
00000000
00010000
00001000
00000000
00010000
01000000
00000000
00100000
00010000
,
00000000
00001000
00010000
00000000
00100000
01000000
10000000
01000000
00000000
00010000
00001000
00000000
00100000
00010000
00000000
00001000
,
00000100
00001000
00000001
00001000
00000010
00000000
00000100
00000000
00000101
00000000
00000000
00001010
00000000
00000000
00011000
00000000
,
00100000
00010000
01000000
00100000
10000000
01000000
00010000
00001000
00010000
00100000
01000000
00000000
00100000
10000000
01000000
00000000
,
00010000
00001000
00010000
00000000
00011000
00000000
00000000
00000000
00001000
00000010
00000000
00001000
00000010
00000000
00000001
00000000
,
00000100
00001000
00010000
00001000
00000010
00000000
00000100
00000000
00010000
00001000
00000000
00100000
00000000
00001000
00010000
00001000
,
01000000
00010000
00100000
01000000
10000000
00000000
00010000
00000000
10000000
00100000
00000000
01000000
00000000
00100000
00010000
00001000
,
00000000
00010000
00001000
00000000
00100000
00000000
00010000
01000000
00100000
00000000
00010000
00001000
00000000
00010000
00001000
00000010
,
00000001
00000100
00010000
00000100
00000001
00001000
00000100
00010000
,
01000000
00001000
00010000
00100000
10000000
00010000
01000000
10000000
,
00100000
01000000
00010000
01000000
00100000
01000000
00010000
00000000
10000000
00100000
01000000
00100000
10000000
01000000
00010000
00001000
,
00100000
00001000
00010000
00000100
00010000
00001000
00000010
00000100
00001000
00000001
00000100
00001000
00010000
01000000
00100000
00010000
,
10000000
00100000
00010000
00002000
00000000
00000000
00000000
00000000
00013000
00000000
00000000
00000000
00000000
00000000
00000000
00000000
;
