#TITLE:AQUILA;
#ARTIST:Karl with a K;
#BANNER:AQUILA.png;
#BACKGROUND:AQUILA-bg.png;
#MUSIC:AQUILA.ogg;
#SAMPLESTART:22.785;
#SAMPLELENGTH:15;
#BPMS:0=316;

//---------------dance-single - Nitrospan-bSP----------------
#NOTES:
     dance-single:
     Nitrospan:
     Beginner:
     7:
     :
0000
0000
0000
0000
,
0000
0000
0000
0000
,
0000
0000
0000
0000
,
0000
0000
0000
0000
,
0000
0000
0000
0000
,
0000
0000
0000
0000
,
0000
0000
0000
0000
,
0000
0000
1000
0000
,
0000
1000
0000
0000
,
0001
0000
0000
0000
,
0000
0000
0000
0000
,
0000
0100
0000
0000
,
0100
0000
0000
0010
,
0000
0000
0000
0000
,
0000
0000
0000
0000
,
1000
0000
0000
0010
,
0000
0000
0100
0000
,
0000
0000
0000
0000
,
0000
0000
0000
0001
,
0000
0000
0010
0000
,
0000
0100
0000
0000
,
0000
0000
0000
0000
,
0000
0000
1000
0000
,
0000
0001
0000
0000
,
0100
0000
0000
0000
,
0000
0000
0000
0000
,
0000
0010
0000
0000
,
1000
0000
0000
0001
,
0000
0000
0000
0000
,
0000
0000
0000
0000
,
1001
0000
0000
0000
,
0100
0000
0000
0000
0000
0000
0000
0010
,
0000
0000
0000
0000
0000
0010
0000
0000
,
0000
0000
0000
0010
0000
0000
0001
0000
,
0000
0000
0000
1000
,
0000
0000
0000
0000
0000
0100
0000
0000
,
0000
0000
0000
0100
0000
0000
0000
0000
,
0000
0100
0000
0000
1000
0000
0000
0000
,
0000
0000
0010
0000
,
0000
0000
0000
0100
0000
0000
0000
0000
,
0000
0100
0000
0000
0000
0000
0000
0100
,
0000
0001
0000
0000
,
0000
1000
0000
0000
,
0000
0010
0000
0000
0000
0000
0000
0010
,
0000
0000
0000
0000
0000
0010
0000
0000
,
0100
0000
0100
0000
,
0010
0000
0000
0000
0000
0000
0000
1001
,
0000
0000
0000
1000
0000
0000
0000
0001
,
0000
0000
0000
0110
,
0000
0001
0000
1000
,
0000
0000
0000
0000
0000
1001
0000
0000
,
0000
0100
0000
0000
0000
0010
0000
0000
,
0000
0000
1001
0000
,
0000
0000
0001
0000
,
0000
0000
0000
0100
,
0000
0000
0000
0010
,
0000
0000
0000
0000
,
0000
1000
0000
0000
0000
0000
0000
0000
,
0000
0000
0000
0000
0000
0000
0000
0100
,
0000
0000
0000
0000
,
0110
0000
0000
0000
,
0001
0000
0000
0000
,
0000
1000
0000
0000
,
0000
0000
0000
0000
0000
0000
0000
0010
,
0000
0000
0000
0000
,
0000
0100
0000
0000
,
0000
0000
0000
0000
,
0001
0000
1001
0000
,
0000
0000
1000
0000
,
0000
0000
0000
1000
,
0000
0000
0000
0001
,
0000
0000
0000
0000
,
0000
0100
0000
0000
,
0000
0000
0000
0000
,
0000
0010
0000
0000
0000
0000
0000
0000
,
1001
0000
0000
0000
,
0001
0000
0000
0000
0000
0001
0000
0000
,
0000
0001
0000
0000
,
0000
0000
1000
0000
0000
0000
0000
1000
,
0000
0000
0000
0000
,
0000
2000
0000
0000
,
0000
0000
0000
0000
0000
3000
0000
0000
,
0000
0000
1001
0000
,
0000
0000
0100
0000
,
0000
0000
0000
0000
0000
0000
0000
0010
,
0000
0000
0000
0010
0000
0000
0000
0000
,
0000
0000
0000
0100
0000
0000
0000
0000
,
0000
1000
0000
0000
,
0000
0000
0000
0000
0000
0001
0000
0000
,
0000
0001
0000
0000
0000
0000
0000
0000
,
1001
0000
0000
0000
,
0010
0000
0000
0000
,
0000
0000
0000
0100
0000
0000
0000
0100
,
0000
0000
0000
0000
0000
0000
0000
0010
,
0000
0000
0000
0001
,
0000
0000
0000
0000
,
0000
1000
0000
0000
0000
1000
0000
0000
,
0000
0000
1001
0000
,
0000
0000
0100
0000
,
0000
0000
0000
0010
,
0000
0000
0000
0001
0000
0000
0000
0000
,
0000
0000
0000
0100
0000
0000
0000
0000
,
0000
0010
0000
0000
,
0000
0000
1000
0000
,
0000
0001
0000
0000
0000
0000
0000
0000
,
1001
0000
0000
0000
,
1000
0000
0000
0000
,
0000
0001
0000
0000
,
0000
1000
0000
0000
,
0000
0000
0000
0001
,
0000
0000
0000
0000
,
0000
0000
1000
0000
,
0000
0000
0001
0000
,
0000
0001
0000
0000
,
0001
0000
0000
0000
,
0000
0000
0000
0000
,
0000
1000
0000
0000
,
1000
0000
0000
1000
,
0000
0000
0000
0000
,
0000
0000
0000
0000
,
0010
0000
0000
0010
,
0000
0000
0010
0000
,
0000
0000
0000
0000
,
0000
0000
0000
0100
,
0000
0000
0100
0000
,
0000
0000
0000
0000
0000
2002
0000
0000
,
0000
0000
0000
0000
,
3003
0000
0020
0000
,
0000
0000
0000
0000
,
0000
0000
0000
0000
,
0000
0000
0000
0000
,
0000
0000
0000
0000
,
0000
0000
0000
0030
,
0000
0000
0000
0000
,
0000
0000
0000
0000
,
2000
0000
0000
0000
,
0000
0000
0000
0000
,
0000
0000
0000
3000
,
0000
0000
0000
0002
,
0000
0000
0000
0000
,
0000
0000
0000
0000
,
0000
0000
0003
0000
,
0000
0000
1001
0000
,
0000
1000
0000
0000
,
0001
0000
0000
1000
,
0000
0000
0010
0000
,
0000
0100
0000
0000
,
0010
0000
0000
0100
,
0000
0000
0001
0000
,
0000
0001
0000
0000
,
1000
0000
0000
1000
,
0000
0000
0000
0000
0000
0000
0000
0001
,
0000
0000
0000
0000
0000
0001
0000
0000
,
0000
0000
0000
0100
,
0000
0000
0100
0000
,
0000
0000
0000
0000
0000
0010
0000
0000
,
0000
0000
0000
0010
0000
0000
0000
0000
,
0000
0000
1000
0000
,
0100
0000
1000
0000
,
0000
0000
0000
0001
0000
0000
0000
0100
,
0000
0000
0000
0001
0000
0000
0000
0000
,
0000
1000
0000
0010
,
0000
1000
0000
0000
,
0000
0001
0000
0000
0000
0010
0000
0000
,
0000
0001
0000
0000
0000
0000
0000
0000
,
0100
0000
0100
0000
,
0100
0000
0000
0000
0000
0000
0000
0010
,
0000
0000
0000
0010
0000
0000
0000
0010
,
0000
0000
0000
1000
,
0000
1000
0000
1000
,
0000
0000
0000
0000
0000
0001
0000
0000
,
0000
0001
0000
0000
0000
0001
0000
0000
,
0000
0000
0000
0000
1000
0000
0000
0100
,
0000
0000
1000
0000
0000
0100
0000
0000
,
1000
0000
0000
0002
0000
0000
0000
0000
,
0000
0000
0000
0003
,
0000
0000
0001
0000
0000
0010
0000
0000
,
0001
0000
0000
0010
0000
0000
0001
0000
,
0000
0200
0000
0000
0000
0000
0000
0000
,
0000
0000
0300
0000
,
0100
0000
0000
0010
0000
0000
0100
0000
,
0000
0010
0000
0000
0100
0000
0000
0002
,
0000
0000
0000
0000
,
0000
0003
0000
0001
,
0000
1000
0000
0000
0001
0000
0000
1000
,
0000
0000
0001
0000
0000
0020
0000
0000
,
0000
0000
0000
0000
,
0030
0000
0000
0000
,
0000
2002
0000
0000
,
0000
0000
0000
0000
,
0000
0000
0000
0000
,
0000
3003
0000
0000
;

//---------------dance-single - forcednature-BSP----------------
#NOTES:
     dance-single:
     forcednature:
     Easy:
     8:
     :
0000
0000
0000
0000
,
0000
0000
0000
0000
,
0000
0000
0000
0000
,
0000
0000
0000
0000
,
0000
0000
0000
0000
,
0000
0000
0000
0000
,
0000
0000
0000
0000
,
0000
0000
1000
0000
,
0000
0001
0000
0000
,
1000
0000
0000
0000
0000
0010
0000
0000
,
0000
0010
0000
0000
0000
0100
0000
0000
,
0000
0001
0000
0000
,
1000
0000
0000
0001
,
0000
0000
0000
0010
0000
0000
0000
0010
,
0000
0000
0000
0100
0000
0000
0000
0000
,
1000
0000
0000
0001
0000
0000
1000
0000
,
0000
0001
0000
0000
1000
0000
0000
0001
,
0000
0000
0000
0100
0000
0000
0000
0100
,
0000
0000
0000
0100
0000
0000
0001
0000
,
0000
1000
0000
0000
0001
0000
0000
1000
,
0000
0000
0001
0000
0000
1000
0000
0000
,
0000
0100
0000
0000
0000
0100
0000
0000
,
0000
0100
0000
0000
1000
0000
0000
0001
,
0000
0000
1000
0000
0000
0001
0000
0000
,
1000
0000
0000
0001
0000
0000
0000
0010
,
0000
0000
0000
0010
0000
0000
0000
0010
,
0000
0000
0001
0000
0000
1000
0000
0000
,
0001
0000
0000
1000
0000
0000
0001
0000
,
0000
1000
0000
0000
0000
0010
0000
0000
,
0000
0010
0000
0000
0000
0010
0000
0000
,
0200
0000
0000
0000
,
0000
0000
0000
0000
0300
0000
0000
0001
,
0000
0000
1000
0000
0000
0001
0000
0000
,
1000
0000
0000
0001
0000
0000
0020
0000
,
0000
0000
0000
0000
,
0000
0000
0030
0000
0000
0001
0000
0000
,
1000
0000
0000
0001
0000
0000
1000
0000
,
0000
0001
0000
0000
2000
0000
0000
0000
,
0000
0000
0000
0000
,
3000
0000
0000
0100
0000
0000
0010
0000
,
0000
0100
0000
0000
0010
0000
0000
0100
,
0000
2000
0000
0000
,
0000
0000
0000
3000
,
0000
0001
0000
0000
0100
0000
0000
0001
,
0000
0000
0100
0000
0000
0001
0000
0000
,
0010
0000
0010
0000
,
0010
0000
0000
0000
0010
0000
0000
0100
,
0000
0000
0000
0100
0000
0000
0000
0100
,
0000
0000
0000
1001
,
0000
1000
0000
0001
,
0000
0000
0000
0000
0000
0100
0000
0000
,
0010
0000
0000
0100
0000
0000
0010
0000
,
0000
0000
1001
0000
,
0000
0000
1000
0000
,
0000
0000
0000
0001
,
0000
0000
0000
0010
,
0000
0000
0000
0000
,
0000
0100
0000
0000
0000
0000
0000
0000
,
0000
0000
0000
0000
0000
0000
0000
1000
,
0000
0000
0000
0000
,
1001
0000
0000
0000
,
0001
0000
0000
0000
,
0000
0100
0000
0000
,
0000
0000
0000
0000
0000
0000
0000
0010
,
0000
0000
0000
0000
,
0000
1000
0000
0000
,
0000
0000
0000
0000
,
0100
0000
0110
0000
,
0000
0000
0010
0000
,
0000
0000
0000
0001
,
0000
0000
0000
1000
,
0000
0000
0000
0000
,
0000
0010
0000
0000
,
0000
0000
0000
0000
,
0000
0100
0000
0000
0000
0000
0000
0000
,
1001
0000
0000
0000
,
1000
0000
0000
0000
0000
0001
0000
0000
,
0000
0010
0000
0000
,
0000
0000
0100
0000
0000
0000
0000
1000
,
0000
0000
0000
0000
,
0000
0002
0000
0000
,
0000
0000
0000
0000
0000
0003
0000
0000
,
0000
0000
1001
0000
,
0000
0000
1000
0000
,
0001
0000
0100
0000
,
0010
0000
1000
0000
,
0001
0000
0010
0000
,
0100
0000
1000
0000
,
0001
0000
0100
0000
,
0010
0000
0000
0000
,
0110
0000
0000
0000
,
0100
0000
0001
0000
,
1000
0000
0001
0000
,
0010
0000
0100
0000
,
1000
0000
0001
0000
,
1000
0000
0010
0000
,
0100
0000
0001
0000
,
0000
0000
1001
0000
,
0000
0000
1000
0000
,
0100
0000
0010
0000
,
0001
0000
0100
0000
,
0010
0000
0100
0000
,
0001
0000
0010
0000
,
0100
0000
1000
0000
,
0010
0000
0100
0000
,
0110
0000
0000
0000
,
0001
0000
0000
0000
,
0000
1000
0000
0000
,
0000
0100
0000
0000
,
0000
0000
0000
0010
,
0000
0000
0000
0000
,
0000
0000
0001
0000
,
0000
0000
0000
0000
1000
0000
0000
0001
,
0000
0000
1000
0000
0000
0001
0000
0000
,
1000
0000
0000
0001
0000
0000
0000
0100
,
0000
0000
0000
0100
0000
0000
0000
0100
,
0000
0000
0001
0000
0000
1000
0000
0000
,
0001
0000
0000
1000
0000
0000
0001
0000
,
0000
1000
0000
0000
0000
0100
0000
0000
,
0000
0100
0000
0000
0000
0100
0000
0000
,
1000
0000
0000
0001
0000
0000
1000
0000
,
0000
0001
0000
0000
1000
0000
0000
0001
,
0000
0000
0000
0010
0000
0000
0000
0010
,
0000
0000
0000
0010
0000
0000
0100
0000
,
0000
0000
0100
0000
,
0000
0000
0100
0000
0000
0010
0000
0000
,
0000
0010
0000
0000
0000
0010
0000
0000
,
0000
0000
2002
0000
,
0000
0000
0000
0000
,
0000
0000
0000
0000
,
0000
0000
0000
0000
,
0000
0000
0000
0000
,
0000
0000
0000
0000
,
0000
0000
0000
3003
0000
0000
0000
0000
0000
0000
0000
0000
0000
0000
0000
0000
,
0000
0000
0000
0000
,
0020
0000
0000
0000
,
0000
0000
0000
0000
,
0000
0000
0000
0000
,
0000
0000
0000
0200
,
0000
0000
0000
0000
,
0000
0000
0000
0000
,
0000
0000
0330
0000
,
0000
0000
1001
0000
,
0000
0001
0000
0000
,
0100
0000
0000
0010
,
0000
0000
1000
0000
,
0000
0100
0000
0000
,
0010
0000
0000
0001
,
0000
0000
1000
0000
,
0000
0010
0000
0000
,
1001
0000
0000
0001
,
0000
0000
0010
0000
,
0000
0000
0000
0100
0000
0000
0000
0000
,
0000
1000
0000
0000
0000
0000
0010
0000
,
0000
0000
0100
0000
,
0000
0001
0000
0000
,
1000
0000
0000
0000
0000
0001
0000
0000
,
0000
0000
1001
0000
,
0000
0000
1000
0000
,
0100
0000
0000
1000
0000
0000
0000
0000
,
0000
0000
0000
0001
0000
0000
0000
0100
,
0000
0001
0000
0000
,
0000
0010
0000
0100
,
0000
0010
0000
0000
0000
0000
0000
0000
,
0000
0001
0000
0000
0000
1000
0000
0000
,
0010
0000
0010
0000
,
0010
0000
0000
0000
0010
0000
0000
0100
,
0000
0000
0000
0100
0000
0000
0000
0100
,
0000
0000
0000
0100
0000
0000
0001
0000
,
0000
0001
0000
0001
,
0000
0000
0001
0000
0000
1000
0000
0000
,
0000
1000
0000
0000
0000
1000
0000
0000
,
0000
1000
0000
0000
0001
0000
0000
1000
,
0000
0000
0001
0000
0000
1000
0000
0000
,
0001
0000
0000
1000
0000
0000
0000
0010
,
0000
0000
0000
0010
0000
0000
0000
0010
,
0000
0000
1000
0000
0000
0001
0000
0000
,
1000
0000
0000
0001
0000
0000
1000
0000
,
0000
0001
0000
0000
0000
0010
0000
0000
,
0000
0010
0000
0000
0000
0010
0000
0000
,
0100
0000
0000
1000
0000
0000
0100
0000
,
0000
1000
0000
0000
0100
0000
0000
1000
,
0000
0000
0000
0001
0000
0000
0000
0001
,
0000
0000
0000
0001
0000
0000
0100
0000
,
0000
0001
0000
0000
0100
0000
0000
0001
,
0000
0000
0100
0000
0000
0001
0000
0000
,
0000
1000
0000
0000
0000
1000
0000
0000
,
0000
1000
0000
0000
0000
0000
0000
0000
,
0000
2002
0000
0000
,
0000
0000
0000
0000
,
0000
0000
0000
0000
,
0000
3003
0000
0000
;

//---------------dance-single - forcednature-DSP----------------
#NOTES:
     dance-single:
     forcednature:
     Medium:
     12:
     :
0000
0000
0000
0000
,
0000
0000
0000
0000
,
0000
0000
0000
0000
,
0000
0000
0000
0000
,
0000
0000
0000
0000
,
0000
0000
0000
0000
,
0000
0000
0000
0000
,
0000
0000
0000
0000
0001
0000
0000
1001
,
0000
0000
1000
0000
0000
1001
0000
0000
,
0001
0000
0000
1001
0000
0010
0000
0100
,
0000
0010
0000
0100
0000
0010
0000
0100
,
0000
0000
1000
0000
0000
1001
0000
0000
,
0001
0000
0000
1001
0000
0000
1000
0000
,
0000
1001
0000
0100
0000
0010
0000
0100
,
0000
0010
0000
0100
0000
0010
0000
0000
,
0001
0000
0000
0101
0000
0000
1000
0000
,
0000
1100
0000
0000
0001
0000
0000
0101
,
0000
1000
0000
0010
0000
1000
0000
0010
,
0000
1000
0000
0010
0000
0000
1000
0000
,
0000
1010
0000
0000
0001
0000
0000
0011
,
0000
0000
1000
0000
0000
1010
0000
0001
,
0000
0010
0000
0001
0000
0010
0000
0001
,
0000
0010
0000
0000
0001
0000
0000
0101
,
0000
0000
1000
0000
0000
1010
0000
0000
,
0001
0000
0000
0101
0000
1000
0000
0100
,
0000
1000
0000
0100
0000
1000
0000
0100
,
0000
0000
1000
0000
0000
1100
0000
0000
,
0001
0000
0000
0011
0000
0000
1000
0000
,
0000
1100
0000
0001
0000
0100
0000
0001
,
0000
0100
0000
0001
0000
0100
0000
0000
,
2002
0000
0000
0000
,
0000
0000
0000
0000
3003
0000
0000
1000
,
0000
0000
0100
0000
0000
0010
0000
0000
,
0001
0000
0000
1000
0000
0000
2002
0000
,
0000
0000
0000
0000
,
0000
0000
3003
0000
0000
0001
0000
0000
,
0100
0000
0000
0010
0000
0000
1000
0000
,
0000
0001
0000
0000
2002
0000
0000
0000
,
0000
0000
0000
0000
,
3003
0000
0000
1000
0000
0000
0010
0000
,
0000
0001
0000
0000
0010
0000
0000
0100
,
0000
0220
0000
0000
,
0000
0000
0000
0330
,
0000
0001
0000
0000
0010
0000
0000
1000
,
0000
0000
0010
0000
0000
0100
0000
0000
,
0110
0000
1000
0000
,
1000
0000
0000
0000
1000
0000
0000
1001
,
0000
0000
0000
0001
0000
0000
0000
0001
,
0000
0000
0000
0001
0000
0000
1000
0000
,
0100
1000
0100
0010
,
0001
0000
0010
0000
0000
1001
0000
0000
,
0001
0000
0000
0100
0000
0000
0010
0000
,
0000
1000
0000
0000
0100
0000
0000
0100
,
0000
0000
0010
0000
,
0000
0001
0000
0000
0000
0000
1000
0000
,
0000
1000
0000
0000
0000
0000
0010
0000
,
0000
0000
0000
0100
0000
0000
0001
0000
,
0000
0100
0000
0000
0000
0000
0010
0000
,
0000
1000
0000
0000
0001
0000
0000
1000
,
0000
0000
0000
0000
0100
0000
0000
0100
,
0010
0000
0000
0010
0000
0000
0000
0000
,
1001
0000
0000
0000
0000
0001
0000
0000
,
0000
0000
0100
0000
0000
0100
0000
0010
,
0000
0000
1000
0000
0000
0000
0000
0001
,
0000
0000
0001
0000
0000
0010
0000
0000
,
0000
0000
0100
0000
0000
1000
0000
0000
,
0001
0000
0000
0100
0000
0010
0000
0000
,
1000
0000
0000
1000
0001
0000
0000
0001
,
0000
0000
0110
0000
,
0000
1000
0000
0000
0000
0000
0001
0000
,
0000
0100
0000
0010
0000
0000
1000
0000
,
0000
0000
0000
0001
0000
0000
0001
0000
,
0000
0001
0010
0000
0000
0000
0100
0000
,
0000
0001
0000
0000
0100
0000
0000
1000
,
0000
0001
0000
0000
0100
0000
0000
0100
,
0010
0000
0000
0010
0000
0000
0000
0000
,
1001
0000
0000
0000
0000
1000
0000
0000
,
0000
0000
0001
0000
0000
0001
0000
0000
,
0000
0000
0010
0000
0000
0000
0000
0100
,
0000
0000
1000
0000
0000
0001
1000
0000
,
0000
0000
0010
0000
0000
0100
0000
0000
,
1000
0000
0000
0100
0000
0001
0000
0000
,
0010
0000
0110
0000
,
0100
1000
0001
0100
,
0010
1000
0001
0010
,
0001
1000
0010
0100
,
0001
1000
0100
0010
,
0100
1000
0001
0100
,
0010
1000
0001
0010
,
0001
1000
0010
0000
,
0110
0000
0100
0001
,
1000
0001
0010
0100
,
1000
0010
0100
0010
,
1000
0001
0010
0001
,
0100
0010
1000
0100
,
0010
0001
0100
0010
,
1000
0001
0010
0100
,
1000
0001
1001
0000
,
1000
0001
0100
0010
,
1000
0100
0010
0001
,
0010
0100
1000
0001
,
0100
1000
0100
0001
,
1000
0010
1000
0001
,
0010
0100
0001
0100
,
1000
0001
0100
0010
,
0110
0000
0000
1000
0000
0000
0000
0000
,
0001
0000
0000
0000
0000
0010
0000
0000
,
0000
0000
0100
0000
0000
1000
0000
0000
,
0000
0000
0001
0000
0000
0000
0000
0100
,
0000
0000
0010
0000
0000
0100
0000
0000
,
0000
0000
0001
0000
0000
1000
0000
0000
,
0100
0000
0000
0010
0000
0000
0000
0000
,
0001
1000
0000
0000
0001
0000
0000
0101
,
0000
0000
0100
0000
0000
0101
0000
0000
,
0001
0000
0000
0101
0000
1000
0000
0010
,
0000
1000
0000
0010
0000
1000
0000
0010
,
0000
0000
1000
0000
0000
1100
0000
0000
,
0100
0000
0000
1100
0000
0000
1000
0000
,
0000
1100
0000
0001
0000
0010
0000
0001
,
0000
0010
0000
0001
0000
0010
0000
0000
,
0001
0000
0000
1001
0000
0000
0100
0000
,
0000
0110
0000
0000
1000
0000
0000
1001
,
0000
0100
0000
0010
0000
0100
0000
0010
,
0000
0100
0000
0010
0000
0000
0001
0000
,
0000
0001
0000
0000
1000
0000
0000
1000
,
0000
0000
0010
0000
0000
0110
0000
1000
,
0000
0001
0000
1000
0000
0001
0000
1000
,
0000
0001
0000
0000
2002
0000
0000
0000
,
0000
0000
0000
0000
,
0000
0000
0000
0000
,
0000
0000
0000
0000
0000
0000
0000
0000
0000
0000
0000
0000
0000
0000
0000
0000
0000
0000
0000
0000
0000
0000
0000
0000
0000
3003
0000
0000
0000
0000
0000
0000
,
0000
0002
0000
0000
,
0000
0000
0000
0000
,
0000
2003
0000
0000
0000
0000
0000
0000
,
0000
0000
0000
0000
,
3200
0000
0000
0000
,
0000
0000
0000
0000
,
0320
0000
0000
0000
0000
0000
0000
0000
0000
0000
0000
0000
0000
0000
0000
0000
0000
0000
0000
0000
0000
0000
0000
0000
0000
0000
0000
0000
0000
0030
0000
0000
,
0000
0002
0000
0000
0000
0000
2003
0000
,
0000
0000
0000
0000
,
0000
0000
0000
0000
0000
0002
0000
0000
,
0000
0000
0000
0000
,
3003
0000
0000
0000
1001
0000
0000
0001
,
0000
0000
0101
0000
0000
0100
0000
0000
,
0100
0010
0100
0010
0000
0000
1010
0000
,
0000
1000
0000
0000
0001
0000
0000
0001
,
0010
0001
0010
0000
0000
0100
0000
0000
,
1100
0000
0000
1000
0000
0000
1000
0001
,
1000
0001
0000
0000
0101
0000
0000
0100
,
0000
0000
0110
0000
0000
0010
1000
0010
,
1000
0000
0000
1000
0100
0000
0010
0000
,
0000
0001
0000
0000
1000
0000
0000
1001
,
0000
0000
0001
0100
0000
0010
0000
0000
,
1000
0000
0000
0001
0000
0000
0010
0000
,
0010
0000
0000
0000
0100
0000
0000
1000
,
0000
0000
0001
0000
0000
0100
0000
0000
,
1000
0000
0000
0100
0000
0000
0001
0000
,
0000
0010
0000
0000
2002
0000
0000
0000
,
0000
3003
1000
0100
,
0010
0000
0000
0110
0000
0000
0000
0100
,
0000
1000
0000
0001
0000
0100
0000
0010
,
0000
2000
3002
2003
,
3020
0230
0000
0302
,
0000
0013
0000
0000
0100
0000
0000
1000
,
0000
0000
0000
0001
0000
0000
0000
0000
,
1000
0100
0000
1000
0100
0000
0010
0001
,
0000
0010
0001
0000
1000
0000
0000
0001
,
0100
0000
0001
0100
0000
0010
1000
0000
,
0010
1000
0000
0001
0000
0000
1000
0100
,
0000
0010
0001
0000
1000
0100
0000
0010
,
0001
0000
1000
0000
0000
0001
0100
0000
,
0010
1000
0000
0001
0100
0000
0010
1000
,
0000
0001
0000
0000
1000
0000
0000
1100
,
0000
0000
0001
0000
0000
0101
0000
0000
,
1000
0000
0000
1100
0000
0010
0000
0010
,
0000
0010
0000
0010
0000
0010
0000
0100
,
0000
0000
0001
0000
0000
0101
0000
0000
,
1000
0000
0000
1100
0000
0000
0001
0000
,
0000
0101
0000
0010
0000
0010
0000
0010
,
0000
0010
0000
0010
0000
0100
0000
0000
,
1000
0000
0000
1010
0000
0000
0001
0000
,
0000
0011
0000
0000
1000
0000
0000
1010
,
0000
0100
0000
0100
0000
0100
0000
0100
,
0000
0100
0000
0010
0000
0000
0001
0000
,
0000
0011
0000
0000
1000
0000
0000
1010
,
0000
0000
0001
0000
0000
0011
0000
0100
,
0000
0100
0000
0100
0000
0100
0000
0100
,
0000
0010
0000
0000
2000
0000
0000
0000
,
0000
3002
0000
0000
,
0000
0000
0000
0000
,
0000
0000
0000
0000
,
0000
0003
0000
0000
;

//---------------dance-single - forcednature-ESP----------------
#NOTES:
     dance-single:
     forcednature:
     Hard:
     16:
     :
0000
0000
0000
0000
,
0000
0000
0000
0000
,
0000
0000
0000
0000
,
0000
0000
0000
0000
,
0000
0000
0000
0000
,
0000
0000
0000
0000
,
0000
0000
0000
0000
,
0000
0000
0000
0000
0001
0010
0100
1000
,
0000
0000
0001
0100
0010
1000
0000
0000
,
0001
0010
0100
2000
0000
0010
0000
0010
,
0000
0010
0000
0010
0000
3010
0000
1000
,
0001
1000
0001
0100
0010
1000
0000
0000
,
0001
0010
0100
1000
0000
0000
1000
0010
,
0100
0002
0000
0010
0000
0010
0000
0010
,
0000
0010
0000
0013
0000
0001
1000
0001
,
0100
0010
0000
1010
0000
0000
1000
0100
,
0000
0011
0000
0000
0001
0100
0000
2010
,
0000
0001
0000
0001
0000
0001
0000
0001
,
0000
3001
0000
1000
0001
0010
0100
1000
,
0000
0011
0000
0000
0001
0100
0000
1010
,
0000
0000
1000
0100
0000
0012
0000
1000
,
0000
1000
0000
1000
0000
1000
0000
1003
,
0000
0001
1000
0100
0010
0001
0000
1100
,
0000
0000
1000
0010
0000
0101
0000
0000
,
0001
0010
0000
2100
0000
0001
0000
0001
,
0000
0001
0000
0001
0000
3001
0000
1000
,
0001
0100
0010
1000
0000
0101
0000
0000
,
0001
0010
0000
1100
0000
0000
1000
0010
,
0000
0102
0000
1000
0000
1000
0000
1000
,
0000
1000
0000
1003
0000
0001
1000
0001
,
0020
0000
0000
0000
,
0000
0000
0000
0000
0000
0000
0000
0130
,
1000
0000
0001
0100
0000
0010
1000
0000
,
0001
0010
0000
0001
0100
0010
2000
0000
,
0000
0000
0000
0000
,
0000
0000
0000
0000
0000
3100
0010
0000
,
0001
0100
0000
0001
0010
0000
0001
0100
,
0000
0010
1000
0001
0020
0000
0000
0000
,
0000
0000
0000
0000
,
0000
0000
0000
0130
1000
0000
0010
0100
,
0000
0001
0010
0000
0001
0100
0000
0010
,
1000
0001
2000
0000
0000
0000
0000
0000
,
0000
0000
0000
0000
,
0000
3100
0010
0000
0100
1000
0000
0010
,
0100
0000
0001
0010
0000
0100
1000
0001
,
0100
0000
0010
0000
,
0010
0000
0000
0000
0010
0000
0000
1000
,
0010
0000
0000
0010
0000
0000
0000
0010
,
0000
0000
0000
0010
0000
0000
0100
0001
,
0000
1000
0010
1000
0000
0001
0010
0001
,
0000
0100
0010
0100
0001
1000
0000
1000
,
0010
0000
0010
0100
0000
0100
0001
0000
,
0001
1000
0000
1000
0100
0000
0000
0110
,
0000
0000
1001
0000
,
0000
0110
0000
0000
0000
0000
1100
0000
,
0000
0101
0000
0000
0000
0000
1001
0000
,
0000
0000
0000
0011
0000
0000
1010
0000
,
0000
1001
0000
0000
0000
0000
0110
0000
,
0000
1100
0000
0000
0101
0000
0000
0110
,
0000
0000
0000
0000
1001
0000
0000
1000
,
0100
0000
0010
0001
0000
0000
0000
0000
,
0101
0000
0000
0000
0000
1010
0000
0000
,
0000
0000
1001
0000
0000
0100
0000
0010
,
0000
0000
1001
0000
0000
0000
0000
0101
,
0000
0000
0011
0000
0000
1000
0010
0000
,
0000
0000
0101
0000
0000
1001
0000
0000
,
1100
0000
0000
1001
0000
0010
0000
0000
,
0110
0000
0000
0000
1000
0001
1000
0001
,
0000
0000
1100
0000
,
0000
0011
0000
0000
0000
0000
0001
0100
,
0001
0100
0000
0010
0000
0000
1000
0001
,
0000
0000
0000
1000
0100
0000
0010
0001
,
0000
1000
0100
0000
0000
0000
0010
0001
,
0000
0001
0100
0000
0100
0010
0000
0010
,
1000
0001
0000
0000
0010
0100
0010
0100
,
1000
0000
1000
0001
0000
0000
0000
0000
,
1100
0000
0000
0000
0000
0101
0000
0000
,
0000
0000
1000
0100
0010
0001
0000
0100
,
0000
0000
0110
0000
0000
0000
0000
1000
,
0001
0000
0001
0100
0000
0100
0010
0000
,
0000
0000
1000
0100
0000
0010
0001
0000
,
0001
0100
0000
0010
1000
0001
0000
0000
,
0100
0000
0001
0000
1000
0100
0000
0100
,
1000
0000
0001
0100
0001
0000
1000
0000
,
0010
0100
0000
0100
0001
0000
0001
1000
,
0000
1000
0100
0000
0010
0001
1000
0001
,
0100
0000
0100
0010
1000
0000
0001
0010
,
0000
0100
1000
0000
0001
0000
0100
0010
,
1000
0001
0010
0000
0100
1000
0000
1000
,
0001
0000
0100
0001
0000
0010
0100
0000
,
0110
0000
0010
0100
1000
0000
1000
0001
,
0010
0000
0100
0000
1000
0010
0000
0010
,
0100
0000
0100
0001
0000
0001
1000
0000
,
0100
0010
0001
0010
0100
0000
0100
1000
,
0010
0000
0100
0001
0000
1000
0010
0000
,
1000
0000
0100
0010
0001
0100
0010
0000
,
0100
0001
0000
0001
1000
0001
0000
0010
,
0100
0000
1000
0010
0100
0000
0001
1000
,
0100
0000
1000
0001
0100
0000
0010
0000
,
1000
0100
0010
0001
1000
0000
0010
0100
,
0000
0100
0001
0000
0010
0100
1000
0001
,
0100
0010
1000
0001
0010
0000
0010
0100
,
0000
1000
0001
0000
0100
0000
0010
1000
,
0001
0010
0100
0000
1000
0100
0000
0010
,
0001
1000
0000
0010
0100
0001
1000
0001
,
0010
0100
0000
0100
1000
0000
0000
0000
,
0001
0100
0000
0000
0000
0100
0010
0000
,
0000
0000
1000
0001
0000
0010
0001
0000
,
0000
0000
1000
0010
0000
0000
0000
0100
,
0001
0000
1000
0100
0000
0010
0001
0000
,
0000
0000
0100
0010
0000
1000
0001
0000
,
0010
0100
0000
1000
0001
0000
0000
0000
,
0100
0001
0000
0001
1000
0100
0000
0011
,
0000
0000
1000
0010
0000
0101
0000
0000
,
1000
0100
0000
0012
0000
0100
0000
0100
,
0000
0100
0000
0100
0000
0103
0000
0001
,
0100
0001
1000
0000
0000
1010
0000
0000
,
1000
0100
0000
0011
0000
0000
0001
0100
,
0000
2010
0000
0100
0000
0100
0000
0100
,
0000
0100
0000
3100
0000
1000
0100
1000
,
0010
0100
0000
0101
0000
0000
0001
0010
,
0000
1100
0000
0000
1000
0010
0000
1002
,
0000
0100
0000
0100
0000
0100
0000
0100
,
0000
0103
0000
0001
0100
0001
0010
0000
,
0000
0010
0000
0000
0010
0000
0000
0010
,
0000
0000
0100
0000
0000
1001
0000
0010
,
0000
0010
0000
0010
0000
0010
0000
0010
,
0000
0010
0000
0000
2002
0000
0000
0000
,
0000
0000
0000
0000
,
0000
0000
0000
0000
,
0000
0000
0000
0000
0000
0000
0000
0000
0000
0000
0000
0000
0000
0000
0000
0000
0000
0000
0000
0000
0000
0000
0000
0000
0000
3003
0000
0000
0000
0000
0000
0000
,
0000
2000
0000
0000
,
0000
0000
0000
0000
,
0000
3002
0000
0000
0000
0000
0000
0000
,
0000
0000
0000
0000
,
0203
0000
0000
0000
,
0000
0000
0000
0000
,
0320
0000
0000
0000
,
0000
2030
0000
0000
0000
0000
3002
0000
,
0000
0000
0000
0000
,
0000
0000
0000
0000
0000
0023
0000
0000
,
0000
0000
0000
0000
,
0030
0000
0000
0000
1100
0000
0000
1010
,
0000
0000
0101
0000
0000
0011
0000
0000
,
1000
0010
0100
0001
0000
0000
0011
0000
,
0000
0101
0000
0000
0011
0000
0000
0001
,
0100
0010
1000
0000
0000
1010
0000
0000
,
0101
0000
0000
0011
0000
0000
1000
0100
,
0010
0001
0000
0000
0011
0000
0000
1100
,
0000
0000
1010
0000
0000
0001
0010
0100
,
2000
0000
0000
3002
0000
0000
0203
0000
,
0000
0320
0000
0000
1030
0010
1000
0002
,
0000
0000
0023
0000
0000
0230
0000
0000
,
2300
0000
0000
3002
0000
0000
0103
0001
,
0100
0010
0000
1000
0010
1000
0001
0000
,
0001
1000
0100
0010
0001
1000
0000
0000
,
1100
0000
0000
1010
0000
0000
0101
0000
,
0000
0011
0000
0000
2002
0000
0000
0000
,
0000
0000
3003
0000
1000
0100
0010
0001
,
1000
0000
0000
0001
0000
0000
1000
0100
,
0000
0000
0010
0001
0000
1000
0001
0100
,
0001
1000
0100
0000
0010
0001
0010
0001
,
0010
0200
0000
2300
,
0000
3001
0100
0010
1000
0000
0000
0002
,
0000
0000
0000
0000
0000
0000
0013
0000
0000
0000
0100
0000
0000
1000
0000
0000
,
0001
0100
0000
0001
0100
0000
0010
1000
,
0000
0010
1000
0000
0001
1000
0001
1000
,
0100
0000
1000
0100
0000
0010
0001
0000
,
0010
0001
0000
1000
0001
1000
0001
0100
,
0000
0010
0100
0000
1000
0100
0000
0010
,
0100
0000
0001
1000
0001
1000
0100
0000
,
0010
0100
0000
0001
0100
0000
0010
0100
,
0000
1000
0001
1000
0001
0010
0100
1000
,
0000
1000
0001
0010
0100
1000
0000
1000
,
0001
0010
0100
1000
0000
1010
0000
0010
,
0000
0010
0000
0010
0000
0010
0000
0010
,
1000
0001
1000
0100
0010
0001
0000
0001
,
1000
0100
0010
0001
0000
0001
1000
0100
,
0010
0001
0000
0101
0000
0100
0000
0100
,
0000
0100
0000
0100
0000
0001
1000
0001
,
0010
0100
1000
0001
0000
0001
0100
0010
,
1000
0001
0000
0001
0010
0100
1000
0001
,
0000
0101
0000
0100
0000
0100
0000
0100
,
0000
0100
0000
0100
0001
1000
0100
0010
,
0001
1000
0000
1000
0010
0100
0001
1000
,
0000
1000
0100
0010
0001
1000
0000
1010
,
0000
0010
0000
0010
0000
0010
0000
0010
,
0000
0010
0100
0001
2000
0000
0000
0000
,
0000
3200
0000
0000
,
0000
0000
0000
0000
,
0000
0000
0000
0000
,
0000
0300
0000
0000
;

//---------------dance-single - forcednature-CSP----------------
#NOTES:
     dance-single:
     forcednature:
     Challenge:
     18:
     :
0000
0000
0000
0000
,
0000
0000
0000
0000
,
0000
0000
0000
0000
,
0000
0000
0000
0000
,
0000
0000
0000
0000
,
0000
0000
0000
0000
,
0000
0000
0000
0000
,
0000
0000
0000
0000
1000
0100
0000
0011
,
0000
0000
1000
0100
0000
0011
0000
0000
,
1000
0100
0000
0011
0000
0001
0000
0101
,
0000
0001
0000
0101
0000
0001
0000
0100
,
0010
1000
0001
0100
0000
1010
0000
0000
,
0001
0100
0000
1010
0000
0000
0001
0100
,
0000
1010
0000
1000
0000
1100
0000
1000
,
0000
1100
0000
1000
0000
0100
0010
0001
,
1000
0010
0100
0002
0000
0003
1000
0100
,
0010
0002
0000
0003
1000
0010
0100
0002
,
0000
1003
0000
1100
0000
0001
0000
0101
,
0000
1000
0000
0001
0010
0100
1000
0001
,
0100
0020
0000
0030
1000
0001
0010
0200
,
0000
0300
1000
0001
0100
0020
0000
1030
,
0000
1010
0000
0001
0000
0011
0000
1000
,
0000
0001
0100
0001
0010
0100
1000
0020
,
0000
0030
0100
0001
0010
0200
0000
0300
,
0010
0100
1000
0020
0000
0130
0000
0101
,
0000
0010
0000
1010
0000
0100
0000
0001
,
0010
0100
1000
0010
1000
0200
0000
0300
,
0010
0001
0100
0002
0000
0003
1000
0010
,
1000
0200
0000
0310
0000
0110
0000
1000
,
0000
1001
0000
0001
0000
0100
0001
1000
,
0020
0000
0100
0000
,
1000
0000
0000
0000
0100
0000
0000
1030
,
0010
0100
0001
0100
0010
1000
0100
0010
,
0001
0010
0100
1000
0001
0100
0002
0000
,
0000
0010
0000
1000
,
0000
0000
0010
0000
0000
1003
0001
0100
,
0001
1000
0100
1000
0001
0010
0001
1000
,
0010
0100
0001
1000
0200
0000
0000
0000
,
0010
0000
1000
0000
,
0010
0000
0000
1300
0100
0010
0100
1000
,
0001
0100
0010
0100
0001
1000
0100
0010
,
0001
0100
0020
0000
0000
0000
1000
0000
,
0000
0100
0000
1000
,
0000
0130
0010
1000
0001
1000
0100
0010
,
0001
1000
0001
0100
0010
1000
0001
0010
,
0100
0000
0000
0000
1000
0100
0010
0001
,
1000
0010
0100
0001
1000
0100
0010
0001
,
0100
0010
1000
0001
0010
0100
1000
0001
,
0100
0010
1000
0001
1000
0100
0010
0000
,
0001
1000
0100
1000
0010
0100
0001
0010
,
0001
0100
0010
1000
0100
1000
0000
0001
,
0010
0000
0100
1000
0000
0001
0100
0000
,
0010
1000
0000
0100
0010
0000
0000
1001
,
0000
0000
0110
0000
,
0000
1001
0000
0000
0000
0000
1100
0000
,
0000
0101
0000
0000
0000
0000
1001
0000
,
0000
0000
0000
1010
0000
0000
0011
0000
,
0000
1001
0000
0000
0000
0000
1100
0000
,
0000
1010
0000
0000
0101
0000
0000
0011
,
0000
0000
0000
0000
1001
0000
0000
0001
,
0100
0010
1000
0001
0000
0000
0000
0000
,
1100
0000
0000
0000
0000
0101
0000
0000
,
0000
0000
1010
0000
0000
0011
0000
1000
,
0000
0000
0110
0000
0000
0000
0000
1010
,
0000
0000
0011
0000
0000
1000
0100
0000
,
0000
0000
0110
0000
0000
1001
0000
0000
,
0101
0000
0000
1010
0000
0001
0000
0000
,
0011
0000
0000
1000
0001
0100
0010
1000
,
0001
0000
0000
0000
0010
1000
0000
0000
,
0000
0010
0001
0000
0000
0000
0001
0100
,
1000
0100
0000
0110
0000
0000
0001
1000
,
0000
0000
0000
0100
1000
0010
0100
0001
,
0010
0001
0100
0000
0000
0000
0010
1000
,
0100
0010
0001
0100
0010
1000
0100
0010
,
0000
0011
0000
0000
1000
0100
0001
0100
,
1000
0001
1000
0010
0000
0000
0000
0000
,
0101
0000
0000
0000
0000
1100
0000
0000
,
0000
0000
1000
0010
0001
0010
0000
0110
,
0000
0000
0001
0100
0000
0000
0000
0010
,
1000
0100
0010
0100
1000
0010
0100
0000
,
0000
0000
0001
0010
0100
1000
0010
0100
,
0001
0010
0100
1000
0010
0100
0000
0000
,
0001
0010
0001
0010
0200
1300
0001
0100
,
0010
1000
0001
0010
0100
0010
0001
1000
,
0010
0100
0001
1000
0100
1000
0010
0100
,
0001
1000
0100
0010
0001
0100
0010
1000
,
0100
1000
0001
0010
0001
0100
0010
1000
,
0001
0010
0100
0010
0001
1000
0010
0100
,
1000
0100
0001
0010
0100
1000
0100
0010
,
0001
1000
0010
0100
0001
0010
0001
0100
,
0020
1030
0100
0010
0001
0100
0001
0010
,
0100
0010
0001
1000
0010
0100
0001
1000
,
0100
1000
0010
0100
0001
0010
0100
1000
,
0001
0100
0001
1000
0010
1000
0100
0010
,
0001
0100
0010
1000
0100
1000
0010
0100
,
0001
1000
0001
0010
1000
0010
0100
1000
,
0001
0010
0001
1000
0010
0100
0001
1000
,
0100
1000
0010
0100
0002
0013
0001
0100
,
0010
1000
0100
1000
0001
0010
0100
1000
,
0100
0001
0100
0010
0001
0100
0010
1000
,
0001
1000
0010
0100
0001
0010
0001
0100
,
0010
0001
0010
1000
0010
0100
0001
0100
,
0010
1000
0100
0010
0001
0100
0010
0100
,
0001
1000
0010
0001
0010
1000
0001
1000
,
0100
0010
0001
0100
0010
1000
0100
0001
,
0100
1000
0000
0001
0100
0000
0000
0000
,
0010
1000
0000
0000
0000
0100
0001
0000
,
0000
0000
0100
1000
0000
0010
0100
0000
,
0000
0000
1000
0100
0000
0000
0000
0001
,
0010
0000
0100
0001
0000
0100
1000
0000
,
0000
0000
0010
0100
0000
1000
0100
0000
,
0001
0010
0000
0100
1000
0000
0000
0000
,
0010
0100
0000
0001
1000
0100
0010
0001
,
0010
0100
1000
0010
0100
0001
0100
0010
,
1000
0100
0010
0001
1000
0010
0100
0010
,
1000
0010
0100
0010
1000
0010
0100
0010
,
1000
0001
0010
0001
1000
0010
1000
0001
,
0100
0001
1000
0100
1000
0001
0010
0001
,
1000
0100
1000
0010
0100
0010
0001
0010
,
0100
0010
0001
0010
0100
0001
1000
0100
,
0010
0001
0100
0001
0010
0100
1000
0010
,
1000
0100
0010
0001
0100
0001
1000
0010
,
1000
0100
0001
0100
0010
0100
0001
0100
,
0010
0100
0001
0100
1000
0001
0100
0000
,
0000
0101
0000
0000
0010
0000
0000
1010
,
0000
0000
0100
0000
0000
1001
0000
0001
,
0000
0101
0000
1000
0000
1100
0000
0001
,
0000
1000
0010
0100
0002
0000
0000
0000
,
0000
0000
0000
0000
,
0000
0000
0000
0000
,
0000
0000
0000
0000
,
0000
0000
0000
0000
0000
0000
0000
0000
0020
0003
0000
0000
0000
0000
0000
0000
0000
0000
0000
0000
0000
0000
0000
0000
0000
0000
0000
0000
0000
0000
0000
0000
,
0000
0000
0000
0000
,
0000
0230
0000
0000
,
0000
0000
0000
0000
,
2300
0000
0000
0000
,
0000
3020
0000
0000
0000
0000
0000
0000
,
0230
0000
0000
0000
,
0000
0000
0000
0000
0002
0300
0000
0000
0000
0000
0000
0000
0000
0000
0000
0000
0000
0000
0000
0000
0000
0000
0000
0000
0023
0000
0000
0000
0000
0000
0000
0000
,
0000
0000
0000
0000
,
0000
0000
0000
0000
0000
0200
0000
0000
,
0000
0000
0000
0000
,
0330
0000
0000
0000
1001
0000
0000
0101
,
0000
0000
1100
0000
0000
0011
0000
0000
,
1000
0010
0100
0001
0000
0000
0011
0000
,
0000
0110
0000
0000
1100
0000
0000
0001
,
0100
0010
1000
0000
0000
1100
0000
0000
,
0011
0000
0000
0101
0000
0000
1000
0001
,
0010
0001
0000
0000
0101
0000
0000
1010
,
0000
0000
1001
0000
0000
1000
0100
0010
,
0001
0000
0001
0100
0000
0100
0010
0000
,
0010
1000
0000
0001
0010
0100
1000
0001
,
0000
1000
0100
0000
0001
0100
0000
0010
,
0001
1000
0001
0100
0000
1000
0100
0001
,
0010
0000
0010
0100
0000
0100
1000
0000
,
0010
0100
0001
0010
0100
1000
0000
0000
,
0011
0000
0000
0101
0000
0000
1010
0000
,
0000
0110
0000
0000
2002
0000
0000
0000
,
0000
0000
3003
0000
0001
0100
1000
0100
,
0010
0000
1000
0001
0000
0010
0100
1000
,
0010
0100
0001
0010
0001
0100
0010
1000
,
0100
0010
0001
0000
0100
1000
0100
0001
,
0010
0100
2000
0000
0000
3010
0100
0010
,
1000
0001
0010
0100
1000
0100
0020
0000
,
0000
0000
0000
0000
0000
0000
0031
0000
0000
0000
1000
0000
0000
0010
0000
0000
,
2000
3100
0010
1000
0010
0100
0010
0001
,
1000
0010
0001
0010
0100
0001
1000
0002
,
0103
0010
0001
0010
0100
0010
1000
0001
,
0010
1000
0010
0100
1000
0001
2000
3010
,
0001
0010
0100
0001
1000
0100
0010
1000
,
0010
0001
1000
0010
0100
0002
0013
1000
,
0001
0100
1000
0010
0100
1000
0100
0001
,
0010
0100
1000
0001
1000
0100
0010
0001
,
0000
0001
1000
0100
0010
0001
0000
0001
,
1000
0100
0010
0001
0000
0101
0000
1010
,
0000
0101
0000
1010
0000
0101
0000
1000
,
0001
0010
0001
0100
0010
1000
0000
1000
,
0001
0100
0010
1000
0000
1000
0001
0100
,
0010
1000
0000
1100
0000
0011
0000
1100
,
0000
0011
0000
1100
0000
0001
1000
0001
,
0100
1000
0100
0001
0000
0001
0100
1000
,
0100
0001
0000
0001
0100
1000
0100
0001
,
0000
0011
0000
0101
0000
1010
0000
1100
,
0000
0011
0000
1000
0001
1000
0100
0001
,
0100
1000
0000
1000
0100
0001
0100
1000
,
0000
1000
0100
0001
0100
1000
0000
0110
,
0000
1001
0000
0110
0000
1001
0000
0110
,
0000
1000
0100
0010
0002
0000
0000
0000
,
0000
2003
0000
0000
,
0000
0000
0000
0000
,
0000
0000
0000
0000
,
0000
3000
0000
0000
;

//---------------dance-double - t7r-BDP----------------
#NOTES:
     dance-double:
     t7r:
     Easy:
     9:
     :
00000000
00000000
00000000
00000000
,
00000000
00000000
00000000
00000000
,
00000000
00000000
00000000
00000000
,
00000000
00000000
00000000
00000000
,
00000000
00000000
00000000
00000000
,
00000000
00000000
00000000
00000000
,
00000000
00000000
00000000
00000000
,
00000000
00000000
10000000
00000000
,
00000000
00010000
00000000
00000000
,
10000000
00000000
00000000
00000000
00000000
01000000
00000000
00000000
,
00000000
01000000
00000000
00000000
00000000
00010000
00000000
00000000
,
00000000
00001000
00000000
00000000
,
00000010
00000000
00000000
00000001
,
00000000
00000000
00000000
00000100
00000000
00000000
00000000
00000100
,
00000000
00000000
00000000
00001000
00000000
00000000
00000000
00000000
,
00010000
00000000
00000000
00001000
00000000
00000000
00010000
00000000
,
00000000
00001000
00000000
00000000
00010000
00000000
00000000
01000000
,
00000000
00000000
00000000
10000000
00000000
00000000
00000000
10000000
,
00000000
00000000
00000000
10000000
00000000
00000000
00010000
00000000
,
00000000
10000000
00000000
00000000
00010000
00000000
00000000
10000000
,
00000000
00000000
00010000
00000000
00000000
01000000
00000000
00000000
,
00000000
00001000
00000000
00000000
00000000
00001000
00000000
00000000
,
00000000
00001000
00000000
00000000
00010000
00000000
00000000
00000100
,
00000000
00000000
00010000
00000000
00000000
00000100
00000000
00000000
,
00010000
00000000
00000000
00001000
00000000
00000000
00000000
00000010
,
00000000
00000000
00000000
00000010
00000000
00000000
00000000
00000010
,
00000000
00000000
00000001
00000000
00000000
00000100
00000000
00000000
,
00000001
00000000
00000000
00000100
00000000
00000000
00000001
00000000
,
00000000
00000010
00000000
00000000
00000000
00001000
00000000
00000000
,
00000000
00001000
00000000
00000000
00000000
00001000
00000000
00000000
,
00022000
00000000
00000000
00000000
,
00000000
00000000
00000000
00000000
00033000
00000000
00000000
00010000
,
00000000
00000000
01000000
00000000
00000000
10000000
00000000
00000000
,
00100000
00000000
00000000
01000000
00000000
00000000
00200000
00000000
,
00000000
00000000
00000000
00000000
,
00000000
00000000
00300000
00000000
00000000
10000000
00000000
00000000
,
01000000
00000000
00000000
00010000
00000000
00000000
00001000
00000000
,
00000000
00000100
00000000
00000000
00000002
00000000
00000000
00000000
,
00000000
00000000
00000000
00000000
,
00000003
00000000
00000000
00001000
00000000
00000000
00000100
00000000
,
00000000
00010000
00000000
00000000
00001000
00000000
00000000
00100000
,
00000000
00020000
00000000
00000000
,
00000000
00000000
00000000
00030000
,
00000000
01000000
00000000
00000000
00100000
00000000
00000000
10000000
,
00000000
00000000
00010000
00000000
00000000
10000000
00000000
00000000
,
01000000
00000000
01000000
00000000
,
01000000
00000000
00000000
00000000
01000000
00000000
00000000
00010000
,
00000000
00000000
00000000
00010000
00000000
00000000
00000000
00010000
,
00000000
00000000
00000000
00011000
,
00000000
00001000
00000000
00000100
,
00000000
00000000
00000000
00000000
00000000
00000001
00000000
00000000
,
00000010
00000000
00000000
00000100
00000000
00000000
00010000
00000000
,
00000000
00000000
00000000
00000000
00001000
00000000
00000000
00001000
,
00000000
00000000
01000000
00000000
,
00000000
00010000
00000000
00000000
00000000
00000000
10000000
00000000
,
00000000
10000000
00000000
00000000
00000000
00000000
01000000
00000000
,
00000000
00000000
00000000
00010000
00000000
00000000
00010000
00000000
,
00000000
00001000
00000000
00000000
00000000
00000000
00000100
00000000
,
00000000
00000010
00000000
00000000
00001000
00000000
00000000
00000100
,
00000000
00000000
00010000
00000000
,
00011000
00000000
00000000
00000000
,
00001000
00000000
00000000
00000000
00000000
01000000
00000000
00000000
,
00000000
00000000
01000000
00000000
00000000
01000000
00000000
00010000
,
00000000
00000000
10000000
00000000
00000000
00000000
00000000
01000000
,
00000000
00000000
01000000
00000000
00000000
01000000
00000000
00000000
,
00000000
00000000
10000000
00000000
00000000
10000000
00000000
00000000
,
00100000
00000000
00000000
00100000
00000000
00010000
00000000
00000000
,
00001000
00000000
00011000
00000000
,
00000000
00000000
01001000
00000000
,
00000000
00000000
00000000
00011000
,
00000000
00000000
00000000
00010100
,
00000000
00000000
00000000
00010000
00000000
00000000
00000000
00010000
,
00000000
00001000
00000000
01000000
,
00000000
00000000
01000000
00000000
00000000
00010000
00000000
00000000
,
00000000
10000000
00000000
00000000
00000000
00000000
00000000
00000000
,
10010000
00000000
00000000
00000000
,
10000000
00000000
00000000
00000000
00000000
01000000
00000000
00000000
,
00000000
00010000
00000000
00010000
,
00000000
00000000
00001000
00000000
00000000
00000000
00000000
00000100
,
00000000
00000000
00000000
00000100
00000000
00000000
00000000
00000010
,
00000000
00001000
00000000
00000100
,
00000000
00010000
00010000
00001000
,
00000000
00000000
00011000
00000000
,
00000000
00000000
00010000
00000000
,
01000000
00000000
10000000
00000000
,
00100000
00000000
01000000
00000000
,
00010000
00000000
00100000
00000000
,
00001000
00000000
00010000
00000000
,
00000010
00000000
00001000
00000000
,
00000001
00000000
00000100
00000000
,
00001000
00000000
00010000
00000000
,
00100000
00000000
10000000
00000000
,
00010000
00000000
00100000
00000000
,
01000000
00000000
10000000
00000000
,
00010000
00000000
10000000
00000000
,
01000000
00000000
00100000
00000000
,
00001000
00000000
00010000
00000000
,
00000010
00000000
00000110
00000000
,
00000000
00000000
00000001
00000000
,
00000010
00000000
00000100
00000000
,
00001000
00000000
00010000
00000000
,
00100000
00000000
00010000
00000000
,
10000000
00000000
00100000
00000000
,
10000000
00000000
01000000
00000000
,
00100000
00000000
00001000
00000000
,
00011000
00000000
00000000
00000000
,
00010000
00000000
00000000
00000000
00000000
00001000
00000000
00000000
,
00000000
00000000
01000000
00000000
00000000
01000000
00000000
00100000
,
00000000
00000000
01000000
00000000
00000000
00000000
00000000
00100000
,
00000000
00100000
00000000
10000000
,
00000000
00000000
01000000
00000000
00000000
01000000
00000000
00000000
,
01000000
00000000
00000000
00100000
00000000
00001000
00000000
00000000
,
00010000
00000000
00000000
00001000
00000000
00000000
00000000
00010000
,
00000000
00000000
00001000
00000000
00000000
00010000
00000000
00000000
,
00001000
00000000
00000000
00010000
00000000
00000100
00000000
00001000
,
00000000
00000000
00000000
00001000
00000000
00000000
00000000
00001000
,
00000000
00000000
00000010
00000000
00000000
00000100
00000000
00000000
,
00000001
00000000
00000000
00001000
00000000
00000000
00000100
00000000
,
00000000
00010000
00000000
00000000
00000000
00001000
00000000
00000000
,
00000000
00001000
00000000
00000000
00000000
00001000
00000000
00000000
,
01000000
00000000
00000000
00010000
00000000
00000000
10000000
00000000
,
00000000
00010000
00000000
00000000
10000000
00000000
00000000
00010000
,
00000000
00000000
00000000
00100000
00000000
00000000
00000000
00100000
,
00000000
00000000
00000000
00100000
00000000
00000000
01000000
00000000
,
00000000
00000000
01000000
00000000
,
00000000
00000000
01000000
00000000
00000000
00100000
00000000
00000000
,
00000000
00100000
00000000
00000000
00000000
00100000
00000000
00000000
,
00000000
00000000
00022000
00000000
,
00000000
00000000
00000000
00000000
,
00000000
00000000
00000000
00000000
,
00000000
00000000
00000000
00000000
,
00000000
00000000
00000000
00000000
,
00000000
00000000
00000000
00000000
,
00000000
00000000
00000000
00033000
00000000
00000000
00000000
00000000
00000000
00000000
00000000
00000000
00000000
00000000
00000000
00000000
,
00000000
00000000
00000000
00000000
,
00000020
00000000
00000000
00000000
,
00000000
00000000
00000000
00000000
,
00000000
00000000
00000000
00000000
,
00000000
00000000
00000000
00000200
,
00000000
00000000
00000000
00000000
,
00000000
00000000
00000000
00000000
,
00000000
00000000
00000330
00000000
,
00000000
00000000
00001001
00000000
,
00000000
00000001
00000000
00000000
,
00000010
00000000
00000000
00001000
,
00000000
00000000
00010000
00000000
,
00000000
00100000
00000000
00000000
,
01000000
00000000
00000000
00010000
,
00000000
00000000
10000000
00000000
,
00000000
01000000
00000000
00000000
,
10010000
00000000
00000000
10000000
,
00000000
00000000
01000000
00000000
,
00000000
00000000
00000000
00010000
00000000
00000000
00000000
00000000
,
00000000
00001000
00000000
00000000
00000000
00000000
00000100
00000000
,
00000000
00000100
00000000
00000000
00000010
00000000
00000000
00000010
,
00000000
00000000
00001000
00000000
00000000
00001000
00000000
00000000
,
00000001
00000000
00000000
00001000
00000000
00000000
00000001
00000000
,
00000000
00000001
00000000
00000000
00001002
00000000
00000000
00000000
,
00000010
00000000
00001003
00000100
,
00010000
00000000
00000000
00012000
00000000
00000000
00000000
01003000
,
00000000
00010000
00000000
10000000
00000000
00000000
00000000
01000000
,
00000000
00100000
00001000
00010000
,
00000000
00000020
00000000
00001030
,
00000000
00000001
00000000
00000010
00000000
00000200
00000000
00000000
,
00000000
00010300
00000000
00000000
00000000
00001000
00000000
00000000
,
00010000
00000000
00010000
00000000
,
00010000
00000000
00000000
00000000
00010000
00000000
00000000
00011000
,
00000000
00000000
00000000
00001000
00000000
00000000
00000000
00001000
,
00000000
00000000
00000000
00001000
00000000
00000000
01001000
00000000
,
00000000
01000000
00000000
01000000
,
00000000
00000000
01000000
00000000
00000000
10010000
00000000
00000000
,
00000000
10000000
00000000
00000000
00000000
10000000
00000000
00000000
,
00000000
10000000
00000000
00000000
00010000
00000000
00000000
10000000
,
00000000
00000000
01000000
00000000
00000000
00010000
00000000
00000000
,
00001000
00000000
00000000
00000100
00000000
00000100
00000000
00000001
,
00000000
00000000
00000000
00000001
00000000
00000000
00000000
00000001
,
00000000
00000000
00001000
00000000
00000000
00000100
00000000
00000000
,
00010000
00000000
00000000
00001000
00000000
00000000
01000000
00000000
,
00000000
00010000
00000000
10000000
00000000
00100000
00000000
00000000
,
00000000
00100000
00000000
00000000
00000000
00100000
00000000
00000000
,
01000000
00000000
00000000
00010000
00000000
00000000
00100000
00000000
,
00000000
00001000
00000000
00000000
00010000
00000000
00000000
00001000
,
00000000
00001000
00000000
00010000
00000000
00000000
00000000
00010000
,
00000000
00000000
00000000
00010000
00000000
00000000
00000100
00000000
,
00000000
00001000
00000000
00000000
00000001
00000000
00000000
00000100
,
00000000
00000000
00000010
00000000
00000000
00001000
00000000
00000100
,
00000000
00010000
00000000
00010000
00000000
00001000
00000000
00001000
,
00000000
00010000
00000000
00000000
00000000
00000000
00000000
00000000
,
00000000
00022000
00000000
00000000
,
00000000
00000000
00000000
00000000
,
00000000
00000000
00000000
00000000
,
00000000
00033000
00000000
00000000
;

//---------------dance-double - forcednature-DDP----------------
#NOTES:
     dance-double:
     forcednature:
     Medium:
     13:
     :
00000000
00000000
00000000
00000000
,
00000000
00000000
00000000
00000000
,
00000000
00000000
00000000
00000000
,
00000000
00000000
00000000
00000000
,
00000000
00000000
00000000
00000000
,
00000000
00000000
00000000
00000000
,
00000000
00000000
00000000
00000000
,
00000000
00000000
00000000
00000000
00001000
00000000
00000000
00010000
,
00000000
00000000
00001000
00000000
00000000
00010000
00000000
00000000
,
00001000
00000000
00000000
00010000
00000000
00100000
00000000
01000000
,
00000000
00100000
00000000
01000000
00000000
00100000
00000000
00100000
,
00000000
00000000
00010000
00000000
00000000
00001000
00000000
00000000
,
00010000
00000000
00000000
00001000
00000000
00000000
00010000
00000000
,
00000000
00001000
00000000
00000010
00000000
00000100
00000000
00000010
,
00000000
00000100
00000000
00000010
00000000
00000010
00000000
00000000
,
00010000
00000000
00000000
00011000
00000000
00000000
00001000
00000000
,
00000000
00011000
00000000
00000000
00010000
00000000
00000000
00011000
,
00000000
01000000
00000000
00100000
00000000
01000000
00000000
00100000
,
00000000
01000000
00000000
01000000
00000000
00000000
00001000
00000000
,
00000000
00011000
00000000
00000000
00010000
00000000
00000000
00011000
,
00000000
00000000
00001000
00000000
00000000
00011000
00000000
00000100
,
00000000
00000010
00000000
00000100
00000000
00000010
00000000
00000100
,
00000000
00000100
00000000
00000000
00010000
00000000
00000000
00011000
,
00000000
00000000
00001000
00000000
00000000
00011000
00000000
00000000
,
00010000
00000000
00000000
00011000
00000000
01000000
00000000
00100000
,
00000000
01000000
00000000
00100000
00000000
01000000
00000000
01000000
,
00000000
00000000
00001000
00000000
00000000
00011000
00000000
00000000
,
00010000
00000000
00000000
00011000
00000000
00000000
00001000
00000000
,
00000000
00011000
00000000
00000100
00000000
00000010
00000000
00000100
,
00000000
00000010
00000000
00000100
00000000
00000100
00000000
00000000
,
00002002
00000000
00000000
00000000
,
00000000
00000000
00000000
00000000
00003003
00000000
00000000
00000001
,
00000000
00000000
00000100
00000000
00000000
00001000
00000000
00000000
,
00010000
00000000
00000000
00001000
00000000
00000000
00022000
00000000
,
00000000
00000000
00000000
00000000
,
00000000
00000000
00033000
00000000
00000000
00001000
00000000
00000000
,
00010000
00000000
00000000
01000000
00000000
00000000
10000000
00000000
,
00000000
00010000
00000000
00000000
20020000
00000000
00000000
00000000
,
00000000
00000000
00000000
00000000
,
30030000
00000000
00000000
10000000
00000000
00000000
01000000
00000000
,
00000000
00010000
00000000
00000000
00001000
00000000
00000000
00010000
,
00000000
00022000
00000000
00000000
,
00000000
00000000
00000000
00033000
,
00000000
00010000
00000000
00000000
00001000
00000000
00000000
00000100
,
00000000
00000000
00000001
00000000
00000000
00001000
00000000
00000000
,
00000110
00000000
00001000
00000000
,
00001000
00000000
00000000
00000000
00001000
00000000
00000000
00000100
,
00000000
00000000
00000000
00010000
00000000
00000000
00000000
00010000
,
00000000
00000000
00000000
00001000
00000000
00000000
01000000
00000000
,
00010000
01000000
00010000
10000000
,
01000000
00000000
00100000
00000000
00000000
00001000
00000000
00000000
,
00010000
00000000
00000000
00000010
00000000
00000000
00001000
00000000
,
00000000
00000001
00000000
00000000
00000010
00000000
00000000
00000010
,
00000000
00000000
00000100
00000000
,
00000000
00010000
00000000
00000000
00000000
00000000
00001000
00000000
,
00000000
00001000
00000000
00000000
00000000
00000000
01000000
00000000
,
00000000
00000000
00000000
00010000
00000000
00000000
10000000
00000000
,
00000000
00010000
00000000
00000000
00000000
00000000
00100000
00000000
,
00000000
01000000
00000000
00000000
10000000
00000000
00000000
01000000
,
00000000
00000000
00000000
00000000
00100000
00000000
00000000
00100000
,
00001000
00000000
00000000
00001000
00000000
00000000
00000000
00000000
,
00011000
00000000
00000000
00000000
00000000
00010000
00000000
00000000
,
00000000
00000000
00000010
00000000
00000000
00000010
00000000
00000100
,
00000000
00000000
00000001
00000000
00000000
00000000
00000000
00000010
,
00000000
00000000
00000010
00000000
00000000
00000100
00000000
00000000
,
00000000
00000000
00010000
00000000
00000000
00001000
00000000
00000000
,
01000000
00000000
00000000
00010000
00000000
00100000
00000000
00000000
,
01000000
00000000
00000000
01000000
10000000
00000000
00000000
10000000
,
00000000
00000000
10010000
00000000
,
00000000
00010000
00000000
00000000
00000000
00000000
01000000
00000000
,
00000000
00001000
00000000
00010000
00000000
00000000
00000100
00000000
,
00000000
00000000
00000000
00000010
00000000
00000000
00000010
00000000
,
00000000
00000010
00000100
00000000
00000000
00000000
00001000
00000000
,
00000000
00000001
00000000
00000000
00000100
00000000
00000000
00000010
,
00000000
00001000
00000000
00000000
00000100
00000000
00000000
00000100
,
00010000
00000000
00000000
00010000
00000000
00000000
00000000
00000000
,
00011000
00000000
00000000
00000000
00000000
01000000
00000000
00000000
,
00000000
00000000
00010000
00000000
00000000
00010000
00000000
00000000
,
00000000
00000000
00100000
00000000
00000000
00000000
00000000
01000000
,
00000000
00000000
10000000
00000000
00000000
00010000
10000000
00000000
,
00000000
00000000
00100000
00000000
00000000
01000000
00000000
00000000
,
00010000
00000000
00000000
01000000
00000000
00001000
00000000
00000000
,
00010000
00000000
00011000
00000000
,
00010000
00000100
00001000
00000010
,
00001000
00000001
00000010
00000100
,
00001000
00000100
00010000
00001000
,
01000000
00010000
00100000
01000000
,
10000000
01000000
00010000
00001000
,
00100000
00010000
01000000
00001000
,
00010000
00000010
00001000
00000000
,
00001001
00000000
00000001
00000010
,
00000100
00010000
00001000
01000000
,
00010000
00100000
00001000
00100000
,
00010000
01000000
00100000
10000000
,
01000000
00100000
00001000
00010000
,
00000010
00000100
00001000
00000100
,
00000001
00000010
00000100
00010000
,
00001000
00010000
00011000
00000000
,
00010000
00001000
01000000
00010000
,
00100000
01000000
10000000
01000000
,
00010000
00001000
00010000
00000010
,
00001000
00000100
00000010
00001000
,
00000010
00000001
00001000
00000001
,
00000100
00001000
00010000
00001000
,
01000000
00010000
00100000
01000000
,
01100000
00000000
00000000
10000000
00000000
00000000
00000000
00000000
,
00010000
00000000
00000000
00000000
00000000
01000000
00000000
00000000
,
00000000
00000000
00001000
00000000
00000000
00010000
00000000
00000000
,
00000000
00000000
00000100
00000000
00000000
00000000
00000000
00001000
,
00000000
00000000
00000001
00000000
00000000
00001000
00000000
00000000
,
00000000
00000000
00000010
00000000
00000000
00000100
00000000
00000000
,
00001000
00000000
00000000
00010000
00000000
00000000
00000000
00000000
,
00001000
00010000
00000000
00000000
00100000
00000000
00000000
10100000
,
00000000
00000000
10000000
00000000
00000000
10100000
00000000
00000000
,
00100000
00000000
00000000
10100000
00000000
10000000
00000000
01000000
,
00000000
00010000
00000000
00001000
00000000
00000100
00000000
00000001
,
00000000
00000000
00000010
00000000
00000000
00000011
00000000
00000000
,
00000001
00000000
00000000
00000011
00000000
00000000
00000010
00000000
,
00000000
00000011
00000000
00000001
00000000
00000100
00000000
00001000
,
00000000
00010000
00000000
01000000
00000000
10000000
00000000
00000000
,
01000000
00000000
00000000
11000000
00000000
00000000
10000000
00000000
,
00000000
11000000
00000000
00000000
01000000
00000000
00000000
11000000
,
00000000
10000000
00000000
00100000
00000000
00010000
00000000
00001000
,
00000000
00000010
00000000
00000001
00000000
00000000
00000100
00000000
,
00000000
00000100
00000000
00000000
00001000
00000000
00000000
00001000
,
00000000
00000000
00010000
00000000
00000000
00011000
00000000
01000000
,
00000000
00010000
00000000
01000000
00000000
00010000
00000000
01000000
,
00000000
00010000
00000000
00000000
20020000
00000000
00000000
00000000
,
00000000
00000000
00000000
00000000
,
00000000
00000000
00000000
00000000
,
00000000
00000000
00000000
00000000
00000000
00000000
00000000
00000000
00000000
00000000
00000000
00000000
00000000
00000000
00000000
00000000
00000000
00000000
00000000
00000000
00000000
00000000
00000000
00000000
00000000
30030000
00000000
00000000
00000000
00000000
00000000
00000000
,
00000000
00002000
00000000
00000000
,
00000000
00000000
00000000
00000000
,
00000000
00023000
00000000
00000000
00000000
00000000
00000000
00000000
,
00000000
00000000
00000000
00000000
,
00030200
00000000
00000000
00000000
,
00000000
00000000
00000000
00000000
,
00000320
00000000
00000000
00000000
00000000
00000000
00000000
00000000
00000000
00000000
00000000
00000000
00000000
00000000
00000000
00000000
00000000
00000000
00000000
00000000
00000000
00000000
00000000
00000000
00000000
00000000
00000000
00000000
00000000
00000030
00000000
00000000
,
00000000
00000002
00000000
00000000
00000000
00000000
00002003
00000000
,
00000000
00000000
00000000
00000000
,
00000000
00000000
00000000
00000000
00000000
00000020
00000000
00000000
,
00000000
00000000
00000000
00000000
,
00003030
00000000
00000000
00000000
00000101
00000000
00000000
00000100
,
00000000
00000000
00001000
00000000
00000000
00010000
00000000
00000000
,
01000000
00000000
00000000
10000000
00000000
00000000
00100000
00000000
,
00000000
10000000
00000000
00000000
01000000
00000000
00000000
00010000
,
00000000
00000000
00001000
00000000
00000000
00000100
00000000
00000000
,
00000001
00000000
00000000
00000010
00000000
00000000
00000100
00000000
,
00000000
00000001
00000000
00000000
00000100
00000000
00000000
00010000
,
00000000
00000000
00001000
00000000
00000000
01000000
00000000
00000000
,
00100000
00000000
00000000
00100000
10000000
00000000
01000000
00000000
,
00000000
00100000
00000000
00000000
00001000
00000000
00000000
00011000
,
00000000
00000000
00001000
00010000
00000000
00000010
00000000
00000000
,
00001000
00000000
00000000
00000001
00000000
00000000
00000010
00000000
,
00000010
00000000
00000000
00000000
00000100
00000000
00000000
00010000
,
00000000
00000000
00001000
00000000
00000000
01000000
00000000
00000000
,
00010000
00000000
00000000
00100000
00000000
00000000
00001000
00000000
,
00000000
00010000
00000000
00000000
00022000
00000000
00000000
00000000
,
00000000
00033000
00001000
00010000
,
00000100
00000000
00000000
00000110
00000000
00000000
00000000
00000010
,
00000000
00000001
00000000
00001000
00000000
00000001
00000000
00000100
,
00000000
00002000
00023000
00230000
,
02300000
03020000
00000000
20030000
,
00000000
31000000
00000000
00000000
00010000
00000000
00000000
00001000
,
00000000
00000000
00000000
00000010
00000000
00000000
00000000
00000000
,
00000001
00000100
00000000
00000001
00000100
00000000
00001000
00000000
,
00000000
00010000
00000000
00000000
00100000
00000000
00000000
10000000
,
01000000
00000000
10000000
01000000
00000000
00010000
00000000
00000000
,
00001000
00000000
00000000
00000010
00000000
00000000
00000100
00001000
,
00000000
00000100
00010000
00000000
00001000
00000000
00000000
00100000
,
00000000
00000000
00010000
00000000
00000000
01000000
00010000
00000000
,
01000000
00001000
00000000
00010000
00000000
00000000
00000010
00000000
,
00000000
00001000
00000000
00000000
00000001
00000000
00000000
00000101
,
00000000
00000000
00001000
00000000
00000000
00001010
00000000
00000000
,
00000001
00000000
00000000
00000101
00000000
00000001
00000000
00000010
,
00000000
00001000
00000000
00010000
00000000
00100000
00000000
10000000
,
00000000
00000000
10000000
00000000
00000000
11000000
00000000
00000000
,
00010000
00000000
00000000
00110000
00000000
00000000
10000000
00000000
,
00000000
11000000
00000000
10000000
00000000
00100000
00000000
00010000
,
00000000
00001000
00000000
00000010
00000000
00000001
00000000
00000000
,
00000100
00000000
00000000
00000110
00000000
00000000
00001000
00000000
,
00000000
00001001
00000000
00000000
00000010
00000000
00000000
00000110
,
00000000
00000001
00000000
00000010
00000000
00001000
00000000
00010000
,
00000000
00100000
00000000
10000000
00000000
00000000
01000000
00000000
,
00000000
01100000
00000000
00000000
00010000
00000000
00000000
10010000
,
00000000
00000000
00100000
00000000
00000000
01100000
00000000
10000000
,
00000000
00100000
00000000
00010000
00000000
00001000
00000000
00000010
,
00000000
00000001
00000000
00000000
00000200
00000000
00000000
00000000
,
00000000
00000000
00000000
00000301
00000000
00001000
00000000
00000001
00000000
00001000
00000000
00000001
,
00000000
00001000
00000000
00000100
00000000
00010000
00000000
00000100
00000000
00010000
00000000
00000100
,
00000000
00010000
00000000
00001000
00000000
01000000
00000000
00001000
00000000
01000000
00000000
00001000
,
00000000
01000000
00000000
00020000
00000000
00000000
00000000
00000000
00000000
00000000
00000000
00000000
,
00000000
00000000
00000000
00000000
,
00000000
00030000
00000000
00000000
;

//---------------dance-double - forcednature-EDP----------------
#NOTES:
     dance-double:
     forcednature:
     Hard:
     16:
     :
00000000
00000000
00000000
00000000
,
00000000
00000000
00000000
00000000
,
00000000
00000000
00000000
00000000
,
00000000
00000000
00000000
00000000
,
00000000
00000000
00000000
00000000
,
00000000
00000000
00000000
00000000
,
00000000
00000000
00000000
00000000
,
00000000
00000000
00000000
00000000
00010000
00000000
00000000
01001000
,
00000000
00000000
00010000
00000000
00000000
00101000
00000000
00000000
,
00010000
00000000
00000000
01001000
00000000
01000000
00000000
00001000
,
00000000
00010000
00000000
00000100
00000000
00001000
00000000
00000010
,
00000000
00000010
00001000
00000000
00000000
00010100
00000000
00000000
,
00001000
00000000
00000000
00010010
00000000
00000000
00001000
00000000
,
00000000
00010100
00000000
00000100
00000000
00010000
00000000
00001000
,
00000000
01000000
00000000
00010000
00000000
00100000
00000000
00100000
,
00010000
00000000
00000000
01010000
00000000
00000000
00100000
00000000
,
00000000
00011000
00000000
00000000
00000010
00000000
00000000
00010100
,
00000000
00000010
00000000
00001000
00000000
00000001
00000000
00001000
,
00000000
00000100
00000000
00000010
00000000
00000100
00001000
00000000
,
00000000
00001100
00000000
00000000
00000010
00000000
00000000
00011000
,
00000000
00000000
00100000
00000000
00000000
01001000
00000000
00100000
,
00000000
00010000
00000000
10000000
00000000
00010000
00000000
01000000
,
00000000
00100000
00000000
01000000
00010000
00000000
00000000
00110000
,
00000000
00000000
01000000
00000000
00000000
00011000
00000000
00000000
,
00000100
00000000
00000000
00010010
00000000
00000100
00000000
00001000
,
00000000
00000001
00000000
00001000
00000000
00000010
00000000
00000100
,
00000000
00000010
00001000
00000000
00000000
00001010
00000000
00000000
,
00000100
00000000
00000000
00011000
00000000
00000000
01000000
00000000
,
00000000
00101000
00000000
01000000
00000000
00010000
00000000
10000000
,
00000000
00010000
00000000
00100000
00000000
01000000
00000000
00100000
,
00020000
00000000
00000000
00000000
,
00000000
00000000
00000000
00000000
00000000
00000000
00000000
01030000
,
00010000
00000000
00100000
00001000
00000000
00010000
00000010
00000000
,
00001000
00000100
00000000
00010000
00000000
00000010
00002000
00000000
,
00000000
00000000
00000000
00000000
,
00000000
00000000
00000000
00000000
00000000
00003100
00001000
00000000
,
00000010
00010000
00000000
00001000
00100000
00000000
00010000
01000000
,
00000000
00001000
00000000
00100000
00020000
00000000
00000000
00000000
,
00000000
00000000
00000000
00000000
,
00000000
00000000
00000000
00130000
00010000
00000000
01000000
00001000
,
00000000
00010000
00000100
00000000
00001000
00000010
00000000
00010000
,
00000000
00000010
00002000
00000000
00000000
00000000
00000000
00000000
,
00000000
00000000
00000000
00000000
,
00000000
00003010
00001000
00000000
00000100
00010000
00000000
00001000
,
01000000
00000000
00010000
00100000
00000000
00001000
00000000
01000000
,
00010000
00000000
00010000
00000000
,
00010000
00000000
00000000
00000000
00010000
00000000
00000000
00100000
,
00001000
00000000
00000000
00001000
00000000
00000000
00000000
00001000
,
00000000
00000000
00000000
00001000
00000000
00000000
00001000
00010000
,
00000000
00000100
00001000
00000100
00000000
00000010
00000001
00000010
,
00000000
00000100
00000000
00010000
00001000
01000000
00000000
01000000
,
00010000
00000000
00010000
10000000
00000000
10000000
01000000
00000000
,
01000000
00010000
00000000
00010000
00001000
00000000
00000000
00011000
,
00000000
00000000
00010100
00000000
,
00000000
00001010
00000000
00000000
00000000
00000000
00000101
00000000
,
00000000
00000011
00000000
00000000
00000000
00000000
00000110
00000000
,
00000000
00000000
00000000
00010100
00000000
00000000
00011000
00000000
,
00000000
00101000
00000000
00000000
00000000
00000000
10000000
00000000
,
00000000
00010000
00000000
00000000
00001000
00000000
00000000
00000001
,
00000000
00000000
00000000
00000000
00000110
00000000
00000000
00000001
,
00001000
00000000
00000010
00001000
00000000
00000000
00000000
00000000
,
00010100
00000000
00000000
00000000
00000000
01001000
00000000
00000000
,
00000000
00000000
10010000
00000000
00000000
01000000
00000000
00100000
,
00000000
00000000
00011000
00000000
00000000
00000000
00000000
00010100
,
00000000
00000000
00001100
00000000
00000000
00000001
00000010
00000000
,
00000000
00000000
00000001
00000000
00000000
00001000
00000000
00000000
,
00010000
00000000
00000000
10000000
00000000
00100000
00000000
00000000
,
01100000
00000000
00000000
00000000
10000000
00010000
10000000
00010000
,
00000000
00000000
11000000
00000000
,
00000000
00110000
00000000
00000000
00000000
00000000
00001000
00010000
,
00001000
00010000
00000000
00000100
00000000
00000000
00001000
00000001
,
00000000
00000000
00000000
00000100
00001000
00000000
00001000
00010000
,
00000000
00010000
00100000
00000000
00000000
00000000
01000000
00010000
,
00000000
00010000
10000000
00000000
10000000
01000000
00000000
01000000
,
00100000
00010000
00000000
00000000
01000000
00000000
01000000
00001000
,
00010000
00000000
00010000
00001000
00000000
00000000
00000000
00000000
,
00000110
00000000
00000000
00000000
00000000
00001001
00000000
00000000
,
00000000
00000000
00000001
00000100
00000010
00001000
00000000
00000001
,
00000000
00000000
00001010
00000000
00000000
00000000
00000000
00001000
,
00000100
00000000
00000100
00010000
00000000
00010000
00001000
00000000
,
00000000
00000000
01000000
00010000
00000000
00100000
00001000
00000000
,
00010000
00000010
00000000
00001000
00000100
00001000
00000000
00000000
,
00000010
00000000
00000100
00000000
00000001
00000010
00000000
00000001
,
00000010
00000000
00000100
00001000
00000100
00000000
00010000
00000000
,
00001000
01000000
00000000
00001000
01000000
00000000
00010000
10000000
,
00000000
10000000
01000000
00000000
00100000
00000000
00100000
00001000
,
00010000
00000000
00001000
00010000
00000010
00000000
00001000
00000010
,
00000000
00000010
00000100
00000000
00000001
00000000
00001000
00000100
,
00000000
00000100
00010000
00000000
00001000
01000000
00000000
01000000
,
00010000
00000000
00100000
01000000
00000000
10000000
01000000
00000000
,
01100000
00000000
00100000
00010000
10000000
00000000
00010000
00000000
,
01000000
00000000
00001000
00000000
00010000
00000100
00000000
00000100
,
00001000
00000000
00001000
00000001
00000000
00000001
00000100
00000000
,
00000010
00001000
00000010
00001000
00000001
00000000
00000010
00000000
,
00000100
00000000
00010000
00001000
00000000
00001000
01000000
00000000
,
00010000
00000000
10000000
01000000
00100000
00010000
01000000
00000000
,
00001000
00010000
00000000
00010000
00000000
00010000
00000000
00000100
,
00001000
00000000
00000001
00000100
00000010
00000000
00001000
00000000
,
00010000
00000000
01000000
00010000
10000000
00000000
01000000
00000000
,
00100000
00010000
00100000
00001000
00010000
00000000
00000010
00001000
,
00000000
00001000
00000100
00000000
00000100
00000010
00000001
00000010
,
00000100
00001000
00000100
00010000
00001000
00000000
00001000
01000000
,
00000000
01000000
00010000
00000000
10000000
00000000
01000000
00100000
,
00010000
00100000
00001000
00000000
00010000
00000010
00000000
00000010
,
00001000
00000001
00000000
00000001
00000010
00000100
00001000
00000000
,
00000010
00001000
00000000
00000001
00000100
00000000
00000000
00000000
,
00001000
00010000
00000000
00000000
00000000
01000000
00100000
00000000
,
00000000
00000000
00010000
01000000
00000000
00100000
10000000
00000000
,
00000000
00000000
01000000
00010000
00000000
00000000
00000000
00001000
,
00010000
00000000
00000100
00001000
00000000
00000010
00000100
00000000
,
00000000
00000000
00000001
00000010
00000000
00001000
00010000
00000000
,
00000010
00000100
00000000
00000001
00000010
00000000
00000000
00000000
,
00001000
00010000
00000000
00010000
00100000
00000000
00000000
01100000
,
00000000
00000000
10000000
00000000
00000000
10010000
00000000
00000000
,
00100000
00000000
00000000
00012000
00000000
01000000
00000000
01000000
,
00000000
01000000
00000000
01000000
00000000
01003000
00000000
00001000
,
00010000
00001000
00010000
00000000
00000000
00001010
00000000
00000000
,
00000100
00000000
00000000
00001100
00000000
00000000
00000010
00000000
,
00000000
00021000
00000000
00000100
00000000
00000100
00000000
00000100
,
00000000
00000100
00000000
00030100
00000000
00010000
00001000
00010000
,
00001000
00000000
00000000
01010000
00000000
00000000
00100000
00000000
,
00000000
00110000
00000000
00000000
01000000
00000000
00000000
00012000
,
00000000
00100000
00000000
00100000
00000000
00100000
00000000
00100000
,
00000000
00103000
00000000
00001000
00010000
00001000
00010000
00000000
,
00000000
00010000
00000000
00000000
00100000
00000000
00000000
00100000
,
00000000
00000000
10000000
00000000
00000000
10010000
00000000
10000000
,
00000000
01000000
00000000
00010000
00000000
00001000
00000000
00000100
,
00000000
00000001
00000000
00000000
00002002
00000000
00000000
00000000
,
00000000
00000000
00000000
00000000
,
00000000
00000000
00000000
00000000
,
00000000
00000000
00000000
00000000
00000000
00000000
00000000
00000000
00000000
00000000
00000000
00000000
00000000
00000000
00000000
00000000
00000000
00000000
00000000
00000000
00000000
00000000
00000000
00000000
00000000
00003003
00000000
00000000
00000000
00000000
00000000
00000000
,
00000000
00002000
00000000
00000000
,
00000000
00000000
00000000
00000000
,
00000000
00003020
00000000
00000000
00000000
00000000
00000000
00000000
,
00000000
00000000
00000000
00000000
,
00020030
00000000
00000000
00000000
,
00000000
00000000
00000000
00000000
,
00032000
00000000
00000000
00000000
,
00000000
00203000
00000000
00000000
00000000
00000000
00320000
00000000
,
00000000
00000000
00000000
00000000
,
00000000
00000000
00000000
00000000
00000000
20000000
00000000
00000000
,
00000000
00000000
00000000
00000000
,
30030000
00000000
00000000
00000000
11000000
00000000
00000000
01010000
,
00000000
00000000
00011000
00000000
00000000
00001100
00000000
00000000
,
00000001
00000100
00000001
00000010
00000000
00000000
00001010
00000000
,
00000000
00011000
00000000
00000000
00110000
00000000
00000000
10000000
,
00100000
10000000
01000000
00000000
00000000
01010000
00000000
00000000
,
00011000
00000000
00000000
00001010
00000000
00000000
00000001
00000010
,
00000001
00000100
00000000
00000000
00001100
00000000
00000000
00011000
,
00000000
00000000
00110000
00000000
00000000
10000000
00100000
10000000
,
02000000
00000000
00000000
03200000
00000000
00000000
00302000
00000000
,
00000000
00023000
00000000
00000000
00030010
00000000
00001000
00000002
,
00000000
00000000
00000023
00000000
00000000
00000230
00000000
00000000
,
00020300
00000000
00000000
00032000
00000000
00000000
01003000
00010000
,
01000000
00000000
00100000
10000000
00000000
10000000
01000000
00000000
,
01000000
00100000
00010000
00100000
00001000
00010000
00000000
00000000
,
00001100
00000000
00000000
00010010
00000000
00000000
00101000
00000000
,
00000000
01010000
00000000
00000000
20020000
00000000
00000000
00000000
,
00000000
00000000
30030000
00000000
10000000
01000000
00100000
00010000
,
01000000
00000000
00000000
00011000
00000000
00000000
00000100
00001000
,
00000000
00000000
00000001
00000100
00000000
00000010
00001000
00000010
,
00010000
00001000
00010000
00000000
00000100
00001000
00000100
00001000
,
00000100
00020000
00000000
00032000
,
00000000
01003000
00010000
01000000
00100000
00000000
00000000
20000000
,
00000000
00000000
00000000
00000000
00000000
00000000
31000000
00000000
00000000
00000000
00010000
00000000
00000000
00001000
00000000
00000000
,
00100000
00010000
00000000
00100000
00001000
00000000
00010000
00000100
,
00000000
00001000
00000100
00000000
00010000
00001000
00010000
00000010
,
00001000
00000000
00000010
00010000
00000000
00001000
01000000
00000000
,
00010000
01000000
00000000
00001000
00010000
00001000
00100000
00010000
,
00000000
01000000
00001000
00000000
00010000
00000100
00000000
00001000
,
00000010
00000000
00010000
00001000
00010000
00000010
00001000
00000000
,
00000100
00010000
00000000
00001000
01000000
00000000
00010000
00100000
,
00000000
00001000
00010000
00001000
01000000
00010000
00100000
00001000
,
00000000
00001000
01000000
00010000
00100000
00001000
00000000
00001000
,
01000000
00010000
00100000
00001000
00000000
00010000
00000000
00010000
,
00000000
00010000
00000000
00010000
00000000
00010000
00000000
00010000
,
00001000
00010000
00000100
00001000
00000010
00010000
00000000
00010000
,
00000100
00001000
00000010
00010000
00000000
00010000
00000100
00001000
,
00000010
00010000
00000000
00001000
00000000
00001000
00000000
00001000
,
00000000
00001000
00000000
00001000
00000000
00010000
00001000
00010000
,
00100000
00010000
01000000
00001000
00000000
00001000
00100000
00010000
,
01000000
00001000
00000000
00001000
00100000
00010000
01000000
00001000
,
00000000
00010000
00000000
00010000
00000000
00010000
00000000
00010000
,
00000000
00010000
00000000
00010000
00001000
00010000
00000010
00001000
,
00000100
00010000
00000000
00010000
00000010
00001000
00000100
00010000
,
00000000
00010000
00000010
00001000
00000100
00010000
00000000
00001000
,
00000000
00001000
00000000
00001000
00000000
00001000
00000000
00001000
,
00000000
00001000
00010000
00001000
02000000
00000000
00000000
00000000
,
00000000
03200000
00000000
00000000
,
00000000
00000000
00000000
00000000
,
00000000
00000000
00000000
00000000
,
00000000
00300000
00000000
00000000
;

//---------------dance-double - forcednature-CDP----------------
#NOTES:
     dance-double:
     forcednature:
     Challenge:
     18:
     :
00000000
00000000
00000000
00000000
,
00000000
00000000
00000000
00000000
,
00000000
00000000
00000000
00000000
,
00000000
00000000
00000000
00000000
,
00000000
00000000
00000000
00000000
,
00000000
00000000
00000000
00000000
,
00000000
00000000
00000000
00000000
,
00000000
00000000
00000000
00000000
00001000
00010000
00000000
00001100
,
00000000
00000000
00010000
00001000
00000000
01010000
00000000
00000000
,
00001000
00010000
00000000
00001100
00000000
00000001
00000000
00000100
,
00000000
00001000
00000000
00010000
00000000
01000000
00000000
10000000
,
00010000
00100000
00001000
00010000
00000000
00001010
00000000
00000000
,
00010000
00001000
00000000
00110000
00000000
00000000
00001000
00010000
,
00000000
00001010
00000000
00000001
00000000
00000010
00000000
00001000
,
00000000
00010000
00000000
00100000
00000000
10000000
00010000
00100000
,
01000000
00100000
00001000
00020000
00000000
00030000
01000000
00100000
,
00001000
00020000
00000000
00030000
01000000
00100000
00001000
00020000
,
00000000
00030010
00000000
00001000
00000000
00010000
00000000
01000000
,
00000000
00100000
00000000
10000000
01000000
00100000
00001000
00010000
,
00000100
00000020
00000000
00000030
00001000
00010000
00000100
00000020
,
00000000
00000030
00001000
00010000
00000100
00000020
00000000
00000031
,
00000000
00000100
00000000
00000010
00000000
00001000
00000000
00010000
,
00000000
01000000
00010000
10000000
01000000
00010000
00001000
00200000
,
00000000
00300000
01000000
00010000
00001000
00200000
00000000
00300000
,
01000000
00010000
00001000
00200000
00000000
00310000
00000000
00001000
,
00000000
00000100
00000000
00000010
00000000
00000001
00000000
00000100
,
00001000
00010000
00001000
00000010
00000100
00020000
00000000
00030000
,
00001000
00000010
00000100
00020000
00000000
00030000
00001000
00000010
,
00000100
00020000
00000000
00031000
00000000
00100000
00000000
01000000
,
00000000
00010000
00000000
00001000
00000000
00000100
00000001
00001000
,
00000020
00000000
00000000
00000000
,
00000000
00000000
00000000
00000000
00000000
00000000
00000000
00000130
,
00000010
00000100
00001000
00010000
00001000
01000000
00010000
10000000
,
00100000
10000000
01000000
00010000
00001000
00010000
00000020
00000000
,
00000000
00000000
00000000
00000000
,
00000000
00000000
00000000
00000000
00000000
00001030
00000010
00010000
,
00001000
00010000
00100000
01000000
00100000
10000000
00010000
10000000
,
01000000
00010000
00001000
00100000
00020000
00000000
00000000
00000000
,
00000000
00000000
00000000
00000000
,
00000000
00000000
00000000
01030000
00010000
00100000
00001000
00010000
,
00100000
00010000
00001000
01000000
00001000
00010000
00000100
00001000
,
00000100
00010000
00000020
00000000
00000000
00000000
00000000
00000000
,
00000000
00000000
00000000
00000000
,
00000000
00010030
00000010
00001000
00000100
00000010
00000100
00010000
,
00001000
01000000
00010000
00100000
01000000
10000000
01000000
00010000
,
00001000
00000000
00000000
00000000
01000000
00010000
00100000
00001000
,
00010000
00000010
00001000
00000100
00010000
00001000
01000000
00010000
,
00100000
00001000
00010000
00000010
00001000
00000100
00010000
00001000
,
01000000
00010000
00100000
00001000
00010000
00000010
00001000
00000000
,
00000100
00000010
00000100
00001000
00000100
00010000
00001000
01000000
,
00010000
01000000
00100000
10000000
01000000
00100000
00000000
00100000
,
00010000
00000000
00010000
00001000
00000000
00001000
00000100
00000000
,
00000100
00000010
00000000
00000001
00001000
00000000
00000000
00000110
,
00000000
00000000
00011000
00000000
,
00000000
01100000
00000000
00000000
00000000
00000000
10100000
00000000
,
00000000
01010000
00000000
00000000
00000000
00000000
10010000
00000000
,
00000000
00000000
00000000
11000000
00000000
00000000
00101000
00000000
,
00000000
00010100
00000000
00000000
00000000
00000000
00001010
00000000
,
00000000
00010100
00000000
00000000
01001000
00000000
00000000
00110000
,
00000000
00000000
00000000
00000000
00011000
00000000
00000000
00000100
,
00001000
00000100
00000010
00000001
00000000
00000000
00000000
00000000
,
00000101
00000000
00000000
00000000
00000000
00010010
00000000
00000000
,
00000000
00000000
00101000
00000000
00000000
01010000
00000000
10000000
,
00000000
00000000
01100000
00000000
00000000
00000000
00000000
00011000
,
00000000
00000000
00010100
00000000
00000000
00000001
00000010
00000000
,
00000000
00000000
00010100
00000000
00000000
00101000
00000000
00000000
,
00010010
00000000
00000000
01001000
00000000
00100000
00000000
00000000
,
10010000
00000000
00000000
10000000
01000000
00010000
00001000
00010000
,
00000000
00000000
00000000
00000000
00000100
00001000
00000000
00000000
,
00000000
00000010
00010000
00000000
00000000
00000000
00001000
00000010
,
00000001
00000010
00000000
00000110
00000000
00000000
00000100
00010000
,
00000000
00000000
00000000
00001000
01000000
00010000
00100000
00010000
,
01000000
00001000
00010000
00000000
00000000
00000000
00000100
00001000
,
00000010
00010000
00001000
00000010
00000100
00001000
00000010
00010000
,
00000000
00011000
00000000
00000000
00001000
00010000
00100000
01000000
,
00100000
10000000
00010000
10000000
00000000
00000000
00000000
00000000
,
11000000
00000000
00000000
00000000
00000000
00110000
00000000
00000000
,
00000000
00000000
00100000
00001000
00010000
00001000
00000000
01010000
,
00000000
00000000
00001000
00010000
00000000
00000000
00000000
00000100
,
00001000
00000001
00000100
00000001
00001000
00000100
00000010
00000000
,
00000000
00000000
00000001
00000100
00001000
00010000
00001000
00000100
,
00000001
00000100
00001000
00010000
00001000
00100000
00000000
00000000
,
00010000
01000000
00010000
00100000
02000000
13000000
01000000
00100000
,
00010000
01000000
00001000
00010000
00000100
00001000
00000010
00010000
,
00001000
00000010
00000001
00001000
00000001
00000100
00000010
00001000
,
00000010
00010000
00001000
00100000
00010000
00100000
01000000
00010000
,
00001000
00010000
00000100
00001000
00000010
00001000
00000001
00000010
,
00000100
00010000
00001000
00000100
00001000
00010000
00001000
01000000
,
00010000
10000000
00010000
00100000
01000000
10000000
01000000
00010000
,
00001000
00100000
00010000
01000000
00100000
00010000
00001000
00010000
,
00000200
00001300
00000010
00001000
00000100
00000010
00000001
00000100
,
00000001
00000010
00001000
00010000
00000100
00001000
00000010
00010000
,
00001000
00100000
00001000
00010000
00100000
01000000
00100000
10000000
,
00010000
10000000
01000000
00100000
10000000
00100000
00010000
01000000
,
00001000
00010000
00100000
00010000
00001000
01000000
00010000
00100000
,
00001000
00010000
00000010
00010000
00001000
00000010
00000100
00001000
,
00000010
00000100
00000001
00000010
00000100
00000001
00000100
00001000
,
00000010
00010000
00001000
01000000
00020000
00130000
00010000
01000000
,
00100000
00010000
00001000
00010000
00000100
00001000
00000010
00010000
,
00001000
00000010
00000001
00001000
00000001
00000100
00000010
00001000
,
00010000
01000000
00010000
00100000
01000000
10000000
01000000
00010000
,
00001000
00100000
00010000
01000000
00100000
10000000
00010000
01000000
,
00001000
00010000
00000100
00001000
00000010
00010000
00001000
00000010
,
00000100
00000010
00000001
00001000
00000001
00000100
00000010
00001000
,
00000100
00000010
00001000
00010000
00001000
01000000
00100000
00010000
,
00100000
10000000
00000000
01000000
00010000
00000000
00000000
00000000
,
00001000
00000010
00000000
00000000
00000000
00000001
00000100
00000000
,
00000000
00000000
00001000
00010000
00000000
00100000
01000000
00000000
,
00000000
00000000
00010000
00100000
00000000
00000000
00000000
01000000
,
00010000
00000000
00001000
00010000
00000000
00001000
00000010
00000000
,
00000000
00000000
00000001
00000100
00000000
00000010
00001000
00000000
,
00010000
00100000
00000000
01000000
10000000
00000000
00000000
00000000
,
00100000
01000000
00000000
00010000
10000000
01000000
00010000
00001000
,
00010000
01000000
10000000
01000000
00010000
00001000
00010000
01000000
,
10000000
01000000
00010000
00001000
00000010
00000100
00001000
00000100
,
00000010
00000100
00001000
00000100
00000010
00000100
00001000
00000100
,
00000010
00000001
00001000
00000010
00010000
00000010
00001000
00000100
,
00001000
00000010
00010000
00000010
00001000
00000100
00001000
00000010
,
00010000
00000010
00000100
00001000
00010000
00001000
00000100
00001000
,
00010000
00001000
00000100
00001000
00010000
00001000
01000000
00010000
,
10000000
00100000
00010000
00001000
00010000
00100000
10000000
00100000
,
00010000
00001000
00010000
00100000
10000000
00100000
00010000
00001000
,
00010000
00000100
00000010
00000100
00000001
00000100
00000010
00000001
,
00000010
00000100
00000010
00000001
00000010
00000100
00010000
00000000
,
00000000
00011000
00000000
00000000
00100000
00000000
00000000
00011000
,
00000000
00000000
00000010
00000000
00000000
00011000
00000000
01000000
,
00000000
00001000
00000000
00010000
00000000
00000100
00000000
00000010
,
00000000
00000001
00000100
00001000
00020000
00000000
00000000
00000000
,
00000000
00000000
00000000
00000000
,
00000000
00000000
00000000
00000000
,
00000000
00000000
00000000
00000000
,
00000000
00000000
00000000
00000000
00000000
00000000
00000000
00000000
00200000
00030000
00000000
00000000
00000000
00000000
00000000
00000000
00000000
00000000
00000000
00000000
00000000
00000000
00000000
00000000
00000000
00000000
00000000
00000000
00000000
00000000
00000000
00000000
,
00000000
00000000
00000000
00000000
,
00000000
20300000
00000000
00000000
00000000
00000000
00000000
00000000
,
00000000
00000000
00000000
00000000
,
32000000
00000000
00000000
00000000
,
00000000
03200000
00000000
00000000
00000000
00000000
00000000
00000000
,
00302000
00000000
00000000
00000000
,
00000000
00023000
00000000
00000000
00000000
00000000
00030020
00000000
,
00000000
00000000
00000000
00000000
,
00000000
00000000
00000000
00000000
00000000
00002000
00000000
00000000
,
00000000
00000000
00000000
00000000
,
00003030
00000000
00000000
00000000
00000101
00000000
00000000
00010010
,
00000000
00000000
00101000
00000000
00000000
11000000
00000000
00000000
,
10000000
00100000
00010000
00001000
00000000
00000000
00010100
00000000
,
00000000
01001000
00000000
00000000
00010010
00000000
00000000
00000010
,
00001000
00000001
00000010
00000000
00000000
00010100
00000000
00000000
,
00101000
00000000
00000000
01010000
00000000
00000000
10000000
00100000
,
01000000
00001000
00000000
00000000
00010100
00000000
00000000
00001001
,
00000000
00000000
00010010
00000000
00000000
01000000
00010000
00100000
,
01000000
00000000
00010000
00001000
00000000
00001000
00000010
00000000
,
00000010
00000100
00000000
00000100
00001000
00000001
00001000
00000010
,
00000000
00000010
00000100
00000000
00000100
00001000
00000000
00001000
,
00010000
00100000
01000000
00010000
00000000
00010000
00100000
01000000
,
10000000
00000000
10000000
00100000
00000000
00100000
00010000
00000000
,
00010000
00001000
00000010
00000100
00001000
00000002
00000000
00000000
,
00000203
00000000
00000000
00020300
00000000
00000000
00230000
00000000
,
00000000
01300000
00000000
00000000
20020000
00000000
00000000
00000000
,
00000000
00000000
30030000
00000000
00010000
00100000
10000000
00100000
,
01000000
00000000
00100000
00001000
00000000
00010000
00000010
00001000
,
00000100
00000010
00001000
00000010
00000001
00001000
00000001
00000100
,
00001000
00010000
00001000
00000000
01000000
00010000
00100000
01000000
,
00010000
00001000
00020000
00000000
00000000
00030010
00001000
00000100
,
00000010
00001000
00000010
00000001
00001000
00000001
00000200
00000000
,
00000000
00000000
00000000
00000000
00000000
00000000
00001300
00000000
00000000
00000000
00010000
00000000
00000000
00100000
00000000
00000000
,
02000000
03010000
10000000
00010000
00100000
01000000
00010000
00001000
,
00000010
00000100
00001000
00000010
00000100
00000001
00000010
00000200
,
00001300
00000001
00001000
00000010
00000100
00001000
00010000
00100000
,
01000000
00010000
00100000
01000000
10000000
00100000
02000000
13000000
,
01000000
00010000
00100000
01000000
00010000
00001000
00000100
00000010
,
00001000
00000001
00000010
00001000
00000010
00000200
00000301
00000100
,
00001000
00000001
00000100
00001000
00010000
01000000
10000000
00100000
,
00010000
00100000
10000000
01000000
00010000
00001000
00100000
01000000
,
00000000
01000000
00010000
00001000
00100000
01000000
00000000
01000000
,
00010000
00001000
00100000
01000000
00000000
01100000
00000000
00101000
,
00000000
00011000
00000000
00010010
00000000
00000110
00000000
00000100
,
00001000
00010000
00000100
00010000
00001000
00000010
00000000
00000010
,
00000100
00010000
00001000
00000010
00000000
00000010
00000100
00010000
,
00001000
00000010
00000000
00000110
00000000
00010100
00000000
00011000
,
00000000
01001000
00000000
01100000
00000000
00100000
10000000
00010000
,
00100000
01000000
00010000
00001000
00000000
00001000
00100000
01000000
,
00010000
00001000
00000000
00001000
00100000
01000000
00010000
00001000
,
00000000
01010000
00000000
00101000
00000000
00010010
00000000
00001100
,
00000000
00001001
00000000
00000001
00000100
00000010
00010000
00001000
,
00000010
00000100
00000000
00000100
00010000
00001000
00000010
00000100
,
00000000
00000100
00010000
00001000
00000010
00000100
00000000
00000110
,
00000000
00011000
00000000
01100000
00000000
00011000
00000000
00000110
,
00000000
00000001
00000100
00001000
00020000
00000000
00000000
00000000
,
00000000
00230000
00000000
00000000
,
00000000
00000000
00000000
00000000
,
00000000
00000000
00000000
00000000
,
00000000
00300000
00000000
00000000
;
