#TITLE:ALFARSHEAR 双神威に廻る夢;
#ARTIST:TËЯRA;
#TITLETRANSLIT:ALFARSHEAR Futatsukamui ni mawaru yume;
#ARTISTTRANSLIT:TERRA;
#BANNER:ALFARSHEAR Futatsukamui ni mawaru yume.png;
#BACKGROUND:ALFARSHEAR Futatsukamui ni mawaru yume-bg.png;
#MUSIC:ALFARSHEAR Futatsukamui ni mawaru yume.ogg;
#OFFSET:1.371765;
#SAMPLESTART:39.569;
#SAMPLELENGTH:15;
#BPMS:0=170,231=85,246=170;
#BGCHANGES:1=ALFARSHEAR Futatsukamui ni mawaru yume.avi=1=0=0=0=StretchNoLoop====,99999=-nosongbg-=1=0=0=0 // don't automatically add -songbackground-;

//---------------dance-single - NewbStepper-ESP----------------
#NOTES:
     dance-single:
     NewbStepper:
     Hard:
     13:
     0.546387,0.704328,0.247582,0.350029,0.290268,448,419,29,41,0,0,0.546387,0.704328,0.247582,0.350029,0.290268,448,419,29,41,0,0:
0000
0000
0000
0000
,
0000
0000
0000
0000
,
0000
0000
0000
0000
,
0000
0000
0000
0000
,
0000
0000
0000
0000
,
0100
0000
0100
0000
0100
0000
0100
0001
,
2000
3200
0320
0032
,
0103
0000
0010
1000
0100
0000
0001
0000
,
1000
0010
0001
0000
0100
0000
0010
1000
,
0100
0000
0100
0000
0100
0000
0100
1000
,
0002
0203
0320
2030
,
3200
0010
0010
0310
,
2002
0000
0000
3003
,
0011
0000
1000
0010
0000
0001
0100
0100
,
0020
2030
3200
0320
,
0032
0000
0100
0200
0000
0000
0303
0000
,
0010
0000
1000
0000
0100
0000
0010
0001
,
0100
0000
0010
0010
0000
1000
0001
0001
,
0200
0320
2030
3002
,
0023
0000
0000
0100
0130
0000
0000
0000
,
2000
0000
3200
0000
0310
0001
0100
0001
,
1000
0100
0001
0100
0000
0010
1000
0010
,
0001
0100
0010
1000
0000
0001
0100
1000
,
1100
0101
0110
1001
,
0010
1000
0100
0010
0001
0000
1000
0010
,
0100
0010
0001
0010
1000
0001
0100
0010
,
0100
1000
0100
0001
1000
0010
0001
0010
,
0110
1001
0011
1100
,
0220
0000
0000
0330
,
1000
0000
0000
1000
0100
0000
0000
0100
0010
0000
0000
0010
0001
0000
0000
0001
,
0100
1000
0100
0010
0100
0000
1001
0000
,
0010
0000
0000
0010
1000
0000
0000
1000
0100
0000
0000
0100
0010
0000
0000
0010
,
1000
0010
0001
1000
0010
0000
0110
0000
,
0002
0000
0103
0020
0000
1030
0020
0000
,
0031
0010
1000
0100
0001
0100
1000
0100
,
0020
1000
0001
0130
,
0110
0000
0000
0000
0001
0010
0100
1000
,
0001
0000
0000
0001
0100
0000
0000
0100
0010
0000
0000
0010
1000
0000
0000
1000
,
0100
0001
0100
0010
0100
0000
1001
0000
,
0010
0000
0000
0010
0001
0000
0000
0001
0100
0000
0000
0100
0010
0000
0000
0010
,
0001
0010
1000
0001
0010
0000
0110
0000
,
1000
0100
0010
0001
0100
1000
0001
0010
,
1000
0100
0010
0001
1000
0010
0001
1000
,
0100
0001
0010
0010
1000
0010
0010
0001
,
0200
0001
1000
0301
,
0011
0001
0100
1000
0100
0001
0010
0000
,
0001
0100
1000
0100
0010
0000
1000
0100
,
0001
0100
0010
0000
0001
0010
1000
0010
,
0100
0000
1000
0010
0001
0010
0100
0000
,
0001
0100
0010
0100
1000
0100
0001
0010
,
0100
1000
1010
0000
0110
0000
0101
0000
,
0010
0000
0000
0010
1000
0000
0000
1000
0100
0000
0000
0100
0001
0000
0000
0001
,
1000
0000
0000
1000
0001
0000
0000
0001
0100
0000
0000
0100
1000
0000
0000
1000
,
0010
0000
0000
0010
0001
0000
0000
0001
1000
0000
0000
1000
0001
0000
0000
0001
,
0010
0000
0000
0010
1000
0000
0000
1000
0100
0000
0000
0100
0001
0000
0000
0001
,
1000
0000
0000
1000
0010
0000
0000
0010
0001
0000
0000
0001
0100
0000
0000
0100
,
0010
0000
0000
1000
0100
0000
0000
0010
0001
0000
0000
0100
1000
0000
0000
0100
,
0020
0000
0000
0000
0030
0000
1000
0100
,
0010
0001
0201
0000
0310
0000
0001
0100
,
0010
0000
1000
0000
1200
0000
0000
0000
0310
0000
0000
0000
0001
0000
0000
0100
,
0000
1000
0100
0000
0001
0010
0011
0000
,
1010
0000
0110
0000
1000
0010
0100
0001
,
1000
0000
0000
1000
0100
0000
0000
0100
0010
0000
0000
0010
0001
0000
0000
0001
,
0100
1000
0100
0010
0100
0000
1001
0000
,
0010
0000
0000
0010
1000
0000
0000
1000
0100
0000
0000
0100
0010
0000
0000
0010
,
1000
0010
0001
1000
0010
0000
0110
0000
,
0001
0100
0010
1000
0100
0001
1000
0010
,
0001
0100
0010
1000
0001
0010
1000
0001
,
0100
1000
0010
0010
0001
0010
0010
1000
,
0200
1000
0001
1300
,
2002
0000
0000
3003
,
0010
0001
0010
0001
0100
0010
0000
1000
0010
1000
0010
0100
,
0000
0001
0010
0001
0010
0100
0000
1000
0100
1000
0100
0010
,
0000
0022
0000
0000
0000
0000
0000
0000
0000
0000
0000
0000
0033
0000
0000
0000
0000
0000
0000
0000
0000
0000
0000
0000
,
0000
0000
0000
0000
0000
0000
0000
0000
0000
0100
0000
0020
0000
0200
0000
0000
0000
0000
0000
0000
0000
0000
0000
0000
,
0330
0000
0000
0000
;

//---------------dance-double - NewbStepper-EDP----------------
#NOTES:
     dance-double:
     NewbStepper:
     Hard:
     13:
     0.531752,0.704328,0.085373,0.281731,0.290268,436,426,10,33,0,0,0.531752,0.704328,0.085373,0.281731,0.290268,436,426,10,33,0,0:
// measure 0
00000000
00000000
00000000
00000000
,  // measure 1
00000000
00000000
00000000
00000000
,  // measure 2
00000000
00000000
00000000
00000000
,  // measure 3
00000000
00000000
00000000
00000000
,  // measure 4
00000000
00000000
00000000
00000000
,  // measure 5
00010000
00000000
00010000
00000000
00010000
00000000
00010000
00001000
,  // measure 6
00000100
00000001
00000010
00000000
00000100
00001000
00000010
00000000
,  // measure 7
00000100
00000100
00000100
00000100
,  // measure 8
00001000
00010000
01000000
00000000
00100000
00000000
00010000
01000000
,  // measure 9
00001000
00000000
00001000
00000000
00001000
00000000
00001000
00010000
,  // measure 10
02000000
23000000
30200000
00320000
,  // measure 11
00031000
00000000
00001000
00000000
00100000
00010000
00000000
00001000
,  // measure 12
00020000
00000000
02000000
03030000
,  // measure 13
00100000
00000000
10000000
01000000
00000000
10000000
00100000
00010000
,  // measure 14
00002000
00000100
00010000
00103000
,  // measure 15
00010000
01000000
00100000
00010000
00002000
00000000
00003020
00000000
,  // measure 16
00001030
00010000
00100000
00000000
00010000
00001000
00000010
00000100
,  // measure 17
00000010
00000000
00000001
00000100
00000000
00000001
00000010
00001000
,  // measure 18
00020000
01000000
00001000
00030010
,  // measure 19
00001000
00000100
00000010
00001000
00020000
00000000
00230000
00000000
,  // measure 20
00310000
00001000
00000010
00000000
00001000
00010000
00100000
10000000
,  // measure 21
01000000
00000000
01100000
00000000
00010000
00001000
00000010
00000001
,  // measure 22
00000100
00000000
00000110
00000000
00010000
00001000
00010000
00000010
,  // measure 23
00001000
00000010
00010000
00001000
00100000
00010000
10000000
01000000
,  // measure 24
00010000
00000000
00001000
00000000
00100000
00010000
00100000
00001000
,  // measure 25
00020000
00000000
00130000
00000000
10000000
01000000
00010000
00001000
,  // measure 26
00000200
00000000
00000300
00000000
00000001
00000010
00001000
00010000
,  // measure 27
00200000
00000000
00000000
20300000
00000000
00000000
31000000
00000000
,  // measure 28
02200000
00000000
00000000
03300000
,  // measure 29
10000000
00000000
00000000
10000000
01000000
00000000
00000000
01000000
00010000
00000000
00000000
00010000
00001000
00000000
00000000
00001000
,  // measure 30
00000010
00001000
00010000
00001000
00000100
00000001
00000010
00000000
,  // measure 31
00000001
00000000
00000000
00000001
00000100
00000000
00000000
00000100
00001000
00000000
00000000
00001000
00010000
00000000
00000000
00010000
,  // measure 32
00100000
00010000
00001000
00010000
01000000
10000000
00100000
00000000
,  // measure 33
10000000
01000000
00010000
00001000
00100000
00010000
01000000
00100000
,  // measure 34
00010000
00001000
00000010
00001000
00010000
00001000
00000100
00000001
,  // measure 35
00002000
00000100
00000001
00000010
,  // measure 36
00023000
00000000
00000000
00030000
10000000
01000000
00100000
00010000
,  // measure 37
00001000
00000000
00000000
00001000
00000010
00000000
00000000
00000010
00010000
00000000
00000000
00010000
00001000
00000000
00000000
00001000
,  // measure 38
00000010
00000001
00000100
00001000
00010000
01000000
10000000
00000000
,  // measure 39
00010000
00000000
00000000
00010000
00100000
00000000
00000000
00100000
00001000
00000000
00000000
00001000
00010000
00000000
00000000
00010000
,  // measure 40
00100000
10000000
01000000
00010000
00001000
00000100
00000001
00000000
,  // measure 41
00001000
00000100
00010000
00000100
00001000
00000010
00010000
00001000
,  // measure 42
00000010
00001000
00010000
00001000
00100000
00001000
00010000
00100000
,  // measure 43
20000000
32000000
03200000
00320000
,  // measure 44
02030000
10000000
00010000
03100000
,  // measure 45
01100000
00000000
01000000
00100000
00010000
00001000
00000100
00000000
,  // measure 46
00000010
00001000
00010000
01000000
00100000
00000000
10000000
01000000
,  // measure 47
00100000
00010000
00001000
00000000
00000010
00000100
00001000
00010000
,  // measure 48
00100000
00000000
01000000
00010000
00001000
00000010
00000100
00000000
,  // measure 49
00000001
00000010
00001000
00010000
,  // measure 50
00100000
10000000
11000000
01100000
,  // measure 51
00110000
00000000
00000000
00010000
01000000
00000000
00000000
01000000
00100000
00000000
00000000
00100000
10000000
00000000
00000000
10000000
,  // measure 52
01000000
00000000
00000000
01000000
00010000
00000000
00000000
00010000
00001000
00000000
00000000
00001000
00000100
00000000
00000000
00000100
,  // measure 53
00000001
00000000
00000000
00000001
00000010
00000000
00000000
00000010
00000100
00000000
00000000
00000100
00001000
00000000
00000000
00001000
,  // measure 54
00000001
00000000
00000000
00000001
00000100
00000000
00000000
00000100
00001000
00000000
00000000
00001000
00010000
00000000
00000000
00010000
,  // measure 55
00100000
00000000
00000000
00100000
10000000
00000000
00000000
10000000
01000000
00000000
00000000
01000000
00010000
00000000
00000000
00010000
,  // measure 56
00001000
00000000
00000000
00001000
00000100
00000000
00000000
00000100
00000010
00000000
00000000
00000010
00010000
00000000
00000000
00000000
,  // measure 57
00022000
00000000
00033000
00001000
,  // measure 58
00000010
00000000
00000001
00000100
00000010
00000000
00010000
00000000
,  // measure 59
00100000
00000000
00000000
00000000
10000000
00000000
01000000
00000000
00100000
00000000
00000000
00000000
00010000
00000000
00000000
10000000
,  // measure 60
00000000
00000000
01000000
00000000
00010000
00000000
00000000
00000000
00001000
00000000
00000010
00000000
00000001
00000000
00000000
00000100
,  // measure 61
00000000
00000010
00001000
00000000
00000001
00000100
00000010
00001000
,  // measure 62
00010000
00000000
00000000
00010000
00100000
00000000
00000000
00100000
00001000
00000000
00000000
00001000
00010000
00000000
00000000
00010000
,  // measure 63
00100000
10000000
01000000
00010000
00001000
00000100
00000001
00000000
,  // measure 64
00001000
00000000
00000000
00001000
00000010
00000000
00000000
00000010
00010000
00000000
00000000
00010000
00001000
00000000
00000000
00001000
,  // measure 65
00000010
00000001
00000100
00001000
00010000
01000000
10000000
00000000
,  // measure 66
00010000
01000000
00001000
01000000
00010000
00100000
00001000
00010000
,  // measure 67
00100000
00010000
00001000
00010000
00000010
00010000
00001000
00000010
,  // measure 68
00000001
00000100
00001000
00010000
01000000
10000000
00100000
00010000
,  // measure 69
00001000
00000010
00000001
00000100
00000010
00001000
00000100
00000000
,  // measure 70
00000220
00000000
00000000
00000330
,  // measure 71
00001000
00000001
00000100
00000001
00000100
00000010
00000000
00001000
00000100
00001000
00000100
00010000
,  // measure 72
00000000
00001000
01000000
00001000
01000000
00010000
00000000
10000000
01000000
10000000
01000000
00100000
,  // measure 73
00000000
02200000
00000000
00000000
00000000
00000000
00000000
00000000
00000000
00000000
00000000
00000000
00000000
00000000
00000000
00000000
00000000
00000000
00000000
00000000
00000000
00000000
00000000
00000000
,  // measure 74
03300000
00000000
00000000
00000000
00000000
00000000
00000000
00000000
00000000
10000000
00000000
00020000
00000000
20000000
00000000
00000000
00000000
00000000
00000000
00000000
00000000
00000000
00000000
00000000
,  // measure 75
30030000
00000000
00000000
00000000
;

//---------------dance-single - NewbStepper-DSP----------------
#NOTES:
     dance-single:
     NewbStepper:
     Medium:
     9:
     0.357347,0.444473,0.204895,0.350029,0.068298,293,269,24,41,0,0,0.357347,0.444473,0.204895,0.350029,0.068298,293,269,24,41,0,0:
0000
0000
0000
0000
,
0000
0000
0000
0000
,
0000
0000
0000
0000
,
0000
0000
0000
0000
,
0000
0000
0000
0000
,
0001
0000
1000
0100
,
0010
0001
0100
0010
,
1020
0000
0100
0200
0000
0000
0330
0000
,
1000
0100
0001
0100
,
1000
0000
0001
0100
,
0010
1000
0100
0010
,
0021
0000
0100
0000
0031
0100
0000
1000
,
0200
0000
0300
0000
,
0001
0000
0010
0001
0010
0000
0100
0000
,
0010
1000
0010
0000
0001
0000
0100
0000
,
0010
0000
1000
2000
0000
0000
3000
0000
,
0101
1100
0101
1100
,
1000
0000
0010
1000
0010
0000
0100
0000
,
0010
0001
0010
0000
1000
0000
0100
0000
,
0010
0000
0000
0002
2000
0000
3003
0000
,
1100
0101
1100
0010
,
0001
0200
0000
0000
0300
1000
0100
1000
,
0200
0000
0000
0000
0300
0001
0010
0001
,
0010
0000
0000
0001
0000
0000
1000
0000
,
0200
0000
0000
0000
0300
0010
0000
0001
,
0200
0000
0000
0000
0300
0001
0000
1000
,
0200
0000
0000
0000
0300
1000
0001
1000
,
0100
0010
0100
0010
,
1001
0000
0000
0000
,
0001
0100
1000
0100
,
0002
0000
0000
0010
0013
0000
1001
0000
,
1000
0010
0001
0010
,
2000
0000
0000
0100
3100
0000
1001
0000
,
0001
0101
1000
1100
,
0020
0000
0000
0000
0030
0001
0100
0010
,
1000
0010
0001
0100
,
1000
0000
0000
0000
0001
1000
0001
0000
,
1000
0100
0001
0100
,
2000
0000
0000
0010
3010
0000
1001
0000
,
0001
0010
1000
0010
,
0002
0000
0000
0100
0103
0000
0010
0000
,
1000
0000
0000
1000
0000
0000
1000
0000
0001
0000
0000
0001
0000
0000
0001
0000
,
0100
0000
0000
0100
0000
0000
0100
0000
0010
0000
0000
0010
0000
0000
0010
0000
,
1000
0100
0010
0001
,
2002
0000
0000
3003
,
0020
0000
0030
0001
0100
0001
0020
0000
,
0030
1000
0010
0100
0020
0000
0030
1000
,
0001
0100
2000
0000
3000
0100
0001
0100
,
0020
0000
0030
0001
1000
0010
0200
0000
,
0300
0001
1000
0100
0020
0000
0030
0001
,
0100
0010
1000
0000
0100
0000
0010
0000
,
0001
0000
0010
0000
0001
0100
0001
0000
,
1000
0000
0010
0000
1000
0100
1000
0000
,
0001
0000
0100
0010
0100
0000
1000
0000
,
0100
0010
0100
0000
0001
0000
1000
0100
,
1000
0000
0100
0000
0001
0100
0001
0000
,
0100
1010
0100
0011
,
0220
0000
0330
2000
,
0000
3002
0000
0203
,
0000
0320
0000
1030
,
0001
1000
0000
0010
,
0100
0010
1000
0000
,
0001
0100
1000
0100
,
0002
0000
0000
0010
0013
0000
1001
0000
,
1000
0010
0001
0010
,
2000
0000
0000
0100
3100
0000
0010
0000
,
0001
0000
0000
0001
0000
0000
0001
0000
1000
0000
0000
1000
0000
0000
1000
0000
,
0100
0000
0000
0100
0000
0000
0100
0000
0010
0000
0000
0010
0000
0000
0010
0000
,
0001
0100
0010
1000
,
1010
0100
0011
0100
,
0020
0000
0000
0030
,
2000
0000
0000
0000
3000
0000
0000
0002
0000
0000
0000
0003
,
0000
2000
0000
0000
0000
3000
0000
0002
0000
0000
0000
0003
,
0000
0220
0000
0000
0000
0000
0000
0000
0000
0000
0000
0000
0330
0000
0000
0000
0000
0000
0000
0000
0000
0000
0000
0000
,
0000
0000
0000
1001
0000
0000
0000
0000
;

//---------------dance-single - NewbStepper-BSP----------------
#NOTES:
     dance-single:
     NewbStepper:
     Easy:
     6:
     0.245143,0.317481,0.145134,0.179283,0.004269,201,184,17,21,0,0,0.245143,0.317481,0.145134,0.179283,0.004269,201,184,17,21,0,0:
0000
0000
0000
0000
,
0000
0000
0000
0000
,
0000
0000
0000
0000
,
0000
0000
0000
0000
,
0000
0000
0000
0000
,
1000
0000
0000
0001
,
0100
0000
0010
0000
,
1000
0000
0002
0000
,
0003
0000
0000
0000
,
0001
0000
0000
1000
,
0100
0000
0010
0000
,
0001
0000
2000
0000
,
3000
0000
0000
0000
,
0001
0100
0001
0001
,
1000
0100
0001
0100
,
1000
0020
0200
0330
,
1001
0000
0000
0000
,
1000
0100
1000
1000
,
0001
0100
1000
0100
,
0001
0020
0200
0330
,
1000
0000
0010
0000
,
0110
0000
0001
0100
,
0001
0000
1000
0100
,
1000
0000
0010
0000
,
0100
0000
0001
0000
,
1000
0100
0010
0001
,
0100
0010
1000
0100
,
0001
1000
0010
0001
,
0200
0000
0300
0000
,
0001
0010
0100
1000
,
0002
0000
1003
0000
,
1000
0100
0010
0001
,
2000
0000
3001
0000
,
0010
0001
0100
1000
,
0100
0000
0000
0000
,
0010
1000
0100
0001
,
0100
0000
0000
0000
,
1000
0010
0100
0001
,
2000
0000
3001
0000
,
0001
0100
0010
1000
,
0002
0000
1003
0000
,
0100
0010
0100
0001
,
0100
1000
0010
0100
,
0010
0001
0010
1000
,
0200
0000
0300
0000
,
0011
0000
0101
0000
,
1100
0000
0110
0000
,
0011
0000
1100
0000
,
0110
0000
1001
0000
,
0011
0000
1100
0000
,
0110
0000
1001
0000
,
0010
0010
0001
0100
,
0100
1000
0100
0100
,
0010
1000
0100
0100
,
0001
0100
0100
1000
,
0010
0010
0001
0010
,
0010
1000
0100
0010
,
0002
0000
0003
1000
,
0000
1000
0000
0001
,
0000
0001
0000
0010
,
0001
0100
0000
0010
,
1000
0100
0010
0000
,
0001
0010
0100
1000
,
0002
0000
1003
0000
,
1000
0100
0010
0001
,
2000
0000
3001
0000
,
0100
0010
0100
1000
,
0100
0001
0010
0100
,
0010
1000
0010
0001
,
0200
0000
0020
0000
,
0330
0000
0000
0000
,
2002
0000
0000
0000
,
0000
0000
3003
0000
,
0000
0220
0000
0000
0000
0000
0000
0000
0000
0000
0000
0000
0330
0000
0000
0000
0000
0000
0000
0000
0000
0000
0000
0000
,
0000
0000
0000
1001
0000
0000
0000
0000
;

//---------------dance-single - NewbStepper-bSP----------------
#NOTES:
     dance-single:
     NewbStepper:
     Beginner:
     2:
     0.101228,0.218502,0.025612,0.042687,0,83,80,3,5,0,0,0.101228,0.218502,0.025612,0.042687,0,83,80,3,5,0,0:
0000
0000
0000
0000
,
0000
0000
0000
0000
,
0000
0000
0000
0000
,
0000
0000
0000
0000
,
0000
0000
0000
0000
,
1000
0000
0000
0000
,
0001
0000
0000
0000
,
1000
0000
1000
0000
,
1000
0000
0000
0000
,
0001
0000
1000
0000
,
0001
0000
0001
0000
,
0001
0000
0000
0000
,
0000
0000
0000
0000
,
0010
0000
0000
0000
,
0010
0000
0000
0000
,
0010
0000
0000
0000
,
0000
0000
0000
0000
,
0100
0000
0000
0000
,
0100
0000
0000
0000
,
0100
0000
0000
0000
,
0000
0000
0000
0000
,
1001
0000
0000
0000
,
0110
0000
0000
0000
,
1001
0000
0000
0000
,
0010
0000
0000
0000
,
1000
1000
1000
0000
,
0001
0001
0001
0000
,
0100
0000
0100
0000
,
0010
0000
0000
0000
,
1000
0000
0000
0000
,
0001
0000
1000
0000
,
0001
0000
0000
0000
,
1000
0000
0001
0000
,
1000
0000
0000
0000
,
1000
0000
0000
0000
,
0001
0000
0000
0000
,
0001
0000
0000
0000
,
0100
0000
0000
0000
,
0010
0000
0100
0000
,
0010
0000
0000
0000
,
0100
0000
0010
0000
,
0100
0000
0000
0000
,
0001
0000
0000
0000
,
0010
0000
0000
0000
,
0100
0000
0000
0000
,
2000
0000
0000
0000
,
3000
0000
0000
0000
,
0002
0000
0000
0000
,
0003
0000
0000
0000
,
0200
0000
0000
0000
,
0300
0000
0000
0000
,
0001
0000
0001
0000
,
0100
0000
0100
0000
,
0010
0000
0010
0000
,
1000
0000
1000
0000
,
0001
0000
0001
0000
,
0010
0000
0010
0000
,
0100
0000
0000
1000
,
0000
0000
0000
0001
,
0000
0000
0000
0100
,
0000
0000
0000
0100
,
0000
0000
0000
0000
,
0100
0000
0000
0000
,
0010
0000
0100
0000
,
0010
0000
0000
0000
,
0100
0000
0010
0000
,
1000
0000
0000
0000
,
0010
0000
0000
0000
,
0100
0000
0000
0000
,
0002
0000
0000
0000
,
0003
0000
0000
0000
,
2000
0000
0000
0000
,
0000
0000
0000
0000
,
0000
3000
0000
0000
0000
0000
0000
0000
;

//---------------dance-double - NewbStepper-DDP----------------
#NOTES:
     dance-double:
     NewbStepper:
     Medium:
     9:
     0.353688,0.444473,0.170746,0.332955,0.068298,290,270,20,39,0,0,0.353688,0.444473,0.170746,0.332955,0.068298,290,270,20,39,0,0:
00000000
00000000
00000000
00000000
,
00000000
00000000
00000000
00000000
,
00000000
00000000
00000000
00000000
,
00000000
00000000
00000000
00000000
,
00000000
00000000
00000000
00000000
,
00001000
00000000
00100000
00010000
,
01000000
00100000
10000000
01000000
,
01020000
00000000
00001000
00002000
00000000
00000000
00033000
00000000
,
00010000
01000000
10000000
01000000
,
00010000
00000000
00000010
00001000
,
00000100
00000010
00000001
00000100
,
00001200
00000000
00010000
00000000
00001300
00000010
00000000
00010000
,
00002000
00000000
00003000
00000000
,
00100000
00000000
00010000
01000000
00010000
00000000
00100000
00000000
,
01000000
10000000
01000000
00000000
00010000
00000000
00001000
00000000
,
00000010
00000000
00000001
00000002
00000000
00000000
00000003
00000000
,
00001100
00000101
00001100
00000101
,
00000010
00000000
00001000
00000100
00001000
00000000
00000010
00000000
,
00000100
00000001
00000100
00000000
00001000
00000000
00010000
00000000
,
00100000
00000000
00000000
20000000
00020000
00000000
30030000
00000000
,
01010000
11000000
01010000
00100000
,
10000000
02000000
00000000
00000000
03000000
00010000
00001000
00010000
,
00002000
00000000
00000000
00000000
00003000
00000010
00000001
00000010
,
00000001
00000000
00000000
00000100
00000000
00000000
00001000
00000000
,
00020000
00000000
00000000
00000000
00030000
00001000
00000000
00100000
,
00020000
00000000
00000000
00000000
00030000
10000000
00000000
01000000
,
00020000
00000000
00000000
00030000
00000000
00001000
00000010
00000001
,
00001000
00000000
00000000
00000001
00000000
00000000
00000100
00000000
,
00001000
00000000
00000000
00000000
,
00010000
01000000
10000000
01000000
,
00020000
00000000
00000000
00001000
00031000
00000000
00000110
00000000
,
00001000
00000010
00000001
00000010
,
00002000
00000000
00000000
00010000
00013000
00000000
01100000
00000000
,
10000000
11000000
00010000
01010000
,
00200000
00000000
00000000
00000000
00300000
00010000
00001000
00010000
,
00000010
00000100
00000001
00000010
,
00001000
00000000
00000000
00000000
00010000
00001000
00010000
00000000
,
00001000
00000100
00000001
00000100
,
00002000
00000000
00000000
00010000
00013000
00000000
01100000
00000000
,
00010000
00100000
10000000
00100000
,
00020000
00000000
00000000
00001000
00031000
00000000
00000110
00000000
,
00000001
00000000
00000000
00000001
00000000
00000000
00000001
00000000
00000100
00000000
00000000
00000100
00000000
00000000
00000100
00000000
,
00000010
00000000
00000000
00000010
00000000
00000000
00000010
00000000
00001000
00000000
00000000
00001000
00000000
00000000
00001000
00000000
,
00020000
01000000
10000000
00100000
,
00032000
00000000
00000000
00003000
,
00000002
00000000
00000003
00000100
00000001
00000010
00000200
00000000
,
00000300
00001000
00000001
00000100
00002000
00000000
00003000
00010000
,
00001000
00100000
00020000
00000000
00030000
10000000
00010000
00100000
,
02000000
00000000
03000000
10000000
01000000
00100000
00020000
00000000
,
00030000
01000000
00100000
00010000
00002000
00000000
00003000
00100000
,
00010000
00100000
01000000
00000000
00010000
00000000
00001000
00000000
,
00000100
00000000
00000001
00000100
00001000
00000000
00000100
00000010
,
00000100
00000000
00001000
00000000
00010000
00001000
00010000
00000000
,
00100000
00000000
10000000
01000000
10000000
00000000
00100000
00000000
,
01000000
00010000
01000000
00000000
00100000
00000000
00010000
00001000
,
00010000
00000000
00001000
00000000
00000010
00000100
00000010
00000000
,
00000001
00000000
00000100
00000010
00000100
00000000
00001000
00000000
,
00022000
00000000
00033000
00100000
,
00000000
10000000
00000000
01000000
,
00000000
00010000
00000000
00001000
,
00010000
00001000
00000000
00000010
,
00000100
00000010
00001000
00000000
,
00010000
01000000
10000000
01000000
,
00020000
00000000
00000000
00001000
00031000
00000000
00000110
00000000
,
00001000
00000010
00000001
00000010
,
00002000
00000000
00000000
00010000
00013000
00000000
01100000
00000000
,
10000000
00000000
00000000
10000000
00000000
00000000
10000000
00000000
01000000
00000000
00000000
01000000
00000000
00000000
01000000
00000000
,
00100000
00000000
00000000
00100000
00000000
00000000
00100000
00000000
00010000
00000000
00000000
00010000
00000000
00000000
00010000
00000000
,
00002000
00000100
00000001
00000010
,
00023000
01000000
10000000
00100000
,
02030000
00000000
00000000
03000000
,
00020000
00000000
00000000
00000000
00000000
00030000
00000000
20000000
00000000
00000000
00000000
30000000
,
00000000
00020000
00000000
00000000
00000000
00030000
00000000
20000000
00000000
00000000
00000000
30000000
,
00000000
02200000
00000000
00000000
00000000
00000000
00000000
00000000
00000000
00000000
00000000
00000000
03300000
00000000
00000000
00000000
00000000
00000000
00000000
00000000
00000000
00000000
00000000
00000000
,
00000000
00000000
00000000
00011000
00000000
00000000
00000000
00000000
;

//---------------dance-double - NewbStepper-BDP----------------
#NOTES:
     dance-double:
     NewbStepper:
     Easy:
     6:
     0.250021,0.317481,0.136597,0.128060,0.004269,205,189,16,15,0,0,0.250021,0.317481,0.136597,0.128060,0.004269,205,189,16,15,0,0:
00000000
00000000
00000000
00000000
,
00000000
00000000
00000000
00000000
,
00000000
00000000
00000000
00000000
,
00000000
00000000
00000000
00000000
,
00000000
00000000
00000000
00000000
,
10000000
00000000
00000000
00010000
,
01000000
00000000
00001000
00000000
,
00000010
00000000
00000002
00000000
,
00000003
00000000
00000000
00000000
,
00000001
00000000
00000000
00001000
,
00000100
00000000
00010000
00000000
,
00100000
00000000
20000000
00000000
,
30000000
00000000
00000000
00000000
,
00010000
01000000
00010000
00010000
,
10000000
01000000
00010000
00001000
,
00000100
00000020
00000200
00000330
,
00001001
00000000
00000000
00000000
,
00001000
00000100
00001000
00001000
,
00000001
00000100
00001000
00010000
,
01000000
00200000
02000000
03300000
,
00010000
00000000
00001000
00000000
,
00011000
00000000
00000010
00000100
,
00000010
00000000
00000001
00001000
,
00000001
00000000
00000100
00000000
,
00001000
00000000
00010000
00000000
,
00100000
10000000
01000000
00100000
,
00010000
01000000
00100000
00010000
,
00001000
00100000
00010000
00001000
,
00000200
00000000
00000300
00000000
,
00001000
00000010
00000100
00000001
,
00000010
00000100
00001000
00000000
,
00010000
00100000
01000000
10000000
,
00100000
01000000
00010000
00000000
,
10000000
01000000
00010000
00001000
,
00000100
00000000
00000000
00000000
,
00000001
00000100
00001000
00010000
,
01000000
00000000
00100000
00000000
,
00010000
00100000
01000000
10000000
,
00100000
01000000
00010000
00000000
,
00001000
00000010
00000100
00000001
,
00000010
00000100
00001000
00000000
,
00000001
00000100
00000010
00000100
,
00001000
00010000
00001000
00100000
,
00010000
00100000
10000000
00100000
,
00020000
00000000
00030000
00000000
,
01010000
00000000
11000000
00000000
,
10100000
00000000
00110000
00000000
,
00011000
00000000
00001010
00000000
,
00000011
00000000
00000101
00000000
,
00001100
00000000
00000110
00000000
,
00001001
00000000
00000000
00000000
,
00000010
00000010
00000001
00000100
,
00000100
00001000
00010000
00010000
,
00001000
00100000
00100000
00010000
,
01000000
01000000
10000000
01000000
,
01000000
00010000
00100000
00100000
,
00001000
00010000
00001000
00000100
,
00000020
00000000
00000030
00001000
,
00000000
00001000
00000000
00000001
,
00000000
00000001
00000000
00000010
,
00001000
00010000
00000000
00100000
,
00010000
00001000
00000000
00000000
,
00001000
00000010
00000100
00000001
,
00000010
00000100
00001000
00000000
,
00010000
00100000
01000000
10000000
,
00100000
01000000
00010000
00000000
,
10000000
01000000
00100000
01000000
,
00010000
00001000
00010000
00000010
,
00001000
00000010
00000001
00000010
,
00002000
00000000
00000002
00000000
,
00003003
00000000
00000000
00000000
,
00000220
00000000
00000000
00000000
,
00000000
00000000
00000330
00000000
,
00000000
00022000
00000000
00000000
00000000
00000000
00000000
00000000
00000000
00000000
00000000
00000000
00033000
00000000
00000000
00000000
00000000
00000000
00000000
00000000
00000000
00000000
00000000
00000000
,
00000000
00000000
00000000
00011000
00000000
00000000
00000000
00000000
;
