#TITLE:99 Glooms;
#ARTIST:Sta;
#MUSIC:99 Glooms.ogg;
#BANNER:99 Glooms.png;
#BACKGROUND:99 Glooms-bg.png;
#SAMPLESTART:107.677;
#SAMPLELENGTH:15;
#OFFSET:1.292;
#BPMS:0=185;

//--------------- dance-single - Talkion-bSP----------------
#NOTES:
     dance-single:
     Talkion:
     Beginner:
     5:
     0,0,0,0,0:
0000
0000
0000
0000
,
0000
0000
0000
0000
,
0000
0000
0000
0000
,
0000
0000
0000
0000
,
0001
0000
0000
0000
,
1000
0000
0000
0000
,
0001
0000
0001
0000
,
0100
0000
0100
0000
,
1000
0000
0000
0000
,
0001
0000
0000
0000
,
1000
0000
1000
0000
,
0100
0000
0100
0000
,
0001
0000
0000
0000
,
1000
0000
0000
0000
,
0001
0000
0001
0000
,
0010
0000
0010
0000
,
1000
0000
0000
0000
,
0001
0000
0000
0000
,
1000
0000
1000
0000
,
0020
0000
0000
0030
,
0002
0003
0020
0030
,
0200
0300
2000
3000
,
0002
0000
0000
0000
,
0000
0000
0000
0003
,
1000
0000
1000
0000
,
0010
0000
0010
0000
,
0110
0000
0000
0000
,
0001
0001
0001
0000
,
2000
3000
0020
0030
,
0200
0300
0002
0003
,
2000
0000
0000
0000
,
0000
0000
0000
3000
,
0001
0000
0001
0000
,
0010
0000
0010
0000
,
0110
0000
0000
0000
,
1000
1000
2000
3000
,
0000
0000
0000
0000
,
0000
0000
0000
0000
,
0000
0000
0000
0000
,
0000
0000
0000
0000
,
0000
0000
0000
0000
,
0000
0000
0000
0000
,
0000
0000
0000
0000
,
0000
0000
0000
0000
,
1001
0000
0000
1000
0000
0000
0001
0000
,
0000
1000
0000
0000
0001
0000
0000
0000
,
1000
0000
0000
0001
0000
0000
1000
0000
,
0000
0002
0000
0000
0000
0000
0003
0000
,
1000
0000
0000
0001
0000
0000
1000
0000
,
0000
0001
0000
0000
1000
0000
0000
0000
,
0200
0000
0000
0300
,
0100
0000
0000
0000
,
1001
0000
0001
0000
,
0100
0000
0010
0000
,
1000
1000
1000
0000
,
0100
0000
0010
0000
,
0001
0000
1000
0000
,
0002
0000
0003
0000
,
1000
0000
1000
0000
,
0010
0010
0010
0000
,
1000
0000
1000
0000
,
0001
0000
0001
0000
,
1000
0000
0010
0000
,
0100
0100
0100
0000
,
0001
0000
0001
0000
,
1000
0000
1000
0000
,
0001
0000
0010
0000
,
0100
0100
0100
0000
,
1000
0000
1000
0000
,
0001
0000
0001
0000
,
1000
0000
0010
0000
,
0100
0100
0100
0000
,
0001
0001
0001
0000
,
2000
3000
0100
0000
,
1000
1000
1000
0000
,
0002
0000
0000
0003
,
0001
0000
0000
0000
,
1000
0000
0000
0000
,
0001
0000
0001
0000
,
0100
0000
0100
0000
,
1000
0000
0000
0000
,
0001
0000
0000
0000
,
1000
0000
1000
0000
,
0100
0000
0100
0000
,
0002
0003
0200
0300
,
0020
0030
2000
3000
,
0002
0000
0000
0000
,
0000
0000
0000
0003
,
1001
0000
0000
0000
,
1000
1000
1000
0000
,
0200
0000
0000
0300
,
0100
0100
0100
0000
,
2000
3000
0200
0300
,
0020
0030
0002
0003
,
2000
0000
0000
0000
,
0000
0000
0000
3000
,
1000
1000
1000
0000
,
0001
0001
0001
0000
,
1001
0000
0000
0001
0000
0000
0000
0000
,
0200
0000
0000
0300
,
1001
0000
0000
1000
0000
0000
0000
0000
,
1001
0000
0000
0001
0000
0000
0000
0000
,
1001
0000
0000
1000
0000
0000
0000
0000
,
0100
0000
0000
0100
0000
0000
0200
0000
,
0000
0000
0000
0000
,
0300
0000
0000
0000
;

//--------------- dance-single - Talkion-BSP----------------
#NOTES:
     dance-single:
     Talkion:
     Easy:
     10:
     0,0,0,0,0:
0000
0000
0000
0000
,
0000
0000
0000
0000
,
0000
0000
0000
0000
,
0000
0000
0000
0000
,
2000
0000
3100
0010
,
0002
0000
0103
0010
,
1000
0001
0010
0001
,
1000
0010
0100
0001
,
2000
0000
3010
0100
,
0002
0000
0013
0100
,
0001
0100
0010
0001
,
1000
0010
0100
0001
,
0020
0000
0130
1000
,
0020
0000
0130
0001
,
0010
0100
1000
0001
,
0100
0100
0010
1000
,
0200
0000
0310
0001
,
0200
0000
0310
1000
,
0100
0000
0010
0100
0000
0100
0010
0000
,
0001
0010
0001
0010
0001
1000
0100
0000
,
2000
0000
3020
0000
,
0032
0000
0023
0000
,
1030
0001
0010
0100
,
1000
0001
1000
0000
0010
0100
0010
0000
,
2000
0000
0010
3010
,
0200
2300
3002
0023
,
2030
0000
3001
0010
,
0100
1000
0100
1000
0001
0010
0001
0000
,
2000
0000
3200
0000
,
0302
0000
0203
0000
,
1300
0001
0100
0010
,
1000
0001
1000
0000
0100
0010
0100
0000
,
2000
0000
0100
3100
,
1000
0100
0020
0000
0001
0000
0031
0000
,
1000
0100
1000
0000
0001
0100
0001
0000
,
1000
0100
1000
0100
0010
0001
0010
0001
,
0000
0000
0000
0000
,
0000
0000
0000
0000
,
0000
0000
0000
0000
,
0000
0000
0000
0000
,
0000
0000
0000
0000
,
0000
0000
0000
0000
,
0000
0000
0000
0000
,
0000
0000
0000
0000
,
0011
0000
0000
1100
0000
0000
0011
0000
,
0000
1100
0000
0000
1001
0000
0000
0000
,
1010
0000
0000
0101
0000
0000
1010
0000
,
0000
0102
0000
0000
0000
0000
1003
0000
,
0011
0000
0000
1100
0000
0000
0011
0000
,
0000
1100
0000
0000
1001
0000
0000
0000
,
0001
0000
0000
1000
0000
0000
0001
0000
0000
1000
0000
0000
0001
0000
0000
0000
,
0200
0000
0000
0300
,
0110
0000
0000
1000
0001
0000
0000
0000
,
0010
0010
0200
2300
,
3002
0000
0103
0100
0001
0000
0000
0000
,
2001
3100
0022
0033
,
0002
0023
2030
3020
,
0230
0000
0000
0000
2300
0000
0000
0000
3001
0000
0000
0001
0000
0000
0001
0000
,
1000
0000
0010
0100
0000
0100
0010
0000
,
0100
0100
0100
0000
,
0001
0001
0100
0100
,
1000
1000
0010
0010
,
0001
0010
0001
0000
0010
0100
0010
0000
,
0100
1000
0100
0000
1000
0001
1000
0000
,
0001
0001
0010
0010
,
1000
1000
0100
0100
,
0001
0100
0001
0000
0100
0010
0100
0000
,
0010
1000
0010
0000
1000
0001
1000
0000
,
0001
0001
0100
0100
,
1000
1000
0010
0010
,
0001
0010
0100
0000
0010
0100
1000
0000
,
0001
0100
0010
0000
0100
0010
1000
0000
,
0001
0010
0001
0000
1000
0010
1000
0000
,
0001
0010
0001
0000
2000
0000
3010
0000
,
0100
0100
0001
0001
,
1000
0000
0000
1000
0000
0000
1000
0000
0001
0000
0010
0000
0100
0000
0000
0000
,
2000
0000
3100
0010
,
0002
0000
0103
0010
,
1000
0001
0010
0001
,
1000
0010
0100
0001
,
2000
0000
3010
0100
,
0002
0000
0013
0100
,
0001
0100
0010
0001
,
1000
0010
0100
0001
,
2000
0000
3020
0000
,
0032
0000
0023
0000
,
1030
0001
0010
0100
,
1000
0001
1000
0000
0010
0100
0010
0000
,
0110
0000
1000
0100
,
1000
0100
1000
0100
0010
0001
0010
0001
,
1000
0000
0001
0100
,
0010
0100
0010
0200
0001
0000
0301
0000
,
2000
0000
3200
0000
,
0302
0000
0203
0000
,
1300
0001
0100
0010
,
1000
0001
1000
0000
0100
0010
0100
0000
,
1000
0100
1000
0100
0010
0001
0010
0001
,
2000
0000
3010
1000
0010
1000
0001
0000
,
0010
0000
0000
0010
0000
0000
0010
0000
0000
0010
0000
0000
0010
0000
0000
0000
,
2002
0000
0000
3003
,
0100
0000
0000
0100
0000
0000
0100
0000
0000
0100
0000
0000
0100
0000
0000
0000
,
0010
0000
0000
0010
0000
0000
0010
0000
0000
0020
0000
0000
0030
0000
0000
0000
,
1000
0000
0000
1000
0000
0000
1000
0000
0000
2000
0000
0000
3000
0000
0000
0000
,
1001
0000
0000
0110
0000
0000
2002
0000
,
0000
0000
0000
0000
,
3003
0000
0000
0000
;

//--------------- dance-single - Talkion-DSP----------------
#NOTES:
     dance-single:
     Talkion:
     Medium:
     13:
     0,0,0,0,0:
0000
0000
0000
0000
,
0000
0000
0000
0000
,
0000
0000
0000
0000
,
0000
0000
0000
0000
,
1000
0000
0100
0000
1000
0100
0010
0000
,
0001
0000
0100
0000
0001
0100
0010
0000
,
1000
0000
0100
0000
0010
0100
1000
0000
,
0010
0100
1000
0000
0010
0001
0010
0001
,
1000
0000
0010
0000
1000
0010
0100
0000
,
0001
0000
0010
0000
0001
0010
0100
0000
,
1000
0000
0010
0000
0100
0010
1000
0000
,
0100
0010
1000
0000
0100
0001
0010
0100
,
2000
0000
0010
0000
3001
0100
0001
0000
,
1000
0000
0100
0000
1000
0100
0010
0000
,
0001
0000
0100
0000
0010
0100
0001
0000
,
1000
0000
0000
0000
1000
0000
0100
0000
0000
0000
0100
0000
0020
0000
0000
0000
0000
0000
0031
0000
0000
0010
0000
0000
,
1000
0000
0010
0000
0001
0100
0010
0000
,
0001
0000
0010
0000
1000
0100
0010
0000
,
0001
0000
1000
0100
0100
0001
0010
0000
,
0001
0010
0100
1000
0001
0100
0010
1000
,
0002
0010
2003
0010
,
3002
0100
2003
0100
,
3001
0000
0000
0000
1000
0000
0010
0000
0100
0000
0000
0100
0001
0000
1000
0000
,
0100
0001
0100
0010
0001
1000
0010
0100
,
0001
0000
2000
0100
0000
0100
0000
3100
,
0010
0000
0001
0010
0001
0010
0001
0010
,
1000
0000
0010
0000
0001
0000
0100
0010
,
1000
0100
0010
0001
0100
0010
1000
0001
,
2000
0010
3002
0010
,
2003
0100
3002
0100
,
1003
0000
0000
0000
0001
0000
0010
0000
0100
0000
0000
0100
1000
0000
0001
0000
,
0100
1000
0100
0010
1000
0001
0010
0100
,
1000
0000
0002
0100
0000
0100
0000
0103
,
0010
0100
0010
0000
1000
0010
0100
0010
,
0001
1000
0100
0010
0100
0001
1000
0100
,
0010
0001
0100
0010
1000
0200
0310
0001
,
0000
0000
0000
0000
,
0000
0000
0000
0000
,
0000
0000
0000
0000
,
0000
0000
0000
0000
,
0000
0000
0000
0000
,
0000
0000
0000
0000
,
0000
0000
0000
0000
,
0000
0000
0000
0000
,
2200
0000
3300
0202
0000
0303
0022
0000
,
0033
2020
0000
3030
1001
0000
0000
0000
,
0202
0000
0303
2200
0000
3300
2020
0000
,
3030
0000
0022
0000
0000
0000
0033
0000
0000
0000
0001
1000
0001
0000
0000
0000
,
2200
0000
3300
0202
0000
0303
0022
0000
,
0033
2020
0000
3030
1001
0000
0000
0000
,
0001
0000
0000
0010
0000
0000
1000
0000
0000
0100
0000
0000
0001
0000
0000
0000
,
1000
0000
0100
0000
1000
0100
1000
0000
0001
0000
0001
0000
0100
0000
0010
0000
,
0110
0000
0000
0100
1001
0000
0001
0010
,
0100
0100
0200
0000
2300
0000
3020
0000
,
0230
0000
0001
0001
0002
0000
0303
0000
,
2000
3100
0002
0103
,
1000
0100
0010
0100
0001
0100
0010
0100
,
2000
0000
0000
0000
3002
0000
0000
0000
0103
0000
0010
0100
0000
0010
0100
0000
,
0001
0000
1000
0100
0100
0001
0010
0000
,
0100
0100
0100
2000
,
3001
0100
0001
0000
0100
1000
0100
0000
,
1000
0010
1000
0000
0010
0001
0010
0000
,
0001
1000
0100
1000
0001
1000
0100
0000
,
0001
0100
0010
0100
0001
0100
1000
0000
,
0001
0010
0001
0000
0010
1000
0010
0000
,
1000
0100
1000
0000
0100
0001
0100
0000
,
0001
1000
0010
1000
0001
1000
0010
0000
,
0001
0010
0100
0010
0001
0010
1000
0000
,
0100
1000
0100
0000
0001
0100
0001
0000
,
0010
0001
0010
0000
1000
0010
1000
0000
,
0001
0010
0100
0010
0001
0010
1000
0000
,
0001
0100
0010
0100
0001
0100
1000
0000
,
0001
0000
1000
0100
1000
0000
0001
0100
0001
0000
1000
0100
1000
0000
0001
0000
,
0100
0010
2000
0000
3002
0000
0013
0000
,
0001
0000
0010
0000
0100
0010
0000
0100
0010
0000
0100
0010
0000
0100
0010
0000
,
0200
0000
0000
1300
0000
0000
0001
0000
1000
0000
0010
0000
0100
0000
0001
0000
,
1000
0000
0100
0000
1000
0100
0010
0000
,
0001
0000
0100
0000
0001
0100
0010
0000
,
1000
0000
0100
0000
0010
0100
1000
0000
,
0010
0100
1000
0000
0010
0001
0010
0001
,
1000
0000
0010
0000
1000
0010
0100
0000
,
0001
0000
0010
0000
0001
0010
0100
0000
,
1000
0000
0010
0000
0100
0010
1000
0000
,
0100
0010
1000
0000
0100
0001
0100
0001
,
2000
0100
3002
0100
,
2003
0010
3002
0010
,
1003
0000
0000
0000
0001
0000
0100
0000
0010
0000
0000
0010
1000
0000
0001
0000
,
0010
1000
0010
0100
1000
0001
0100
0010
,
1010
0000
1000
0100
0001
0100
0010
0100
,
0001
0100
0010
1000
0001
0100
1000
0010
,
0100
0000
0001
0000
0100
0010
1000
0010
,
0001
1000
0100
0001
1000
0010
0100
0000
,
0002
0100
2003
0100
,
3002
0010
2003
0010
,
3001
0000
0000
0000
1000
0000
0100
0000
0010
0000
0000
0010
0001
0000
1000
0000
,
0010
0001
0010
0100
0001
1000
0100
0010
,
0001
0010
0001
0000
1000
0010
0000
1000
0010
0000
1000
0010
0100
0000
0001
0000
,
1000
0000
0100
0000
0010
0000
0001
0000
1000
0001
1000
0001
2000
0000
0000
0000
,
3010
0000
0000
0110
0000
0000
1010
0000
0000
0101
0000
0000
1001
0000
0000
0000
,
0220
0000
0000
0330
,
1001
0000
0000
0110
0000
0000
0011
0000
0000
1100
0000
0000
1001
0000
0000
0000
,
1010
0000
0000
0011
0000
0000
2010
0000
0000
3001
0000
0000
0000
0000
1000
0001
,
1000
0000
0000
1100
0000
0000
0110
0000
0000
0011
0000
0000
0000
0000
0000
0000
,
2200
0000
3300
0202
0000
0303
0220
0000
,
0000
0000
0000
0000
,
0330
0000
0000
0000
;

//--------------- dance-single - Talkion-ESP----------------
#NOTES:
     dance-single:
     Talkion:
     Hard:
     17:
     0,0,0,0,0:
0000
0000
0000
0000
,
0000
0000
0000
0000
,
0000
0000
0000
0000
,
0000
0000
0000
0000
,
0010
0000
0010
0000
0010
1000
0001
0010
,
0100
0000
0100
0000
0100
1000
0001
0100
,
0010
0000
0100
0001
1000
0010
0100
1000
,
0100
0000
0010
0000
1000
0000
0001
0000
0010
0000
0001
0010
0001
0000
1000
0000
,
0100
0000
0100
0000
0100
1000
0001
0100
,
0010
0000
0010
0000
0010
1000
0001
0010
,
0100
0000
0010
0001
1000
0100
0010
1000
,
0010
0000
0100
0000
1000
0000
0001
0000
0100
0000
0010
0000
1000
0010
0100
0001
,
2000
0000
0100
0000
3100
0010
0001
1000
,
0010
0000
0010
0000
0010
0100
0001
1000
,
0100
0000
0001
0100
1000
0001
0100
0010
,
1000
0000
0010
0000
1000
0000
0010
0000
0000
0000
0100
0000
0001
0000
0000
0000
0000
0000
1000
0000
0000
0100
0000
0000
,
0010
0000
0010
0000
1000
0010
0001
0100
,
0010
0000
0010
0000
0001
0010
1000
0100
,
0010
0000
1100
0001
0010
0100
1100
0000
,
0001
0100
0010
0100
0001
1000
0010
0100
0001
1000
0100
0010
0001
0010
0100
1000
,
0002
0100
2003
0100
,
3002
0010
2003
0010
,
3001
0000
0000
0000
1000
0000
0100
0000
0010
0000
0000
0010
0001
0000
1000
0001
,
0100
0000
0010
0000
0001
0010
0100
0000
0010
0000
1000
0010
1000
0000
0001
0000
,
0010
0000
0010
0100
1000
0001
0100
0001
,
1000
0000
0000
0000
1000
0000
0100
0010
0001
0000
0100
0010
1000
0000
0100
0010
,
0001
0000
0000
0000
0010
0000
0001
0000
1000
0000
0001
0000
0100
0000
0010
0100
,
0002
0000
2003
0000
3200
0000
0320
0000
1030
0000
0010
0000
0001
0010
0100
1000
,
0002
0010
2003
0010
,
3002
0100
2003
0100
,
3001
0000
0000
0000
1000
0000
0010
0000
0100
0000
0000
0100
0001
0000
1000
0100
,
0010
0000
1000
0000
0010
0100
1000
0000
0001
0000
0100
0001
0100
0000
0010
0000
,
1000
0000
1000
0001
0010
0001
1000
0100
,
0010
0000
0000
0000
0010
0000
0001
0000
1000
0010
0100
0001
1000
0010
0100
0001
,
1000
0100
0010
0100
0001
0100
0010
0001
,
1000
0010
1000
0010
0100
0001
0100
0001
1000
0010
1000
0002
0013
0100
1000
0001
,
0000
0000
0000
0000
,
0000
0000
0000
0000
,
0000
0000
0000
0000
,
0000
0000
0000
0000
,
0000
0000
0000
0000
,
0000
0000
0000
0000
,
0000
0000
0000
0000
,
1000
0100
1000
0100
0010
0001
0010
0001
1000
0100
0010
0001
1000
0100
0010
0002
,
2000
0000
3003
0220
0000
0330
2200
0000
,
3300
0202
0000
0303
2002
0000
3003
0000
,
0220
0000
0330
2020
0000
3030
0022
0000
,
0033
0000
2002
0000
0000
0000
3003
0000
0010
0000
0100
0010
0110
0000
0000
0000
,
2002
0000
3003
0220
0000
0330
2200
0000
,
3300
0000
0000
0202
0000
0000
0000
0000
0000
0303
0000
0000
2002
0000
0000
0000
0000
0000
3003
0000
0000
0001
1000
0001
,
1000
0000
0001
0100
0001
0100
0010
0000
1000
0010
1000
0010
0100
0000
0002
0000
,
0013
0000
0010
0000
0001
0010
0100
0000
1000
0001
0010
0001
1000
0000
0010
0000
,
0101
0000
0000
1000
1100
0000
0200
0010
,
1300
0000
0000
0000
0000
0000
0001
0000
0100
0000
0001
0000
0200
0000
0000
0000
0000
0000
0000
0000
0000
0000
0000
0000
0310
0000
0000
1000
0000
0000
0001
0000
0000
0100
0000
0000
0010
0000
0000
1000
0000
0000
0001
0000
0000
0100
0000
0000
,
0010
0100
0001
0000
0100
0000
0100
0000
2010
0000
0000
0000
3000
0000
0000
0000
,
0021
0130
1020
0130
,
0001
1000
0100
0010
0001
0000
1000
0000
0001
0100
0001
0100
0010
1000
0001
0000
,
0020
0000
0000
0000
0230
0000
0000
0000
1300
0000
0100
1000
0100
1000
0100
1000
,
0001
0000
0101
1000
0010
0100
0101
0000
,
0001
0010
1000
0200
,
0301
0100
0001
0100
1000
0100
1000
0100
,
1000
0010
1000
0010
0001
0010
0001
0010
,
0100
2000
3010
0002
0013
2000
3010
0002
,
0013
0000
1000
0010
0100
0000
0010
0100
0001
0000
1000
0100
0010
0000
0000
0000
,
0001
0010
0001
0010
1000
0010
1000
0010
,
1000
0100
1000
0100
0001
0100
0001
0100
,
0010
2000
3100
0002
0103
2000
3100
0002
,
0103
0000
1000
0100
0010
0000
0100
0010
0001
0000
1000
0010
0100
0000
0000
0000
,
0010
1000
0010
1000
0100
1000
0100
1000
,
0100
0001
0100
0001
0010
0001
0010
0001
,
2000
3100
0002
0013
0200
1300
0002
0103
,
0010
0000
1000
0010
0100
0001
1000
0000
0100
0000
0010
0100
1000
0000
0001
0100
,
0010
0000
0010
0001
0010
0000
0010
1000
0010
0000
0010
0001
0010
0000
0010
1000
,
0010
0000
1000
0001
0010
0100
1000
0000
0020
0000
0000
0000
0130
0000
0000
0000
,
0001
0100
0010
0000
1000
0010
0000
0001
0010
0000
1000
0010
0000
0001
0010
0000
,
1000
0000
0100
0010
0000
0001
0010
0001
0000
0010
0001
1000
0100
0010
0001
1000
,
0010
0000
0010
0000
0010
1000
0001
0010
,
0100
0000
0100
0000
0100
1000
0001
0100
,
0010
0000
0100
0001
1000
0010
0100
1000
,
0100
0010
1000
0001
0010
0001
1000
0100
,
0010
0000
0010
0000
0010
0001
1000
0010
,
0100
0000
0100
0000
0100
0001
1000
0100
,
0010
0000
0100
1000
0001
0010
0100
1000
,
0001
0010
0001
0000
2000
0000
0010
0000
3001
0000
0100
0000
0010
0000
0000
0000
,
2000
0010
3002
0010
,
2003
0100
3002
0100
,
1003
0000
0000
0000
0001
0000
0010
0000
0100
0000
0000
0100
1000
0000
0001
0100
,
0010
0000
0000
0000
0000
0000
0100
0000
0010
0000
0100
0000
0010
0000
0000
1000
0000
0000
0001
0000
0000
0000
0000
0000
0010
0000
0000
0000
0000
0000
0100
0000
0000
0000
0000
0000
1000
0000
0000
0000
0000
0000
0001
0000
0000
0000
0000
0000
,
0101
0000
0000
0000
0100
0000
0010
0000
1000
0010
0100
0010
1000
0001
0100
0010
,
1000
0001
0010
0100
1000
0001
0010
0100
1000
0001
0100
0010
1000
0001
0010
0001
,
0100
0000
0010
0100
0001
1000
0100
0010
,
0001
1000
0100
1000
0001
0100
0010
0100
0001
1000
0010
0100
0001
0000
0000
0000
,
2000
0100
3002
0100
,
2003
0010
3002
0010
,
1003
0000
0000
0000
0001
0000
0100
0000
0010
0000
0000
0010
1000
0000
0001
0010
,
0100
0000
0000
0000
0000
0000
0010
0000
0100
0000
0010
0000
0100
0000
0000
1000
0000
0000
0001
0000
0000
0000
0000
0000
0100
0000
0000
0000
0000
0000
0010
0000
0000
0000
0000
0000
1000
0000
0000
0000
0000
0000
0001
0000
0000
0000
0000
0000
,
0010
0100
1000
0001
0010
0001
1000
0010
1000
0001
0010
0100
1000
0000
0001
0000
,
0100
0000
0000
0010
0000
0000
1000
0000
0000
0001
0000
0000
0010
0000
0000
0100
0000
0000
1000
0000
0000
0010
0000
0000
0100
0000
0000
0001
0000
0000
0010
0000
0000
0100
0000
0000
1000
0000
0000
0000
0000
0000
0001
0000
1000
0000
0001
0000
,
1000
0000
0000
1010
0000
0000
0011
0000
0000
0101
0000
0000
1100
0000
0000
0000
,
1000
0100
1000
0100
0010
0001
0010
0001
1000
0100
0010
0001
1000
0100
0010
0001
,
1000
0000
0000
1100
0000
0000
0101
0000
0000
0011
0000
0000
1010
0000
0000
0000
,
0101
0000
0000
1100
0000
0000
1002
0000
0000
0013
0000
0000
0000
0000
0001
1000
,
0001
0000
0000
0000
0000
0000
0000
0000
0000
0101
0000
0000
0000
0000
0000
0000
0000
0000
1100
0000
0000
0000
0000
0000
0000
0000
0000
0110
0000
0000
0000
0000
0000
0000
0000
0000
0000
0000
0000
0000
0000
0000
1000
0000
0010
0000
0200
0000
,
0002
0000
0303
2200
0000
3300
2002
0000
,
0000
0000
0000
0000
,
3003
0000
0000
0000
;

//--------------- dance-double - Talkion-BDP----------------
#NOTES:
     dance-double:
     Talkion:
     Easy:
     10:
     0,0,0,0,0:
00000000
00000000
00000000
00000000
,
00000000
00000000
00000000
00000000
,
00000000
00000000
00000000
00000000
,
00000000
00000000
00000000
00000000
,
20000000
00000000
31000000
00100000
,
00002000
00000000
01003000
00100000
,
10000000
00010000
00100000
00001000
,
00010000
00000010
00001000
00001000
,
00000002
00000000
00000013
00000100
,
00020000
00000000
00030010
00000100
,
00001000
00000100
00000010
00010000
,
00001000
00100000
01000000
01000000
,
20000000
00000000
31000000
00100000
,
00002000
00000000
01003000
00100000
,
10000000
00010000
00100000
00001000
,
00010000
00010000
00000100
00000010
,
00002000
00000000
00003010
00001000
,
00020000
00000000
00030010
00010000
,
00001000
00000000
01000000
00100000
00000000
00100000
01000000
00000000
,
00010000
01000000
00010000
01000000
00002000
00000000
00013000
00000000
,
00000200
00000000
00000320
00000000
,
00000032
00000000
00000203
00000000
,
00000310
00010000
00001000
01000000
,
00100000
01000000
00100000
00000000
10000000
00010000
10000000
00000000
,
02000000
00000000
00100000
03100000
,
00002000
00023000
00030020
00002030
,
00003002
00000000
00000013
00000100
,
00010000
00001000
00100000
00000000
00001000
00100000
00010000
00000000
,
02000000
00000000
03200000
00000000
,
20300000
00000000
32000000
00000000
,
03100000
00001000
00010000
00000100
,
00000010
00000100
00000010
00000000
00000001
00001000
00000001
00000000
,
00000200
00000000
00000010
00000310
,
00010000
00001000
00100000
00010000
,
10000000
01000000
00100000
00000000
01000000
00100000
00001000
00000000
,
00010000
00000100
00010000
00000100
00001000
00000001
00000010
00000100
,
00000000
00000000
00000000
00000000
,
00000000
00000000
00000000
00000000
,
00000000
00000000
00000000
00000000
,
00000000
00000000
00000000
00000000
,
00000000
00000000
00000000
00000000
,
00000000
00000000
00000000
00000000
,
00000000
00000000
00000000
00000000
,
00000000
00000000
00000000
00000000
,
00010100
00000000
00000000
01001000
00000000
00000000
00010100
00000000
,
00000000
01001000
00000000
00000000
00011000
00000000
00000000
00000000
,
00010010
00000000
00000000
00101000
00000000
00000000
00010010
00000000
,
00000000
00102000
00000000
00000000
00000000
00000000
00013000
00000000
,
01001000
00000000
00000000
00010100
00000000
00000000
01001000
00000000
,
00000000
00010100
00000000
00000000
00011000
00000000
00000000
00000000
,
00010000
00000000
00000000
00000100
00000000
00000000
00010000
00000000
00000000
00000100
00000000
00000000
00001000
00000000
00000000
00000000
,
00000002
00000000
00000000
00000003
,
00000110
00000000
00000000
00010000
00001000
00000000
00000000
00000000
,
00100000
00100000
02000000
23000000
,
30020000
00000000
01030000
01000000
00001000
00000000
00000000
00000000
,
00012000
00103000
00021000
00030010
,
00002000
00003002
00000023
00000230
,
00020300
00000000
00000000
00000000
00032000
00000000
00000000
00000000
00013000
00000000
00000000
00010000
00000000
00000000
00010000
00000000
,
00000010
00000000
00000100
00000010
00000000
00000010
00000100
00000000
,
00000001
00000001
00000001
00000000
,
00001000
00001000
00000100
00000100
,
00000001
00000001
00000010
00000010
,
00001000
00000010
00010000
00000000
00000010
00010000
00001000
00000000
,
00010000
00001000
01000000
00000000
00100000
00100000
10000000
00000000
,
00010000
00010000
01000000
01000000
,
10000000
10000000
00100000
00100000
,
00010000
00100000
00001000
00000000
00100000
00001000
00010000
00000000
,
00001000
00010000
00000100
00000000
00000010
00000010
00000001
00000000
,
00001000
00001000
00000100
00000100
,
00000001
00000001
00000010
00000010
,
00002000
00003002
00000023
00000230
,
00010300
00001000
01000000
00000000
00100000
00100000
10000000
00000000
,
00010000
00100000
00010000
00000000
10000000
00100000
10000000
00000000
,
00010000
00100000
00001000
00000000
00020000
00000000
00030010
00000000
,
00000100
00000100
00000001
00000001
,
00001000
00000000
00000000
00000100
00000000
00000000
00001000
00000000
00000000
00000100
00000000
00000000
00001000
00000000
00000000
00000000
,
00000002
00000000
00000103
00000010
,
00020000
00000000
00030100
00000010
,
00000001
00001000
00000010
00010000
,
00001000
00100000
00010000
00010000
,
20000000
00000000
30100000
01000000
,
00002000
00000000
00103000
01000000
,
10000000
00010000
01000000
00001000
,
00010000
00000100
00000110
00000000
,
00000200
00000000
00000320
00000000
,
00000032
00000000
00000203
00000000
,
00000310
00010000
00001000
01000000
,
00100000
01000000
00100000
00000000
10000000
00010000
10000000
00000000
,
01100000
00000000
00010000
00100000
,
00001000
00010000
00000100
00000000
00010000
00000100
00001000
00000000
,
00000002
00000000
00000100
00000103
,
00000010
00010000
00000010
00010000
00000010
00010000
00001000
00000000
,
02000000
00000000
03200000
00000000
,
20300000
00000000
32000000
00000000
,
03100000
00001000
00010000
00000010
,
00000100
00000010
00000100
00000000
00000001
00001000
00000001
00000000
,
00001000
00000100
00001000
00000100
00010000
00001000
00010000
00001000
,
02000000
00000000
03200000
00000000
10300000
00100000
01000000
00000000
,
00001000
00000000
00000000
00001000
00000000
00000000
00001000
00000000
00000000
00001000
00000000
00000000
00001000
00000000
00000000
00000000
,
00020200
00000000
00000000
00030300
,
00001000
00000000
00000000
00001000
00000000
00000000
00001000
00000000
00000000
00001000
00000000
00000000
00001000
00000000
00000000
00000000
,
00000001
00000000
00000000
00000001
00000000
00000000
00000001
00000000
00000000
00000002
00000000
00000000
00000003
00000000
00000000
00000000
,
00001000
00000000
00001000
00000000
00000000
00000000
00001000
00000000
00000000
00001000
00000000
00000000
00000000
00000000
00000000
00000000
,
00010100
00000000
00000000
00101000
00000000
00000000
20020000
00000000
,
00000000
00000000
00000000
00000000
,
30030000
00000000
00000000
00000000
;

//--------------- dance-double - Talkion-DDP----------------
#NOTES:
     dance-double:
     Talkion:
     Medium:
     13:
     0,0,0,0,0:
00000000
00000000
00000000
00000000
,
00000000
00000000
00000000
00000000
,
00000000
00000000
00000000
00000000
,
00000000
00000000
00000000
00000000
,
10000000
00000000
01000000
00000000
10000000
01000000
00100000
00000000
,
00001000
00000000
00010000
00000000
00001000
00010000
00000100
00000000
,
00001000
00000000
00000001
00000000
00000010
00000100
00001000
00000000
,
00000010
00000100
00001000
00000000
00000010
00000100
00001000
00000000
,
00000001
00000000
00000100
00000000
00000001
00000100
00000010
00000000
,
00010000
00000000
00001000
00000000
00010000
00001000
01000000
00000000
,
00010000
00000000
10000000
00000000
00100000
01000000
00010000
00000000
,
00100000
01000000
00010000
00000000
00100000
10000000
01000000
00100000
,
00002000
00000000
00010000
00000000
00013000
00000010
00001000
00000000
,
00000001
00000000
00000010
00000000
00000001
00000010
00000100
00000000
,
00010000
00000000
00001000
00000000
00100000
00010000
10000000
00000000
,
00100000
00000000
00100000
01000000
00000000
01000000
00002000
00000000
00000000
00023000
00000000
00000000
,
00030100
00000000
00000100
00000000
00001000
00000001
00000100
00000000
,
00001000
00000000
00001000
00000000
00010000
00001000
01000000
00000000
,
00100000
00000000
10000000
00100000
00100000
00010000
01000000
00000000
,
00001000
00010000
00000100
00001000
00000001
00000010
00000100
00010000
,
00000020
00000000
00001000
00000030
00020000
00000000
00001000
00030000
,
00000020
00000000
00001000
00000030
00020000
00000000
00001000
00030000
,
00000010
00000000
00000000
00000000
00010000
00000000
00001000
00000000
01000000
00000000
00000000
01000000
00010000
00000000
10000000
00000000
,
00100000
00010000
00100000
01000000
00001000
00010000
00000010
00001000
,
00000001
00000000
00000020
00000100
00000000
00000100
00000000
00000130
,
00010000
00000000
00001000
00100000
00001000
00100000
00010000
00100000
,
10000000
00000000
00100000
00000000
00010000
00000000
10000000
00100000
,
01000000
00010000
00001000
00000010
00000100
00000001
00001000
00000000
,
00000200
00000000
00001000
00000300
00020000
00000000
00001000
00030000
,
00000200
00000000
00001000
00000300
02000000
00000000
00010000
03000000
,
00000100
00000000
00000000
00000000
00010000
00000000
00001000
00000000
00100000
00000000
00000000
00100000
00010000
00000000
10000000
00000000
,
01000000
00010000
01000000
00100000
00001000
00010000
00000100
00001000
,
00000001
00000000
00000200
00000010
00000000
00000010
00000000
00000310
,
00010000
00010000
00001000
00000000
00010000
01000000
00100000
01000000
,
10000000
00010000
01000000
00100000
00010000
00100000
01000000
00001000
,
00010000
00000100
00000010
00000001
00000100
00000020
00001030
00010000
,
00000000
00000000
00000000
00000000
,
00000000
00000000
00000000
00000000
,
00000000
00000000
00000000
00000000
,
00000000
00000000
00000000
00000000
,
00000000
00000000
00000000
00000000
,
00000000
00000000
00000000
00000000
,
00000000
00000000
00000000
00000000
,
00000000
00000000
00000000
00000000
,
11000000
00000000
00000000
01010000
00000000
00000000
00011000
00000000
,
00000000
00001010
00000000
00000000
00000011
00000000
00000000
00000000
,
00000101
00000000
00000000
00001100
00000000
00000000
00011000
00000000
,
00000000
00000000
00110000
00000000
00000000
00000000
00000000
00000000
00000000
00000000
00100000
01000000
00100000
00000000
00000000
00000000
,
10100000
00000000
00000000
00110000
00000000
00000000
00011000
00000000
,
00000000
00001100
00000000
00000000
00000101
00000000
00000000
00000000
,
00000001
00000000
00000000
00000100
00000000
00000000
00001000
00000000
00000000
00000010
00000000
00000000
00000001
00000000
00000000
00000000
,
00001000
00000000
00000100
00000000
00010000
00000100
00010000
00000000
00001000
00000000
00001000
00000000
01000000
00000000
00100000
00000000
,
01100000
00000000
00000000
01000000
10010000
00000000
00010000
00100000
,
00001000
00001000
00002000
00000000
00023000
00000000
00030200
00000000
,
00000320
00000000
00000001
00000001
00000002
00000000
00000033
00000000
,
00002000
00003100
00000002
00000103
,
00001000
00000100
00000010
00001000
00010000
01000000
00100000
00010000
,
20000000
00000000
00000000
00000000
30020000
00000000
00000000
00000000
01030000
00000000
00001000
00010000
00000000
00001000
00010000
00000000
,
00000010
00000000
00001000
00000010
00000010
00000001
00000100
00000000
,
00000010
00000010
00000010
00020000
,
00031000
00000010
00001000
00000000
00000010
00000001
00000010
00000000
,
00000001
00000100
00000001
00000000
00000100
00001000
00000100
00000000
,
00001000
01000000
00010000
00000000
01000000
00001000
00010000
00000000
,
00001000
00010000
00100000
10000000
00100000
01000000
00001000
00000000
,
00010000
00100000
00010000
00000000
00100000
10000000
00100000
00000000
,
10000000
01000000
10000000
00000000
01000000
00010000
01000000
00000000
,
00010000
00000100
00001000
00000000
00000100
00010000
00001000
00000000
,
00010000
00001000
00000010
00000001
00000010
00000100
00010000
00000000
,
00001000
00000010
00001000
00000000
00000010
00000001
00000010
00000000
,
00000001
00000100
00000001
00000000
00000100
00001000
00000100
00000000
,
00002000
02003000
23000000
32000000
,
03010000
01000000
00100000
10000000
01000000
00100000
00001000
00000000
,
00010000
00000000
00000010
00001000
00000010
00000000
00010000
00001000
00010000
00000000
00000010
00001000
00000010
00000000
00010000
00000000
,
00001000
00010000
00000200
00000000
00000320
00000000
00000031
00000000
,
00001000
00000000
00000200
00000000
00000000
00020300
00000000
00000000
02030000
00000000
00000000
03002000
00000000
00000000
00003100
00000000
,
00000010
00000000
00000000
00000010
00000000
00000000
00000001
00000000
00001000
00000000
00000010
00000000
00000100
00000000
00000000
00000000
,
00000001
00000000
00000100
00000000
00000001
00000100
00000010
00000000
,
00010000
00000000
00001000
00000000
00010000
00001000
01000000
00000000
,
00010000
00000000
10000000
00000000
00100000
01000000
00010000
00000000
,
00100000
01000000
00010000
00000000
00100000
01000000
00010000
00000000
,
10000000
00000000
01000000
00000000
10000000
01000000
00100000
00000000
,
00001000
00000000
00010000
00000000
00001000
00010000
00000100
00000000
,
00001000
00000000
00000001
00000000
00000010
00000100
00001000
00000000
,
00000010
00000100
00001000
00000000
00000010
00000100
00001000
00000000
,
00200000
00000000
00010000
00300000
00002000
00000000
00010000
00003000
,
00200000
00000000
00010000
00300000
00002000
00000000
00010000
00003000
,
00100000
00000000
00000000
00000000
00001000
00000000
00010000
00000000
00000100
00000000
00000000
00000100
00001000
00000000
00000001
00000000
,
00000010
00001000
00000010
00000100
00010000
00001000
00100000
00010000
,
10010000
00000000
10000000
00100000
00010000
00001000
00010000
01000000
,
10000000
00010000
01000000
00100000
00010000
00001000
00000100
00000010
,
00001000
00000000
00000001
00000000
00000010
00000000
00000100
00010000
,
00000010
00000100
00001000
00010000
00000010
00000100
00001000
00000000
,
02000000
00000000
00010000
03000000
00002000
00000000
00010000
00003000
,
02000000
00000000
00010000
03000000
00000200
00000000
00001000
00000300
,
01000000
00000000
00000000
00000000
00001000
00000000
00010000
00000000
00000010
00000000
00000000
00000010
00001000
00000000
00000001
00000000
,
00000100
00001000
00000100
00000010
00010000
00001000
01000000
00010000
,
10000000
01000000
00010000
00001000
00100000
00010000
00001000
00000100
,
00010000
00001000
00000010
00000001
00000100
00001000
00020000
00000000
,
00031000
00000000
00000000
00000100
00000000
00000000
00000001
00000000
00000000
00000010
00000000
00000000
00001000
00000000
00000000
00000000
,
00022000
00000000
00000000
00033000
,
00010000
00000000
00000000
01000000
00000000
00000000
10000000
00000000
00000000
00100000
00000000
00000000
00010000
00000000
00000000
00000000
,
00001000
00000000
00000000
00000100
00000000
00000000
00000001
00000000
00000000
00000010
00000000
00000000
00000000
00000000
00001000
00010000
,
00001000
00000000
00000000
00000010
00000000
00000000
00000001
00000000
00000000
00000100
00000000
00000000
00000000
00000000
00001000
00020000
,
00002000
00000000
00033000
02200000
00000000
03300000
20020000
00000000
,
00000000
00000000
00000000
00000000
,
30030000
00000000
00000000
00000000
;

//--------------- dance-double - Talkion-EDP----------------
#NOTES:
     dance-double:
     Talkion:
     Hard:
     17:
     0,0,0,0,0:
00000000
00000000
00000000
00000000
,
00000000
00000000
00000000
00000000
,
00000000
00000000
00000000
00000000
,
00000000
00000000
00000000
00000000
,
00010000
00000000
00010000
00000000
01000000
00100000
01000000
00010000
,
00001000
00000000
00001000
00000000
00000100
00000010
00000100
00001000
,
00010000
00000000
00001000
01000000
00010000
10000000
01000000
00100000
,
00001000
01000000
00010000
10000000
01000000
00100000
01000000
00010000
,
00001000
00000000
00001000
00000000
00000010
00000100
00000010
00001000
,
00010000
00000000
00010000
00000000
00100000
01000000
00100000
00010000
,
00001000
00000000
00010000
00000010
00001000
00000001
00000010
00000100
,
00010000
00000000
00000010
00000000
00001000
00000000
00000001
00000000
00000010
00000000
00001000
00000000
00010000
00001000
00010000
00001000
,
00020000
00000000
00001000
00000000
01030000
00100000
01000000
00010000
,
00001000
00000000
00001000
00000000
00000100
00000010
00000100
00001000
,
00010000
00000000
00001000
01000000
00010000
10000000
01000000
00100000
,
00001000
00000000
00010000
00000000
00001000
00000000
00010000
00000000
00000000
00000000
00000010
00000000
00000100
00000000
00000000
00000000
00000000
00000000
00000001
00000000
00000000
00000100
00000000
00000000
,
00001000
00000000
00001000
00000000
00010000
00100000
10000000
01000000
,
00010000
00000000
00010000
00000000
00001000
00000010
00000001
00000100
,
00001000
00000000
00011000
00010000
00100000
10000000
10010000
00000000
,
00010000
00100000
00010000
00100000
00001000
00010000
00001000
00010000
00000100
00001000
00000100
00001000
00000001
00000010
00000001
00000010
,
00000200
00000000
00001000
00000300
02000000
00000000
00010000
03000000
,
00000020
00000000
00001000
00000030
00200000
00000000
00010000
00300000
,
00000100
00000000
00000000
00000000
00000010
00000000
00000100
00000000
00001000
00000000
00000000
00001000
00000001
00000000
00000100
00000010
,
00000100
00000000
00001000
00000000
00010000
00001000
00010000
00000000
00001000
00000000
00100000
00010000
00100000
00000000
00010000
00000000
,
10000000
00000000
00100000
00010000
00100000
00010000
00000000
00010000
,
00001000
00000000
00000000
00000000
00010000
00000000
00000100
00001000
00000100
00000000
00010000
00001000
00010000
00000000
00000100
00001000
,
00000002
00000000
00000000
00000000
00000100
00000000
00000000
00000000
00001003
00000000
00000000
00000000
00000010
00000000
00010000
00001000
,
00020000
00000000
02030000
00000000
03200000
00000000
20300000
00000000
30100000
00000000
00010000
00000000
10000000
00010000
10000000
00010000
,
02000000
00000000
00010000
03000000
00000200
00000000
00001000
00000300
,
00200000
00000000
00010000
00300000
00000020
00000000
00001000
00000030
,
01000000
00000000
00000000
00000000
00100000
00000000
01000000
00000000
00010000
00000000
00000000
00010000
10000000
00000000
01000000
00000000
,
00010000
00000000
00001000
00000000
00000010
00000100
00000010
00000000
00000001
00000000
00001000
00000010
00001000
00000000
00000001
00000000
,
00000100
00000000
00001000
00010000
00001000
00010000
00000000
00010000
,
00100000
00000000
00100000
00000000
01000000
00000000
00000000
00000000
00010000
01000000
00010000
01000000
00001000
00010000
00001000
00010000
,
00000010
00000100
00000001
00000100
00001000
00000100
00000010
00001000
,
00000001
00001000
00000100
00000000
00001000
00000100
00010000
00000000
00001000
00100000
00001000
00200000
00310000
10000000
01000000
00100000
,
00000000
00000000
00000000
00000000
,
00000000
00000000
00000000
00000000
,
00000000
00000000
00000000
00000000
,
00000000
00000000
00000000
00000000
,
00000000
00000000
00000000
00000000
,
00000000
00000000
00000000
00000000
,
00000000
00000000
00000000
00000000
,
00001000
00010000
00001000
00010000
00000100
00001000
00000100
00001000
00000001
00000100
00000001
00000100
00000010
00001000
00000001
00000100
,
00000010
00000000
00000000
00011000
00000000
00000000
10010000
00000000
,
00000000
00011000
00000000
00000000
00001001
00000000
00000000
00000000
,
00000110
00000000
00000000
00011000
00000000
00000000
10010000
00000000
,
00000000
00000000
00022000
00000000
00000000
00000000
00000000
00000000
00033000
00000000
00010000
00001000
00011000
00000000
00000000
00000000
,
01100000
00000000
00000000
00011000
00000000
00000000
00001001
00000000
,
00000000
00011000
00000000
00000000
10010000
00000000
00000000
00000000
,
10000000
00000000
00000000
00010000
00000000
00000000
00001000
00000000
00000000
00000001
00000000
00000000
00000020
00000000
00000000
00000000
,
00000130
00000000
00000100
00000000
00010000
00001000
00010000
00000000
00001000
01000000
00001000
01000000
00010000
00000000
10000000
00000000
,
10100000
00000000
00000000
00100000
01010000
00000000
02000000
00010000
,
03001000
00000000
00000000
00000000
00000000
00000000
00010000
00000000
00001000
00000000
00010000
00000000
00002000
00000000
00000000
00000000
00000000
00000000
00000000
00000000
00000000
00000000
00000000
00000000
00013000
00000000
00000000
00000100
00000000
00000000
00010000
00000000
00000000
00000100
00000000
00000000
00001000
00000000
00000000
00000000
00000000
00000000
00000001
00000000
00000000
00000010
00000000
00000000
,
00000100
00001000
00000001
00000000
00000100
00000000
00000100
00000000
00002000
00000000
00000000
00000000
00003000
00000000
00000000
00000000
,
02001000
03010000
12000000
03100000
,
00001000
00010000
00001000
00010000
00000100
00000000
00001000
00000000
00000001
00000100
00000001
00000100
00000010
00001000
00000001
00000000
,
00000200
00000000
00000000
00000000
00020300
00000000
00000000
00000000
01030000
00000000
00100000
01000000
00000000
00100000
01000000
00010000
,
10000000
00000000
10010000
10000000
01000000
00010000
00011000
00000000
,
00000010
00000100
00000010
00011000
,
00010000
01000000
00010000
00000000
01000000
10000000
01000000
00000000
,
10000000
00100000
10000000
00000000
00100000
00010000
00100000
00000000
,
00010000
00001000
00000010
00001000
00010000
00001000
00000010
00001000
,
00010000
00000000
00000010
00001000
00000010
00000000
00000100
00000010
00001000
00000000
00000010
00000000
00010000
00000000
00000000
00000000
,
00001000
00000100
00001000
00000000
00000100
00000001
00000100
00000000
,
00000001
00000010
00000001
00000000
00000010
00001000
00000010
00000000
,
00001000
00010000
00100000
00010000
00001000
00010000
00100000
00010000
,
00001000
00000000
00100000
01000000
00100000
00000000
01000000
00100000
00010000
00000000
00100000
00000000
00001000
00000000
00000000
00000000
,
00010000
01000000
00010000
00000000
01000000
10000000
01000000
00000000
,
10000000
00100000
10000000
00000000
00100000
00010000
00100000
00000000
,
00010000
00001000
00000010
00001000
00010000
00001000
00000100
00000001
,
00000010
00000000
00000100
00001000
00000001
00000010
00000100
00000000
00010000
00000000
00001000
01000000
00010000
00000000
10000000
00000000
,
00100000
00000000
00100000
00010000
00100000
00000000
00100000
10000000
00100000
00000000
00100000
00010000
00100000
00000000
00100000
10000000
,
00100000
00000000
01000000
00010000
01000000
00010000
01000000
00000000
00002000
00000000
00000000
00000000
00013000
00000000
00000000
00000000
,
00000100
00001000
00000001
00000000
00001000
00000010
00000000
00000001
00000010
00000000
00001000
00000010
00000000
00000001
00000010
00000000
,
00001000
00000000
00000100
00010000
00000000
00001000
00010000
00001000
00000000
00100000
00010000
00100000
00010000
10000000
01000000
00100000
,
00001000
00000000
00001000
00000000
00000010
00000100
00000010
00001000
,
00010000
00000000
00010000
00000000
00100000
01000000
00100000
00010000
,
00001000
00000000
00010000
00000010
00001000
00000001
00000010
00000100
,
00010000
00000010
00001000
00000001
00000010
00000100
00010000
00010000
,
00001000
00000000
00001000
00000000
00000100
00000010
00000100
00001000
,
00010000
00000000
00010000
00000000
01000000
00100000
01000000
00010000
,
00001000
00000000
00010000
00000100
00001000
00000001
00000100
00000010
,
00010000
00001000
00010000
00000000
00001000
00000000
01000000
00000000
00100000
00000000
10000000
00000000
00010000
00000000
00000000
00000000
,
02000000
00000000
00010000
03000000
00000200
00000000
00001000
00000300
,
00200000
00000000
00010000
00300000
00000020
00000000
00001000
00000030
,
01000000
00000000
00000000
00000000
00100000
00000000
01000000
00000000
00010000
00000000
00000000
00010000
10000000
00000000
01000000
00100000
,
01000000
00000000
00000000
00000000
00000000
00000000
00100000
00000000
00001000
00000000
00100000
00000000
00001000
00000000
00000000
00010000
00000000
00000000
00000100
00000000
00000000
00000000
00000000
00000000
00001000
00000000
00000000
00000000
00000000
00000000
00000001
00000000
00000000
00000100
00000000
00000000
00000010
00000000
00000000
00000000
00000000
00000000
00001000
00000000
00000000
00000000
00000000
00000000
,
00001001
00000000
00000000
00000000
00000001
00000000
00000010
00000000
00000100
00000010
00000100
00000010
00001000
00000000
00010000
00000000
,
00001000
00100000
00001000
00100000
00010000
10000000
00010000
10000000
00100000
01000000
00010000
10000000
00100000
01000000
00100000
10000000
,
00010000
00000000
00100000
00001000
00010000
00000100
00000010
00000100
,
00000001
00000100
00000010
00000001
00001000
00000100
00001000
00000100
00010000
00000000
00000100
00000000
00000010
00000000
00000000
00000000
,
00000200
00000000
00001000
00000300
02000000
00000000
00010000
03000000
,
00000020
00000000
00001000
00000030
00200000
00000000
00010000
00300000
,
00000100
00000000
00000000
00000000
00000010
00000000
00000100
00000000
00001000
00000000
00000000
00001000
00000001
00000000
00000100
00000000
,
00001000
00000000
00000000
00000000
00000000
00000000
00010000
00000000
00001000
00000000
00010000
00000000
00001000
00000000
00000000
00100000
00000000
00000000
00010000
00000000
00000000
00000000
00000000
00000000
10000000
00000000
00000000
00000000
00000000
00000000
00100000
00000000
00000000
01000000
00000000
00000000
00100000
00000000
00000000
00000000
00000000
00000000
10000000
00000000
00000000
00000000
00000000
00000000
,
00010000
00100000
00001000
00010000
00001000
00100000
00010000
00100000
00001000
00010000
00000010
00001000
00000001
00000000
00000010
00000000
,
00000100
00010000
00000100
00010000
00001000
01000000
00001000
01000000
00010000
10000000
00100000
01000000
00002000
00000000
00000000
00000000
,
00013000
00000000
00000000
00001000
00000000
00000000
00000001
00000000
00000000
00001000
00000000
00000000
00010000
00000000
00000000
00000000
,
00001000
01000000
00001000
01000000
00010000
10000000
00010000
10000000
00100000
01000000
00100000
01000000
00010000
10000000
01000000
00100000
,
00010000
00000000
00000000
00001000
00000000
00000000
00000001
00000000
00000000
00001000
00000000
00000000
00010000
00000000
00000000
00000000
,
10000000
00000000
00000000
00010000
00000000
00000000
00001000
00000000
00000000
00000020
00000000
00000000
00000030
00000000
00000010
00000100
,
00000010
00000000
00000000
00000000
00000000
00000000
00000000
00000000
00000000
00010000
00000000
00000000
00000000
00000000
00000000
00000000
00000000
00000000
00100000
00000000
00000000
00000000
00000000
00000000
00000000
00000000
00000000
00001000
00000000
00000000
00000000
00000000
00000000
00000000
00000000
00000000
00000000
00000000
00000000
00000000
00000000
00000000
00010000
00000000
00001000
00000000
00020000
00000000
,
00002000
00000000
00033000
02200000
00000000
03300000
20020000
00000000
,
00000000
00000000
00000000
00000000
,
30030000
00000000
00000000
00000000
;
