#TITLE:7 Colors;
#ARTIST:kors k feat. 吉河順央;
#ARTISTTRANSLIT:kors k feat. Sunao Yoshikawa;
#BANNER:7 Colors.png;
#BACKGROUND:7 Colors-bg.png;
#MUSIC:7 Colors.ogg;
#OFFSET:1.056462;
#SAMPLESTART:52.403;
#SAMPLELENGTH:15;
#BPMS:0=156;

//---------------dance-single - NewbStepper-ESP----------------
#NOTES:
     dance-single:
     NewbStepper:
     Hard:
     10:
     0.466083,0.529427,0.296598,0.138412,0.024717,330,300,30,14,0,0,0.466083,0.529427,0.296598,0.138412,0.024717,330,300,30,14,0,0:
0000
0000
0000
0000
,
0000
0000
0000
0000
,
0000
0000
0000
0000
,
0000
0000
0000
0000
,
0000
0000
0000
0000
,
0000
0000
0000
0000
,
0011
0000
0100
0000
1000
0010
1000
0000
,
1100
0000
0010
0000
0001
0100
0001
0000
,
1020
0100
1000
0130
,
0101
0000
0000
0101
0000
0000
0101
0000
0000
0000
0000
0000
0000
0000
0000
0000
,
1010
0000
0100
0000
0001
0010
1000
0000
,
0010
0001
0100
0000
0010
1000
0001
0000
,
0101
0000
0010
0000
1000
0100
0001
0000
,
0100
1000
0100
0010
0001
0000
1001
0000
,
0011
0000
0100
0000
1000
0010
0001
0000
,
0010
1000
0100
0000
0010
0001
1000
0000
,
1100
0000
0010
0000
0001
0100
1000
0000
,
0100
0010
1000
0010
0100
0001
0100
0010
,
1000
0000
0001
0100
0020
0000
0130
0000
,
0001
0000
1000
0100
0020
0000
0130
0000
,
1000
0100
0010
0100
1000
0010
0100
0001
,
0000
0010
1000
0010
0001
0000
1000
0000
,
0001
0000
1000
0010
0200
0000
0310
0000
,
1000
0000
0001
0010
0200
0000
0310
0000
,
0001
0100
0010
1000
0001
0010
0100
1000
,
0000
1000
0100
0000
0010
0000
0010
0000
,
0200
0010
1000
0001
,
0320
0100
0001
1000
,
0031
0000
1000
0010
0000
0100
0000
0001
,
0000
1000
0010
0001
0000
0010
0010
0000
,
1000
0010
1000
0100
0020
0000
0030
0000
,
0001
0100
0001
0010
0100
0000
1000
0010
,
0100
0000
0001
0100
0000
0110
0000
1001
,
0000
1000
0100
0000
0010
0001
0100
0010
,
0110
0000
0000
0000
,
1001
0000
0100
0010
0100
0000
0001
0100
,
1000
0100
0001
0100
0010
0000
1000
0100
,
0010
0000
0001
0100
0010
0000
1000
0001
,
0100
0001
1000
0100
0010
0000
0001
0000
,
1001
0000
0100
0010
0100
0000
1000
0100
,
0001
0100
1000
0100
0010
0000
0001
0000
,
0202
0000
0000
0303
,
0010
0000
0000
1000
0000
0000
0100
0000
0000
0000
0000
0000
1000
0000
0001
0000
,
1001
0000
1000
0100
0010
0100
1000
0001
,
0100
1000
0100
0001
0010
0000
0110
0000
,
1001
0000
0001
0100
0010
0100
0001
1000
,
0100
0001
0100
1000
0010
0000
0110
0000
,
1001
0000
0010
0100
0001
0100
0010
1000
,
0100
0010
0001
0100
0010
0000
1000
0000
,
2200
0000
0000
3300
,
0010
0000
0000
0001
0000
0000
0100
0000
0000
0000
0000
0000
0010
0000
0000
0000
,
0101
0000
1100
0000
,
0010
0000
0000
0000
0010
0000
0000
0000
0001
1000
0001
1000
0001
0000
0000
0000
,
0011
0000
0100
0000
1000
0010
0001
0000
,
0010
1000
0100
0000
0010
0001
1000
0000
,
1100
0000
0010
0000
0001
0100
1000
0000
,
0100
0001
0100
0010
1000
0000
1001
0000
,
1010
0000
0100
0000
0001
0010
1000
0000
,
0010
0001
0100
0000
0010
1000
0001
0000
,
0101
0000
0010
0000
1000
0100
0001
0000
,
0100
0010
0001
0010
0100
1000
0100
0010
,
0002
0000
0000
0003
,
1000
0100
1000
0100
0010
0001
0020
0000
,
0030
0000
0000
0000
;

//---------------dance-single - NewbStepper-CSP----------------
#NOTES:
     dance-single:
     NewbStepper:
     Challenge:
     13:
     0.645454,0.685141,0.425124,0.088979,0.528933,457,414,43,9,0,0,0.645454,0.685141,0.425124,0.088979,0.528933,457,414,43,9,0,0:
0000
0000
0000
0000
,
0000
0000
0000
0000
,
0000
0000
0000
0000
,
0000
0000
0000
0000
,
0000
0000
0000
0000
,
0000
0000
0000
0000
,
0011
0000
0100
0000
1000
0010
0001
0010
,
1010
0000
0000
0000
0100
0000
0000
0000
0001
0000
1000
0000
0001
0010
0100
1000
,
0001
0100
1000
0001
0010
1000
0100
0010
,
0110
0000
0000
0101
0000
0000
1100
0000
0000
0000
0000
0000
0000
0000
0000
0000
,
0010
0000
0000
0010
0000
0000
1000
0000
0000
1000
0000
0000
0100
0000
0010
0000
,
0100
1000
0100
0010
0001
0000
0000
0000
0101
0000
0000
0110
0000
0000
0101
0000
,
0010
0000
0000
1000
0000
0000
0001
0000
0000
1000
0000
0000
0001
0000
0010
0000
,
0001
1000
0010
1000
0001
0000
0100
0000
0110
0000
0000
0000
1000
0001
1000
0001
,
0010
0000
0000
0010
0000
0000
0001
0000
0000
0001
0000
0000
0100
0000
0010
0000
,
0100
0001
0100
0010
1000
0000
0000
0000
1100
0000
0000
0110
0000
0000
1100
0000
,
0010
0000
0000
0001
0000
0000
1000
0000
0000
0001
0000
0000
0010
0000
0001
0000
,
1000
0010
1000
0010
0100
0000
0001
0010
0001
0010
0100
0000
1000
0000
0001
0000
,
1000
0000
0100
0000
0010
0000
0001
0100
0000
0001
0100
0000
0010
0000
1000
0000
,
0001
0000
0100
0000
0010
0000
1000
0100
0000
1000
0100
0000
0010
0000
0000
0000
,
0001
0000
0100
0000
1000
0000
0100
0001
0000
0001
0010
0000
0100
0000
0110
0000
,
0000
0001
0100
0010
1000
0100
0010
0000
,
0001
0000
0100
0000
0010
0000
1000
0100
0000
1000
0100
0000
0010
0000
0001
0000
,
1000
0100
0010
0001
0010
0000
0001
0000
0100
0000
0000
0000
0001
0100
0010
1000
,
0010
1000
0100
0001
0100
1000
0010
0100
,
0002
0000
0003
0000
1000
0100
0010
0001
,
0201
0000
1000
1000
0000
0001
0000
0010
,
0000
0000
0010
0000
0310
0000
0000
0000
0001
0100
0001
0100
0010
1000
0010
1000
,
0200
0000
1000
1000
0000
0001
0000
0310
,
0000
1000
0001
1001
0000
0110
0110
0000
,
0001
0000
0100
0000
1000
0000
0100
0001
0000
0001
0010
0000
0110
0000
0000
0000
,
1000
0000
0100
0000
0001
0000
0100
1000
0000
1000
0010
0000
0110
0000
0000
0000
,
0001
0100
1000
1100
0000
0101
0000
0110
,
1000
0000
0001
0000
0010
0001
0010
0000
0100
1000
0100
0000
0010
0001
1000
0010
,
0100
0000
0000
0000
,
0101
0000
0000
0000
1000
0000
0010
1000
0000
0010
1000
0000
0100
0000
0001
0000
,
0100
0000
1000
0000
0010
0000
0100
0001
0000
0000
0000
0000
0010
0000
0100
0000
,
1001
0000
0000
0000
0010
0000
0001
0100
0000
0001
0100
0000
1000
0000
0100
0000
,
0010
0000
1000
0000
0001
0000
0010
0100
0000
0010
0100
0000
0010
0001
0010
0100
,
1000
0000
0000
0000
0001
0000
0010
0001
0000
0010
0001
0000
0100
0000
1000
0000
,
0100
0001
0010
0100
1000
0000
0010
0000
,
2020
0000
0000
3030
,
0101
0000
0000
0010
0000
0000
1001
0000
0000
0000
0000
0000
1000
0010
1000
0010
,
0100
0000
0000
0000
0001
0000
0100
0010
0000
0100
0001
0000
1000
0000
0010
0000
,
0001
0000
0010
0000
0100
0000
0010
1000
0000
1000
0100
0000
0010
0001
0010
0000
,
0100
0000
0000
0000
1000
0000
0100
0010
0000
0100
1000
0000
0001
0000
0010
0000
,
1000
0000
0010
0000
0100
0000
0010
0001
0000
0001
0100
0000
0010
1000
0010
0100
,
0001
0000
0000
0000
1000
0000
0010
0100
0000
0010
1000
0000
0010
0000
0100
0000
,
0001
0010
0100
1000
1100
0000
0011
0000
,
2002
0000
0000
0000
0000
0000
0000
0000
3003
0000
0000
0000
0010
0001
0010
0001
,
1000
0000
0000
0001
0000
0000
1001
0000
0000
0000
0000
0000
0110
0000
0010
0000
,
1010
0000
0000
0110
0000
0000
0000
0000
0011
0000
0000
0110
0000
0000
0000
0000
,
0001
0000
0000
0000
1000
0000
0000
0000
0100
0010
0100
0010
0100
0000
0000
0000
,
0010
0000
0000
0010
0000
0000
0001
0000
0000
0001
0000
0000
0100
0000
0010
0000
,
0100
0001
0100
0010
1000
0000
0000
0000
1100
0000
0000
0110
0000
0000
1100
0000
,
0010
0000
0000
0001
0000
0000
1000
0000
0000
0001
0000
0000
1000
0000
0010
0000
,
1000
0001
0010
0001
1000
0000
0100
0000
0110
0000
0000
0000
0001
1000
0001
1000
,
0010
0000
0000
0010
0000
0000
1000
0000
0000
1000
0000
0000
0100
0000
0010
0000
,
0100
1000
0100
0010
0001
0000
0000
0000
0101
0000
0000
0110
0000
0000
0101
0000
,
0010
0000
0000
1000
0000
0000
0001
0000
0000
1000
0000
0000
0010
0000
1000
0000
,
0001
0010
0001
0010
0100
0000
1000
0010
1000
0010
0100
0000
0001
0000
1000
0000
,
0002
0000
0000
0003
,
1000
0000
0100
0000
0010
0000
0001
0000
1000
0010
0100
0001
0200
0000
0000
0000
,
0300
0000
0000
0000
;

//---------------dance-single - NewbSteper-DSP----------------
#NOTES:
     dance-single:
     NewbStepper:
     Medium:
     7:
     0.302247,0.372230,0.118639,0.257052,0,214,202,12,26,0,0,0.302247,0.372230,0.118639,0.257052,0,214,202,12,26,0,0:
0000
0000
0000
0000
,
0000
0000
0000
0000
,
0000
0000
0000
0000
,
0000
0000
0000
0000
,
0000
0000
0000
0000
,
0000
0000
0000
0000
,
1001
0100
0010
1000
,
0110
0100
0010
0001
,
1001
0000
0000
0000
,
2020
0000
0000
3030
,
0001
0001
0100
0100
,
0010
0100
0010
0000
1000
0000
0000
0000
,
1000
1000
0100
0100
,
0010
0100
0010
0000
0001
0000
0000
0000
,
1000
0100
1000
0010
,
0100
0001
0100
0000
0001
0000
0000
0000
,
0001
0100
0001
0010
,
0100
0100
0000
0010
0010
0000
0100
0000
,
1000
0010
0001
0000
,
1000
0100
0001
0000
,
0010
0001
0100
1000
,
0100
0001
0010
0000
,
0001
0010
1000
0000
,
0001
0100
1000
0000
,
0010
1000
0100
0010
,
0001
0000
0000
0000
1000
0010
1000
0000
,
0100
0100
0010
0100
,
1000
0000
0000
0000
0001
0100
0001
0000
,
0010
1000
0100
0001
,
0010
1000
0100
0000
,
0001
0010
0001
0000
0100
0000
0000
0000
,
1000
0010
1000
0000
0100
0000
0000
0000
,
0001
0000
1000
1000
0000
0001
0000
0200
,
0000
0010
0010
0310
,
0110
0000
0000
0000
,
2000
3010
0002
0013
,
1000
0100
1000
0000
0001
0000
0000
0000
,
0002
0013
2000
3010
,
0001
0100
0001
0000
0010
0000
0000
0000
,
2000
3100
0002
0013
,
2000
3001
0020
0130
,
2002
0000
0000
3003
,
1010
0000
0000
0101
0000
0000
0000
0000
,
0002
0103
2000
3100
,
0001
0010
0001
0000
1000
0000
0000
0000
,
2000
3100
0002
0103
,
1000
0010
1000
0000
0100
0000
0000
0000
,
0002
0013
2000
3100
,
0002
1003
0200
0310
,
2002
0000
0000
3003
,
0011
0000
0000
1100
0000
0000
0010
0000
,
0002
0003
2000
3000
,
0010
0010
0010
1001
,
1000
1000
0100
0100
,
0010
0100
0010
0000
1000
0000
0000
0000
,
0001
0001
0100
0100
,
0010
0100
0010
0000
1000
0000
0000
0000
,
0001
0100
0001
0010
,
0100
1000
0100
0000
1000
0000
0000
0000
,
1000
0100
1000
0010
,
0100
0100
0000
0010
0010
0000
0100
0000
,
0002
0000
0000
0003
,
0010
0000
0100
0000
1000
0001
1000
0000
;

//---------------dance-single - NewbStepper-BSP----------------
#NOTES:
     dance-single:
     NewbStepper:
     Easy:
     4:
     0.206206,0.248154,0.049433,0.059320,0,146,141,5,6,0,0,0.206206,0.248154,0.049433,0.059320,0,146,141,5,6,0,0:
0000
0000
0000
0000
,
0000
0000
0000
0000
,
0000
0000
0000
0000
,
0000
0000
0000
0000
,
0000
0000
0000
0000
,
0000
0000
0000
0000
,
0001
0000
0000
0000
,
1000
0000
0000
0000
,
0002
0000
0003
0000
,
1001
0000
0000
0000
,
1000
1000
0100
0000
,
0001
0001
0100
0000
,
1000
1000
0010
0000
,
0001
0001
0010
0000
,
1000
0100
0010
0000
,
0001
0100
0010
0000
,
1000
0000
0001
0000
,
0010
0010
0100
0100
,
0010
0001
0100
0000
,
0010
1000
0100
0000
,
0010
0000
0010
0000
,
0001
1000
0001
0000
,
0010
0001
0100
0000
,
0010
1000
0100
0000
,
0010
0001
1000
0001
,
0100
0000
0010
0000
,
0100
0000
0000
0001
0000
1000
0000
1000
,
0000
0000
0000
0000
,
0100
0000
0000
1000
0000
0001
0000
0001
,
0000
0000
0100
0000
,
0010
0010
1000
0000
,
0010
0010
0001
0000
,
0010
0000
1000
0000
,
2002
0000
0000
0000
,
3003
0000
0000
0000
,
0010
0000
0001
0000
,
1000
0010
0100
0000
,
0010
0000
1000
0000
,
0001
0010
0100
0000
,
1000
0000
0001
0000
,
1000
0100
0001
0100
,
2000
0000
3000
0000
,
0001
0100
0010
0000
,
1000
0000
0010
0000
,
0100
0001
0010
0000
,
0001
0000
0010
0000
,
0100
1000
0010
0000
,
1000
0000
0001
0000
,
0100
1000
0100
0001
,
0020
0000
0030
0000
,
0110
0000
0000
0000
,
1001
0000
1001
0000
,
0010
0010
0100
0000
,
0001
0001
0100
0000
,
1000
1000
0100
0000
,
0001
0001
0010
0000
,
1000
1000
0010
0000
,
0001
0100
0010
0000
,
1000
0100
0010
0000
,
0001
0000
1000
0000
,
0010
0010
0100
0100
,
0020
0000
0000
0030
,
1000
0001
1000
0001
;

//---------------dance-single - NewbStepper-bSP----------------
#NOTES:
     dance-single:
     NewbStepper:
     Beginner:
     1:
     0.091804,0.155096,0.039546,0.049433,0,65,61,4,5,0,0,0.091804,0.155096,0.039546,0.049433,0,65,61,4,5,0,0:
0000
0000
0000
0000
,
0000
0000
0000
0000
,
0000
0000
0000
0000
,
0000
0000
0000
0000
,
0000
0000
0000
0000
,
0000
0000
0000
0000
,
1000
0000
0000
0000
,
0001
0000
0000
0000
,
1000
0000
0000
0000
,
1001
0000
0000
0000
,
0001
0000
0000
0000
,
1000
0000
0000
0000
,
0001
0000
0000
0000
,
0001
0000
0000
0000
,
0100
0000
0000
0000
,
0010
0000
0000
0000
,
0100
0000
0000
0000
,
0100
0000
0000
0000
,
0001
0000
0000
0000
,
1000
0000
0000
0000
,
0010
0000
0000
0000
,
0001
0000
0000
0000
,
1000
0000
0000
0000
,
0100
0000
0000
0000
,
0001
0000
0000
0000
,
0010
0000
0000
0000
,
0002
0000
0000
0003
,
0000
0000
0000
0000
,
2000
0000
0000
3000
,
0000
0000
0000
0000
,
0001
0000
0000
0000
,
1000
0000
0000
0000
,
0001
0000
0000
0000
,
1000
0000
0000
0000
,
1001
0000
0000
0000
,
0001
0000
0000
0000
,
0000
0100
0100
0000
,
1000
0000
0000
0000
,
0000
0100
0100
0000
,
0001
0000
0000
0000
,
0000
0010
0010
0000
,
0200
0000
0300
0000
,
1001
0000
0000
0000
,
1000
0000
0000
0000
,
0000
0100
0100
0000
,
0001
0000
0000
0000
,
0000
0100
0100
0000
,
1000
0000
0000
0000
,
0000
0010
0010
0000
,
0200
0000
0300
0000
,
1001
0000
0000
0000
,
0010
0000
0100
0000
,
0010
0000
0000
0000
,
1000
0000
0000
0000
,
0001
0000
0000
0000
,
1000
0000
0000
0000
,
1000
0000
0000
0000
,
0100
0000
0000
0000
,
0010
0000
0000
0000
,
0100
0000
0000
0000
,
0100
0000
0000
0000
,
2000
0000
0000
0000
,
0000
0000
0000
3000
;

//---------------dance-double - NewbStepper-EDP----------------
#NOTES:
     dance-double:
     NewbStepper:
     Hard:
     10:
     0.453371,0.498285,0.257052,0.148299,0.014830,321,295,26,15,0,0,0.453371,0.498285,0.257052,0.148299,0.014830,321,295,26,15,0,0:
// measure 0
00000000
00000000
00000000
00000000
,  // measure 1
00000000
00000000
00000000
00000000
,  // measure 2
00000000
00000000
00000000
00000000
,  // measure 3
00000000
00000000
00000000
00000000
,  // measure 4
00000000
00000000
00000000
00000000
,  // measure 5
00000000
00000000
00000000
00000000
,  // measure 6
10100000
00000000
01000000
00000000
00010000
00100000
00010000
00000000
,  // measure 7
00110000
00000000
01000000
00000000
00001000
00010000
00001000
00000000
,  // measure 8
00000020
00000001
00000100
00000031
,  // measure 9
00001001
00000000
00000000
00001001
00000000
00000000
00001001
00000000
00000000
00000000
00000000
00000000
00000000
00000000
00000000
00000000
,  // measure 10
00001010
00000000
00000100
00000000
00000001
00000010
00001000
00000000
,  // measure 11
00010000
00100000
10000000
00000000
01000000
00100000
00010000
00000000
,  // measure 12
01010000
00000000
00100000
00000000
10000000
01000000
00010000
00000000
,  // measure 13
00001000
00100000
00010000
01000000
00001000
00000000
00100000
00000000
,  // measure 14
00110000
00000000
01000000
00000000
10000000
00100000
00010000
00000000
,  // measure 15
00001000
00000010
00000001
00000000
00000100
00000010
00001000
00000000
,  // measure 16
00001100
00000000
00000010
00000000
00000001
00000100
00001000
00000000
,  // measure 17
00010000
00001000
00100000
00001000
00010000
00000010
00010000
00001000
,  // measure 18
00100000
00000000
00010000
01000000
00200000
00000000
01300000
00000000
,  // measure 19
00100000
00000000
10000000
01000000
00200000
00000000
00310000
00000000
,  // measure 20
10000000
01000000
00010000
00000000
00001000
00000100
00000001
00000000
,  // measure 21
00000010
00000001
00000100
00000010
00001000
00000000
00001001
00000000
,  // measure 22
00000010
00000000
00001000
00000100
00000020
00000000
00000031
00000000
,  // measure 23
00000010
00000000
00000001
00000100
00000020
00000000
00001030
00000000
,  // measure 24
00000001
00000100
00000010
00000100
00001000
00010000
00100000
10000000
,  // measure 25
00010000
00000000
01000000
00000000
00100000
10000000
01000000
00100000
,  // measure 26
00020000
01000000
10000000
00100000
,  // measure 27
00032000
00000100
00000001
00000010
,  // measure 28
00023000
01000000
10000000
00100000
,  // measure 29
00032000
00000100
00000001
00000010
,  // measure 30
00013000
00000000
10000000
00100000
00010000
00000000
00000100
00000000
,  // measure 31
00001000
00000000
00000001
00000010
00001000
00000000
01000000
00000000
,  // measure 32
00010000
00000000
10000000
01000000
00000000
00110000
00000000
01000000
,  // measure 33
00000000
10000000
01000000
00010000
00001000
00000010
00000001
00000100
,  // measure 34
00000110
00000000
00000000
00000000
,  // measure 35
00001001
00000000
00000100
00000010
00000100
00000000
00000001
00000100
,  // measure 36
00001000
00010000
00100000
10000000
00010000
00000000
10000000
01000000
,  // measure 37
00100000
00000000
00010000
00000000
00001000
00000010
00000100
00000000
,  // measure 38
00000001
00000100
00001000
00010000
00001000
00000000
01000000
00000000
,  // measure 39
10010000
00000000
01000000
00100000
01000000
00000000
10000000
01000000
,  // measure 40
00010000
00001000
00000010
00000001
00001000
00000000
00000100
00000000
,  // measure 41
00002020
00000000
00000000
00003030
,  // measure 42
00000001
00000000
00000000
00001000
00000000
00000000
00000100
00000000
00000000
00000000
00000000
00000000
00000010
00000000
00001000
00000000
,  // measure 43
00011000
00000000
00100000
00010000
10000000
00100000
10000000
01000000
,  // measure 44
00010000
00001000
00000100
00000001
00001000
00000000
00000100
00000000
,  // measure 45
00001001
00000000
00000010
00001000
00000001
00000010
00000001
00000100
,  // measure 46
00001000
00010000
01000000
10000000
00010000
00000000
01000000
00000000
,  // measure 47
10010000
00000000
10000000
00010000
00100000
00001000
00010000
00000100
,  // measure 48
00000010
00000001
00000100
00001000
00010000
00000000
00001000
00000000
,  // measure 49
00022000
00000000
00000000
00033000
,  // measure 50
00010000
00000000
00000000
00001000
00000000
00000000
00100000
00000000
00000000
00000000
00000000
00000000
01000000
00000000
00000000
00000000
,  // measure 51
11000000
00000000
01010000
00000000
,  // measure 52
00100000
00000000
00100000
00000000
00010000
10000000
10010000
00000000
,  // measure 53
00110000
00000000
01000000
00000000
10000000
00100000
00010000
00000000
,  // measure 54
00001000
00000010
00000001
00000000
00000100
00000010
00001000
00000000
,  // measure 55
00001100
00000000
00000010
00000000
00000001
00000100
00001000
00000000
,  // measure 56
00010000
00000010
00001000
00000100
00010000
00000000
00000010
00000000
,  // measure 57
00001010
00000000
00000100
00000000
00000001
00000010
00001000
00000000
,  // measure 58
00010000
00100000
10000000
00000000
01000000
00100000
00010000
00000000
,  // measure 59
01010000
00000000
00100000
00000000
10000000
01000000
00010000
00000000
,  // measure 60
00001000
00010000
00000010
00010000
00001000
00100000
00001000
00010000
,  // measure 61
00000020
00000000
00000000
00000030
,  // measure 62
00001000
00000100
00001000
00000100
00000010
00000001
00000020
00000000
,  // measure 63
00000030
00000000
00000000
00000000
;

//---------------dance-double - NewbStepper-DDP----------------
#NOTES:
     dance-double:
     NewbStepper:
     Medium:
     7:
     0.290949,0.341211,0.118639,0.286711,0,206,194,12,29,0,0,0.290949,0.341211,0.118639,0.286711,0,206,194,12,29,0,0:
// measure 0
00000000
00000000
00000000
00000000
,  // measure 1
00000000
00000000
00000000
00000000
,  // measure 2
00000000
00000000
00000000
00000000
,  // measure 3
00000000
00000000
00000000
00000000
,  // measure 4
00000000
00000000
00000000
00000000
,  // measure 5
00000000
00000000
00000000
00000000
,  // measure 6
00001001
00000000
00000000
00000000
,  // measure 7
00011000
00000000
00000000
00000000
,  // measure 8
10010000
00000000
00000000
00000000
,  // measure 9
00220000
00000000
00000000
00330000
,  // measure 10
10000000
10000000
01000000
01000000
,  // measure 11
00010000
00001000
00010000
00000000
00000100
00000000
00000000
00000000
,  // measure 12
00010000
00000010
00001000
00000100
,  // measure 13
00001000
00000100
00001000
00000000
00000001
00000000
00000000
00000000
,  // measure 14
00000001
00000001
00000100
00000100
,  // measure 15
00001000
00010000
00001000
00000000
00010000
00000000
00000000
00000000
,  // measure 16
00001000
00100000
00001000
00010000
,  // measure 17
00100000
00100000
00000000
01000000
01000000
00000000
00100000
00000000
,  // measure 18
10000000
00100000
00010000
00000000
,  // measure 19
00001000
00000010
00000001
00000000
,  // measure 20
00001000
00000100
00000010
00000001
,  // measure 21
00001000
00000010
00000100
00000000
,  // measure 22
00000001
00000010
00001000
00000000
,  // measure 23
00010000
00100000
10000000
00000000
,  // measure 24
00100000
10000000
01000000
00100000
,  // measure 25
00010000
00000000
10000000
01000000
,  // measure 26
00020000
00001000
00100000
00031000
,  // measure 27
00010000
00000000
00000001
00000100
,  // measure 28
00002000
00010000
00000010
00013000
,  // measure 29
00001000
00100000
00010000
00000000
,  // measure 30
10000000
00100000
10000000
00000000
01000000
00000000
00000000
00000000
,  // measure 31
00010000
00001000
00010000
00000000
00000100
00000000
00000000
00000000
,  // measure 32
00000010
00000000
00000001
00000001
00000000
00001000
00000000
00000200
,  // measure 33
00000000
00000010
00000010
00000310
,  // measure 34
00000110
00000000
00000000
00000000
,  // measure 35
00002000
00003010
00000002
00000013
,  // measure 36
00001000
00000100
00001000
00000000
00010000
00000000
00000000
00000000
,  // measure 37
00020000
00130000
20000000
30100000
,  // measure 38
00010000
01000000
00010000
00000000
00001000
00000000
00000000
00000000
,  // measure 39
00000020
00001030
00020000
00031000
,  // measure 40
00000200
00001300
00020000
00130000
,  // measure 41
02200000
00000000
03300000
00000000
,  // measure 42
10100000
00000000
00000000
01010000
00000000
00000000
00000000
00000000
,  // measure 43
00020000
01030000
20000000
31000000
,  // measure 44
00010000
00100000
00010000
00000000
00001000
00000000
00000000
00000000
,  // measure 45
00002000
00003100
00000002
00000103
,  // measure 46
00001000
00000010
00001000
00000000
00010000
00000000
00000000
00000000
,  // measure 47
00200000
00310000
00002000
00013000
,  // measure 48
02000000
03010000
00002000
00003010
,  // measure 49
00000220
00000000
00000330
00000000
,  // measure 50
00000011
00000000
00000000
00001100
00000000
00000000
00000010
00000000
,  // measure 51
00000002
00000003
00002000
00003000
,  // measure 52
00000010
00000010
00000010
00001001
,  // measure 53
00000001
00000001
00000100
00000100
,  // measure 54
00001000
00020000
00031000
00000000
01000000
00000000
00000000
00000000
,  // measure 55
00010000
00100000
00001000
01000000
,  // measure 56
00010000
01000000
00010000
00000000
10000000
00000000
00000000
00000000
,  // measure 57
10000000
10000000
01000000
01000000
,  // measure 58
00010000
00001000
00010000
00000000
00001000
00000000
00000000
00000000
,  // measure 59
00010000
00000010
00010000
00001000
,  // measure 60
00000010
00000010
00000000
00000100
00000100
00000000
00000010
00000000
,  // measure 61
00000002
00000000
00000000
00000003
,  // measure 62
00000100
00000000
00000010
00000000
00001000
00000001
00001000
00000000
;

//---------------dance-double - NewbStepper-BDP----------------
#NOTES:
     dance-double:
     NewbStepper:
     Easy:
     4:
     0.180784,0.248154,0.039546,0.049433,0,128,124,4,5,0,0,0.180784,0.248154,0.039546,0.049433,0,128,124,4,5,0,0:
// measure 0
00000000
00000000
00000000
00000000
,  // measure 1
00000000
00000000
00000000
00000000
,  // measure 2
00000000
00000000
00000000
00000000
,  // measure 3
00000000
00000000
00000000
00000000
,  // measure 4
00000000
00000000
00000000
00000000
,  // measure 5
00000000
00000000
00000000
00000000
,  // measure 6
10000000
00000000
00000000
00000000
,  // measure 7
00010000
00000000
00000000
00000000
,  // measure 8
00002000
00000000
00003000
00000000
,  // measure 9
00001001
00000000
00000000
00000000
,  // measure 10
00000001
00000000
00000001
00000000
,  // measure 11
00001000
00000000
00001000
00000000
,  // measure 12
00010000
00000000
00010000
00000000
,  // measure 13
10000000
00000000
10000000
00000000
,  // measure 14
00010000
01000000
00100000
00000000
,  // measure 15
10000000
01000000
00100000
00000000
,  // measure 16
00010000
00000000
00001000
00000000
,  // measure 17
00000010
00000010
00000100
00000100
,  // measure 18
00000010
00000000
00000010
00000000
,  // measure 19
00001000
00000000
00001000
00000000
,  // measure 20
00000001
00000000
00000001
00000000
,  // measure 21
00000100
00000000
00001000
00000000
,  // measure 22
00010000
00000000
01000000
00000000
,  // measure 23
10000000
00000000
00100000
00000000
,  // measure 24
10000000
01000000
00100000
00010000
,  // measure 25
10000000
00000000
00000000
00000000
,  // measure 26
00010000
00000000
00000000
00100000
00000000
00100000
00000000
00100000
,  // measure 27
00000000
00000000
00000000
00000000
,  // measure 28
00001000
00000000
00000000
00000010
00000000
00000010
00000000
00000010
,  // measure 29
00000000
00000000
00000000
00000000
,  // measure 30
00000001
00000000
00001000
00000000
,  // measure 31
00010000
00000000
10000000
00000000
,  // measure 32
00010000
10000000
01000000
00100000
,  // measure 33
00020000
00000000
00000000
00030000
,  // measure 34
00000000
00000000
00000000
00000000
,  // measure 35
00100000
00000000
00001000
00000000
,  // measure 36
00010000
00000010
00001000
00000000
,  // measure 37
00000001
00000000
00000100
00000000
,  // measure 38
00000010
00010000
00001000
00000000
,  // measure 39
00100000
00000000
00001000
00000000
,  // measure 40
01000000
00010000
01000000
00000000
,  // measure 41
00200000
00000000
00300000
00000000
,  // measure 42
00010000
00001000
00010000
00000000
,  // measure 43
00000010
00000000
00010000
00000000
,  // measure 44
00001000
00100000
00010000
00000000
,  // measure 45
10000000
00000000
01000000
00000000
,  // measure 46
00100000
00001000
00010000
00000000
,  // measure 47
00000010
00000000
00010000
00000000
,  // measure 48
00000100
00001000
00000100
00000000
,  // measure 49
00000020
00000000
00000030
00000000
,  // measure 50
00000110
00000000
00000000
00000000
,  // measure 51
00001001
00000000
00011000
00000000
,  // measure 52
00100000
00100000
01000000
00000000
,  // measure 53
10000000
00000000
10000000
00000000
,  // measure 54
00010000
00000000
00010000
00000000
,  // measure 55
00001000
00000000
00001000
00000000
,  // measure 56
00000001
00000000
00000001
00000000
,  // measure 57
00001000
00000100
00000010
00000000
,  // measure 58
00000001
00000100
00000010
00000000
,  // measure 59
00001000
00000000
00010000
00000000
,  // measure 60
00100000
00100000
01000000
01000000
,  // measure 61
00200000
00000000
00000000
00300000
,  // measure 62
10000000
00010000
10000000
00010000
;

//---------------dance-double - NewbStepper-CDP----------------
#NOTES:
     dance-double:
     NewbStepper:
     Challenge:
     13:
     0.608732,0.653999,0.365804,0.088979,0.464670,431,394,37,9,0,0,0.608732,0.653999,0.365804,0.088979,0.464670,431,394,37,9,0,0:
// measure 0
00000000
00000000
00000000
00000000
,  // measure 1
00000000
00000000
00000000
00000000
,  // measure 2
00000000
00000000
00000000
00000000
,  // measure 3
00000000
00000000
00000000
00000000
,  // measure 4
00000000
00000000
00000000
00000000
,  // measure 5
00000000
00000000
00000000
00000000
,  // measure 6
00011000
00000000
00100000
00000000
10000000
01000000
00010000
00000000
,  // measure 7
00011000
00000000
00000000
00000000
00000010
00000000
00000000
00000000
00000001
00000000
00000100
00000000
00001000
00010000
00001000
00010000
,  // measure 8
00000100
00001000
00000001
00000010
00001000
00010000
00100000
10000000
,  // measure 9
11000000
00000000
00000000
00110000
00000000
00000000
10010000
00000000
00000000
00000000
00000000
00000000
00000000
00000000
00000000
00000000
,  // measure 10
00100000
00000000
00000000
00100000
00000000
00000000
10000000
00000000
00000000
10000000
00000000
00000000
01000000
00000000
00010000
00000000
,  // measure 11
00001000
00100000
00010000
00100000
00001000
00000000
00000000
00000000
00011000
00000000
00000000
00010100
00000000
00000000
00011000
00000000
,  // measure 12
00000010
00000000
00000000
00001000
00000000
00000000
00000001
00000000
00000000
00001000
00000000
00000000
00000100
00000000
00001000
00000000
,  // measure 13
00010000
00100000
00010000
00100000
01000000
00000000
10000000
00000000
00100000
00000000
00000000
00000000
00010000
00000100
00001000
00000100
,  // measure 14
00000010
00000000
00000000
00000010
00000000
00000000
00000001
00000000
00000000
00000001
00000000
00000000
00000100
00000000
00001000
00000000
,  // measure 15
00010000
00000010
00001000
00000010
00010000
00000000
00000000
00000000
00011000
00000000
00000000
01001000
00000000
00000000
00011000
00000000
,  // measure 16
00100000
00000000
00000000
00010000
00000000
00000000
10000000
00000000
00000000
00010000
00000000
00000000
00100000
00000000
00001000
00000000
,  // measure 17
00010000
00000100
00010000
00000100
00001000
00000000
00000001
00000100
00000001
00000100
00000010
00000000
00001000
00000000
00000000
00000000
,  // measure 18
00000001
00000000
00000100
00000000
00000010
00000000
00001000
00000100
00000000
00001000
00000100
00000000
00000010
00000000
00001000
00000000
,  // measure 19
00010000
00000000
00001000
00000000
00100000
00000000
00001000
00010000
00000000
00001000
00010000
00000000
00100000
00000000
00000000
00000000
,  // measure 20
10000000
01000000
00010000
00001000
00000100
00001000
00010000
00100000
,  // measure 21
00000000
01000000
00010000
00001000
00000010
00000000
00000110
00000000
,  // measure 22
00001000
00000000
00000100
00000000
00000010
00000000
00000001
00000100
00000000
00000001
00000100
00000000
00000010
00000000
00001000
00000000
,  // measure 23
00010000
00000000
01000000
00000000
00100000
00000000
10000000
01000000
00000000
10000000
01000000
00000000
00010000
00000000
00001000
00010000
,  // measure 24
00001000
00000000
00010000
00000000
00100000
00000000
00010000
00000000
00001000
00000000
00000010
00000000
00001000
00000000
00010000
00001000
,  // measure 25
00020000
00000000
00030000
00000000
00000010
00001000
00010000
01000000
,  // measure 26
01020000
00000000
00001000
00001000
00000000
00100000
00000000
10000000
,  // measure 27
00000000
00000000
01000000
00000000
01000000
00000000
00000000
00030000
00100000
00000000
00010000
00000000
00001000
00000000
00000100
00000000
,  // measure 28
00002100
00000000
00010000
00010000
00000000
00000010
00000000
00003001
,  // measure 29
00000000
00000010
00001000
00010000
00000000
00011000
00011000
00000000
,  // measure 30
00010000
00000000
01000000
00000000
10000000
00000000
01000000
00010000
00000000
00010000
00001000
00000000
00011000
00000000
00000000
00000000
,  // measure 31
00001000
00000000
00000100
00000000
00000001
00000000
00000100
00001000
00000000
00001000
00010000
00000000
00011000
00000000
00000000
00000000
,  // measure 32
01100000
00000000
01010000
00100000
00000000
11000000
00000000
01010000
,  // measure 33
00000000
00000000
10000000
00000000
00010000
00100000
00010000
00000000
01000000
00001000
01000000
00000000
00001000
00010000
00000010
00010000
,  // measure 34
00001000
00000000
00000000
00000000
,  // measure 35
00001100
00000000
00000000
00000000
00000001
00000000
00000010
00000001
00000000
00000010
00000001
00000000
00000100
00000000
00001000
00000000
,  // measure 36
00010000
00000000
00001000
00000000
00000010
00000000
00000100
00001000
00000000
00000000
00000000
00000000
00000010
00000000
00010000
00000000
,  // measure 37
00011000
00000000
00000000
00000000
00100000
00000000
00001000
00010000
00000000
00001000
00010000
00000000
00000010
00000000
00001000
00000000
,  // measure 38
00010000
00000000
01000000
00000000
10000000
00000000
01000000
00010000
00000000
00000000
00000000
00000000
00100000
01000000
10000000
00010000
,  // measure 39
10000000
00000000
00000000
00000000
10000000
00000000
00100000
10000000
00000000
00100000
10000000
00000000
01000000
00000000
00010000
00000000
,  // measure 40
00001000
00010000
00100000
00010000
00001000
00000000
00000100
00000000
,  // measure 41
00000202
00000000
00000000
00000303
,  // measure 42
00000010
00000000
00000000
00001000
00000000
00000000
00001001
00000000
00000000
00000000
00000000
00000000
00001000
00000100
00001000
00000100
,  // measure 43
00000010
00000000
00000000
00000000
00000001
00000000
00000010
00000001
00000000
00000000
00000100
00000000
00001000
00000000
00010000
00000000
,  // measure 44
01000000
00000000
00010000
00000000
00001000
00000000
00000100
00001000
00000000
00000000
00000000
00000000
00010000
00001000
00010000
00000000
,  // measure 45
00000010
00000000
00000000
00000000
00010000
00000000
00000010
00001000
00000000
00000000
00000010
00000000
00010000
00000000
00001000
00000000
,  // measure 46
00000010
00000000
00001000
00000000
00010000
00000000
00100000
10000000
00000000
00000000
00000000
00000000
00010000
10000000
01000000
10000000
,  // measure 47
00010000
00000000
00000000
00000000
10000000
00000000
00100000
10000000
00000000
00000000
01000000
00000000
00010000
00000000
00001000
00000000
,  // measure 48
00000100
00001000
00010000
00001000
00100000
00000000
00010000
00000000
,  // measure 49
02020000
00000000
00000000
00000000
00000000
00000000
00000000
00000000
03030000
00000000
00000000
00000000
00100000
10000000
00100000
10000000
,  // measure 50
00010000
00000000
00000000
10000000
00000000
00000000
10010000
00000000
00000000
00000000
00000000
00000000
01100000
00000000
00010000
00000000
,  // measure 51
00001000
00000000
00000000
00000110
00000000
00000000
00000000
00000000
00010000
00000000
00000000
01100000
00000000
00000000
00000000
00000000
,  // measure 52
00001000
00000000
00000000
00000000
00000010
00000000
00000000
00000000
00000001
00001000
00000001
00001000
00000001
00000000
00000000
00000000
,  // measure 53
00000010
00000000
00000000
00000010
00000000
00000000
00000001
00000000
00000000
00000001
00000000
00000000
00000100
00000000
00001000
00000000
,  // measure 54
00010000
00000010
00001000
00000010
00010000
00000000
00000000
00000000
00011000
00000000
00000000
01001000
00000000
00000000
00011000
00000000
,  // measure 55
00100000
00000000
00000000
00010000
00000000
00000000
10000000
00000000
00000000
00010000
00000000
00000000
01000000
00000000
00010000
00000000
,  // measure 56
00001000
00000010
00001000
00000010
00000100
00000000
00000001
00000000
00000010
00000000
00000000
00000000
00001000
01000000
00010000
01000000
,  // measure 57
00100000
00000000
00000000
00100000
00000000
00000000
10000000
00000000
00000000
10000000
00000000
00000000
01000000
00000000
00010000
00000000
,  // measure 58
00001000
00100000
00010000
00100000
00001000
00000000
00000000
00000000
00011000
00000000
00000000
00010100
00000000
00000000
00011000
00000000
,  // measure 59
00000010
00000000
00000000
00001000
00000000
00000000
00000001
00000000
00000000
00001000
00000000
00000000
00000010
00000000
00010000
00000000
,  // measure 60
00001000
01000000
00001000
01000000
00010000
00000000
10000000
01000000
10000000
01000000
00100000
00000000
00010000
00000000
10000000
00000000
,  // measure 61
00020000
00000000
00000000
00030000
,  // measure 62
01000000
00000000
00100000
00000000
00010000
00000000
00001000
00000000
00000010
00000000
00001000
00010000
00002000
00000000
00000000
00000000
,  // measure 63
00003000
00000000
00000000
00000000
;
