#TITLE:3dim;
#ARTIST:PON;
#BANNER:3dim.png;
#BACKGROUND:3dim-bg.png;
#MUSIC:3dim.ogg;
#OFFSET:-4.389;
#SAMPLESTART:31.355;
#SAMPLELENGTH:15;
#BPMS:0=178;

//---------------dance-single - Marten-bSP----------------
#NOTES:
     dance-single:
     Marten:
     Beginner:
     4:
     0.182902,0.242860,0.045726,0,0,140,135,5,0,0,0,0.182902,0.242860,0.045726,0,0,140,135,5,0,0,0:
0000
0000
0000
0000
,
1000
0000
0000
0000
,
1000
0000
0000
0000
,
1000
0000
0000
0000
0000
0000
0000
1001
,
0000
0000
0000
0000
0000
0000
0000
0001
,
0000
0000
0000
0001
0000
0000
0000
0001
,
0000
0000
0000
0000
0000
0000
0000
1000
,
0000
0000
0000
1000
0000
0000
0000
1000
,
0000
0000
0000
0000
0000
0000
0000
0010
,
0000
0000
0000
0010
0000
0000
0000
0010
,
0000
0000
0000
0000
0000
0000
0000
0100
,
0000
0000
0000
0100
0000
0000
0000
0100
,
0000
0000
0000
0000
,
0001
0000
0000
0000
,
0000
1000
1000
0000
,
0010
0000
0000
0000
,
0000
0100
0100
0000
,
0001
0000
0000
0000
,
0000
0010
0010
0000
,
0100
0000
0000
0000
,
0000
0000
1000
0000
1000
0000
0000
0010
,
0000
0000
0000
0010
0000
0000
0000
0010
,
0000
0000
0000
1000
0000
1000
0000
0001
,
0000
0000
0000
0001
0000
0000
0000
0001
,
0000
0000
0000
1000
0000
0000
0000
0000
,
0100
0000
0000
0100
0000
0000
0100
0000
,
0000
0000
0000
0000
,
0010
0000
0000
0010
0000
0000
0010
0000
,
0000
0000
0000
0000
,
0100
0000
0000
0100
0000
0000
0100
0000
,
0000
0000
0000
0000
,
0010
0000
0000
0010
0000
0000
0010
0000
,
0000
0000
0000
0000
0001
0000
0000
1001
,
0000
0000
1000
0000
,
0010
0000
0000
0110
0000
0000
0000
0000
,
0100
0000
0001
0000
,
0010
0000
0000
0110
0000
0000
0000
0100
,
0000
0000
0000
0100
0000
0000
0100
0000
,
0000
0100
0000
0000
0100
0000
0000
0100
,
0000
0000
0100
0000
0000
0100
0000
0000
,
0100
0000
0000
0100
0000
0000
0000
0010
,
0000
0000
0000
0000
0000
0100
0000
0100
,
0000
0000
0000
0000
0000
1000
0000
1000
,
0000
0000
0000
0000
0000
0001
0000
0001
,
0000
0000
0000
0000
0000
1000
0000
1000
,
0000
0000
0000
0000
0000
0010
0000
0010
,
0000
0000
0000
0000
0000
0100
0000
0100
,
0000
0000
0000
0000
0000
0001
0000
0001
,
0000
0000
0000
0000
0000
0001
0000
1000
,
0000
0000
0000
0000
0000
1000
0000
0001
,
0000
0000
0000
0000
0000
0001
0000
1000
,
0000
0000
0000
0000
0000
1000
0000
0001
,
0000
0000
0000
0000
0000
0001
0000
0010
,
0000
0000
0000
0000
0000
0010
0000
0100
,
0000
0000
0000
0000
0000
0100
0000
0010
,
0000
0000
0000
0000
0000
0010
0000
0100
,
0000
0000
0000
0000
,
0100
0000
0000
0000
,
0100
0000
0000
0000
,
1000
0000
0000
0000
,
1000
0000
0000
0000
,
0001
0000
0000
0000
,
0001
0000
0000
0000
,
0100
0000
0000
0100
0000
0000
0100
0000
,
0000
0100
0000
0000
0100
0000
0000
0100
,
0000
0000
0100
0000
0000
0100
0000
0000
,
0100
0000
0000
0100
0000
0000
0000
0001
,
0000
0001
0000
0001
,
0000
0000
0001
0000
0000
0000
0000
1000
,
0000
1000
0000
1000
,
0000
0000
1000
0000
0000
0000
0000
0010
,
0000
0010
0000
0010
,
0000
0000
0010
0000
0000
0000
0000
0100
,
0000
0000
0000
0100
0000
0000
0000
0001
,
0000
0000
0000
1000
0000
0000
0000
0100
,
0000
0000
0000
0100
0000
0100
0000
0110
;

//---------------dance-single - Marten-ESP----------------
#NOTES:
     dance-single:
     Marten:
     Hard:
     13:
     0.645384,0.624497,0.704174,0.274353,0.018290,494,417,77,30,0,0,0.645384,0.624497,0.704174,0.274353,0.018290,494,417,77,30,0,0:
// measure 0
0000
0000
0000
0000
,  // measure 1
0000
0100
1000
0100
1000
1000
0000
0100
,  // measure 2
0001
0100
0001
0001
0000
0001
0100
1000
,  // measure 3
0000
1000
0010
0100
0001
1000
0001
2002
,  // measure 4
0000
0000
0000
0000
3003
1000
0010
1010
,  // measure 5
0000
0010
0100
0101
0000
1001
0000
1100
,  // measure 6
0000
1000
0100
0010
0001
0010
0100
1100
,  // measure 7
0000
1000
0010
0110
0000
0101
0000
1001
,  // measure 8
0000
0001
0100
0010
1000
0010
0100
0002
,  // measure 9
0000
0013
0100
2000
0000
3100
0001
0200
,  // measure 10
0000
1300
0010
1000
0001
0100
0010
1010
,  // measure 11
0000
1100
0000
0011
0000
0101
0000
1001
,  // measure 12
0000
1000
0001
1000
0010
0010
0100
0001
,  // measure 13
1000
0100
0001
1000
0010
0001
1000
0000
,  // measure 14
0000
0001
0100
0001
1000
0000
1001
0000
,  // measure 15
0001
0100
1000
0001
0010
1000
0001
0000
,  // measure 16
0000
1000
0010
1000
0001
0000
0101
0000
,  // measure 17
1000
0010
0001
1000
0100
0001
1000
0000
,  // measure 18
0000
0001
0100
0001
1000
1000
0100
1000
,  // measure 19
0001
0010
1000
0001
0100
1000
0001
0000
,  // measure 20
0000
1000
0010
0100
0001
0000
0001
0021
,  // measure 21
0000
0100
0000
1000
0000
0100
0000
0001
,  // measure 22
0000
0130
0000
1100
0000
1001
0000
0102
,  // measure 23
0000
0100
0000
1003
0000
0010
0100
0110
,  // measure 24
0000
1001
0000
1000
0100
0010
0001
1000
,  // measure 25
0001
0100
1000
0001
0010
1000
0001
0000
,  // measure 26
0000
1000
0010
1000
1010
0000
1001
0001
,  // measure 27
1000
0100
0001
1000
0010
0001
1000
0000
,  // measure 28
0000
0001
0100
0001
1000
0100
1000
1001
,  // measure 29
0001
0010
1000
0001
0100
1000
0001
0000
,  // measure 30
0000
1000
0010
1000
0100
0100
1000
0010
,  // measure 31
1000
0010
0001
1000
0100
0001
1000
0000
,  // measure 32
0000
0001
0100
0010
1000
0000
0100
2100
,  // measure 33
0000
3001
0200
0310
,  // measure 34
1020
0000
0130
0201
0000
0000
0301
0000
,  // measure 35
2001
3100
0020
0031
,  // measure 36
0102
0000
1003
1001
0001
0001
0000
2100
,  // measure 37
0000
3001
0000
1000
1000
0000
0001
0001
,  // measure 38
0000
0010
0010
0000
0100
0100
0000
0010
,  // measure 39
0010
0000
0001
0001
0000
1000
1000
0000
,  // measure 40
0010
0010
0000
0100
0100
0010
1000
1100
,  // measure 41
0000
1001
0000
0001
0000
0010
0001
0101
,  // measure 42
0000
1001
0000
1000
0000
0100
1000
1010
,  // measure 43
0000
1001
0000
0001
0000
0010
0100
1100
,  // measure 44
0000
0101
0000
0110
0000
1000
0100
0110
,  // measure 45
0000
0011
0000
0001
0000
0100
0010
0110
,  // measure 46
0000
1010
0000
1000
0000
0010
0100
0110
,  // measure 47
0000
0101
0000
0001
0000
1000
0010
1010
,  // measure 48
0000
0011
0000
0110
0000
1000
1000
1200
,  // measure 49
0000
0310
0000
0001
0000
0100
0001
0200
,  // measure 50
0000
0310
0000
1000
0000
0001
0010
2000
,  // measure 51
0000
3010
0000
0001
0000
1000
0010
0002
,  // measure 52
0000
0013
0000
1000
0000
0001
0100
0101
,  // measure 53
0000
0011
0000
1100
0000
1000
0100
1100
,  // measure 54
0000
1010
0000
0101
0000
0100
0010
0110
,  // measure 55
0000
1001
0000
0110
0000
1000
0001
1001
,  // measure 56
0000
0110
0000
2002
0000
3003
0000
0000
,  // measure 57
1001
1000
0100
1000
,  // measure 58
0010
0100
0001
0010
,  // measure 59
0001
1000
0100
0010
,  // measure 60
0001
0000
0001
0000
0001
0000
1000
0000
1000
0000
1000
0000
,  // measure 61
0001
0000
0100
0001
0000
0100
1000
0000
,  // measure 62
0100
0000
0001
0000
0010
0100
0010
0000
,  // measure 63
0001
0011
0000
1000
1010
0000
0100
0110
,  // measure 64
0000
0001
1001
0000
1000
1100
0000
0001
,  // measure 65
0101
0000
0100
0110
0000
0001
1001
0000
,  // measure 66
1000
0010
0010
0001
0010
0010
1000
1001
,  // measure 67
0000
1000
0100
0010
0001
0100
0001
0020
,  // measure 68
0000
0130
1000
0001
1000
0100
1000
0020
,  // measure 69
0000
0130
0001
2000
0000
3100
1000
0020
,  // measure 70
0000
0130
0001
0020
0000
0130
0000
1100
,  // measure 71
0000
1000
0010
0100
0001
0010
1000
0001
,  // measure 72
0100
1000
0100
1000
0010
0100
0001
2000
,  // measure 73
0000
3100
0001
0200
0000
1300
0010
0002
,  // measure 74
0000
1003
0100
0020
0000
0030
0000
1000
,  // measure 75
0000
1000
0000
0101
0000
1001
0000
1010
;

//---------------dance-double - NewbStepper-EDP----------------
#NOTES:
     dance-double:
     NewbStepper:
     Hard:
     13:
     0.638852,0.624497,0.393240,0.109741,0,489,446,43,12,0,0,0.638852,0.624497,0.393240,0.109741,0,489,446,43,12,0,0:
00000000
00000000
00000000
00000000
,
00000000
00010000
00001000
00010000
00000010
00000010
00000000
00010000
,
00001000
00010000
00100000
00100000
00000000
10000000
01000000
00010000
,
00000000
00001000
00000010
00000001
00000100
00000010
00001000
00002002
,
00000000
00000000
00000000
00003003
00000000
00000001
00000010
00000011
,
00000000
00000001
00000010
00001000
00010000
01000000
00000000
10000000
,
00010000
10000000
01000000
00100000
00010000
00100000
01000000
11000000
,
00000000
10000000
00100000
00010000
00001000
00000100
00000000
00000001
,
00001000
00000001
00000100
00000010
00001000
00000010
00000100
00000101
,
00000000
00001000
00000100
00000001
00000010
00001000
00000000
00010000
,
01000000
10000000
00100000
10000000
00010000
00100000
01000000
11000000
,
00000000
00010000
01000000
10000000
00100000
00010000
00000000
00001000
,
00000100
00000001
00000010
00000001
00001000
00000010
00000100
00000001
,
00000010
00001000
00010000
00100000
,
00000000
10000000
01000000
10000000
00010000
00000000
10010000
00000000
,
00100000
00010000
00001000
00000010
,
00000000
00000001
00000100
00000001
00001000
00000000
00001001
00000000
,
00000100
00001000
00010000
01000000
,
00000000
10000000
00100000
10000000
00010000
00000000
10010000
00000000
,
01000000
00010000
00001000
00000010
,
00000000
00000001
00000100
00000001
00001000
00000000
00000010
00000100
,
00000001
00000010
00000000
00001000
00010000
00000100
00000000
00001000
,
00010000
01000000
00001000
00010000
00100000
10000000
00000000
10010000
,
00000000
10000000
01000000
00010000
00000000
00001000
00100000
00010000
,
00001000
00000100
00000001
00000100
00001000
00000000
00000010
00000000
,
00001000
00000001
00000100
00001000
00010000
00100000
10000000
00000000
,
00000000
00010000
10000000
00010000
01000000
00000000
00100000
10000000
,
00010000
10000000
01000000
00010000
00001000
00000010
00000001
00000000
,
00000000
00001000
00000001
00001000
00000100
00000000
00000010
00000001
,
00001000
00000001
00000010
00001000
00010000
01000000
10000000
00000000
,
00000000
00010000
10000000
00010000
00100000
00000000
01000000
10000000
,
00010000
10000000
00100000
00010000
00001000
00000100
00000001
00000000
,
00000000
00001000
00000100
00010000
00001000
00000000
00100000
01000000
,
10000000
00100000
00010000
00001000
01001000
00000000
00010100
00000000
,
00021000
00000000
00031000
00201000
00000000
00000000
00310000
00000000
,
00001000
00000100
00000010
00000000
00000002
00000000
00000103
00000000
,
00001020
00000000
00010030
00011000
00001000
00000000
00000000
00001010
,
00000000
00001001
00000000
00000001
00000101
00000000
00000100
00001100
,
00000000
00001000
00011000
00000000
00010000
01010000
00000000
01000000
,
11000000
00000000
10000000
10100000
00000000
00100000
00110000
00000000
,
00010000
00011000
00000000
00001000
00000010
00000001
00000100
00000001
,
00000000
00001000
00000100
00000010
00000000
00010000
00001000
00000100
,
00000000
00000001
00000100
00001000
00000000
00000010
00001000
00000100
,
00000000
00010000
00001000
00100000
00000000
01000000
10000000
00100000
,
00000000
01000000
00010000
00001000
00010000
00100000
01000000
10000000
,
00000000
00010000
01000000
00100000
00000000
00001000
00010000
01000000
,
00000000
10000000
01000000
00010000
00000000
00100000
00010000
01000000
,
00000000
00001000
00010000
00000010
00000000
00000100
00000001
00000010
,
00000000
00000100
00001000
00010000
00001000
00000010
00000100
00000001
,
00000010
00001000
00000000
00011000
00000000
00010000
01000000
10000000
,
00100000
00010000
00000000
00011000
00000000
00001000
00000100
00000001
,
00000010
00001000
00000000
00011000
00000000
00010000
01000000
10000000
,
00100000
00010000
00000000
00011000
00000000
00001000
00000010
00000001
,
00000100
00000001
00000010
00001000
00000000
00010000
00100000
10000000
,
01000000
10000000
00100000
00010000
00000000
00001000
00000100
00000001
,
00000010
00000001
00000100
00001000
00000000
00010000
01000000
10000000
,
00100000
10000000
01000000
00010000
00001000
00100000
00010000
00000000
,
10010000
10000000
01000000
00010000
,
00001000
00100000
00010000
00001000
,
00000100
00010000
00001000
00000010
,
00000001
00000100
00000010
00001000
00010000
01000000
00100000
10000000
,
00010000
10000000
00100000
00010000
,
00001000
01000000
00010000
00001000
,
00000010
00000110
00000000
00000100
00000101
00000000
00000001
00000011
,
00000000
00000010
00001010
00000000
00001000
00011000
00000000
00010000
,
00110000
00000000
00100000
10100000
00000000
10000000
11000000
00000000
,
01000000
01010000
00000000
00010000
00011000
00000000
00001000
00000100
,
00000001
00000010
00000001
00000100
00000010
00002000
00000000
00003001
,
00000010
00001000
00010000
01000000
10000000
00100000
00010000
00001000
,
00100000
00010000
00001000
01000000
00010000
00001000
00000100
00001000
,
00010000
00000010
00001000
00020000
00000000
01030000
00000000
00200000
,
00000000
00310000
00001000
00000010
00010000
00001000
00000100
00010000
,
00001000
00000010
00000100
00000010
00000001
00000200
00000000
00002300
,
00000000
00013000
01000000
10000000
00010000
10000000
00100000
00010000
,
00001000
00000010
00000001
00000200
00000000
00000300
00000000
00000010
,
00000000
00001000
00000000
00001100
00000000
00010100
00000000
00011000
;

//---------------dance-single - Marten-DSP----------------
#NOTES:
     dance-single:
     Marten:
     Medium:
     10:
     0.474240,0.485720,0.475546,0.219483,0.009145,363,311,52,24,0,0,0.474240,0.485720,0.475546,0.219483,0.009145,363,311,52,24,0,0:
0000
0000
0000
0000
,
0000
1000
0100
0000
0010
0001
0000
0001
,
0100
0000
0010
1000
0000
1000
0001
1000
,
0000
0010
1000
0000
1000
0100
0000
0220
,
0000
0000
0000
0000
0000
0330
0000
0001
,
0000
0001
0000
1000
0000
1000
0000
1100
,
0000
0000
0101
0000
1100
0000
0001
0010
,
0000
0010
0000
0001
0000
0001
0000
0011
,
0000
0000
1010
0000
0011
0000
0001
1000
,
0000
1000
0000
0010
0000
0010
0000
0100
,
0000
0100
0001
0000
1000
0000
0100
0010
,
0000
0000
0000
0110
0000
0000
0000
1001
,
0000
0001
1000
0000
1000
0000
0010
0000
,
0100
0001
0000
0100
0010
0000
1000
0000
,
0000
0001
1000
1000
,
0010
1000
0000
0100
1000
0000
0001
0000
,
0000
1000
0100
0000
0010
0000
0110
0000
,
0010
0001
0000
1000
0001
0000
0100
0000
,
0000
0010
0100
0000
0010
0000
1000
0000
,
0001
0010
0000
0100
1000
0000
0001
0000
,
0000
1000
0100
0000
0110
0000
0010
0002
,
0000
0000
0000
0000
0000
0000
0000
2003
,
0000
0000
0000
0010
0000
3010
0000
0020
,
0000
0000
0000
0000
0000
0100
0000
0100
,
0000
0230
0000
0000
0001
0000
0301
0000
,
0001
1000
0000
1000
0001
0000
1001
0000
,
0000
0010
0100
0000
0100
0000
0010
0000
,
0100
0010
0000
0010
0100
0000
0110
0000
,
0000
0010
1000
0000
0001
0000
1001
0000
,
1000
0100
0000
0010
0001
0000
1001
0000
,
0000
0001
0100
0000
0010
0000
0100
0000
,
0001
0010
0000
0100
1000
0000
1001
0000
,
0000
0001
0000
0001
0100
0000
0100
0020
,
0000
1030
1100
0101
,
0020
0000
0000
0230
0000
0000
0301
0000
,
2001
0000
3100
0100
,
0120
0000
0001
0000
0031
1000
0000
0002
,
0000
1003
0000
1000
0001
0000
0001
1000
,
0000
1000
0001
0000
0001
0010
0000
0010
,
0100
0000
0100
0010
0000
0010
0001
0000
,
0001
1000
0000
1000
0010
0000
0100
0010
,
0000
0110
0000
0010
0000
0010
0000
1000
,
0000
0001
0000
1001
0000
1000
0000
0100
,
0000
0010
0000
0110
0000
0010
0000
0011
,
0000
0110
0000
1100
0000
1000
0000
0001
,
0000
0010
0000
0110
0000
0010
0000
0001
,
0000
1000
0000
1001
0000
1000
0000
0100
,
0000
1000
0000
1010
0000
0010
0000
0110
,
0000
0101
0000
1100
0000
1000
0000
0001
,
0000
0010
0000
0011
0000
0001
0000
1000
,
0000
0010
0000
1010
0000
0010
0000
0100
,
0000
0001
0000
1001
0000
1000
0000
1010
,
0000
0011
0000
0110
0000
0100
0000
1000
,
0000
0001
0000
0101
0000
0001
0000
0010
,
0000
0100
0000
1100
0000
1000
0000
0001
,
0000
0100
0000
0110
0000
0010
0000
1010
,
0000
0011
0000
2002
0000
0000
3003
0000
,
0001
1000
0020
1000
,
0230
0001
0302
0010
,
0203
1000
0000
1000
,
0301
0000
0000
0000
0001
0000
1000
0000
0000
0000
1000
0000
,
0001
0000
1000
0100
0000
1000
0100
0000
,
0010
0001
2000
3000
,
0001
0100
0000
0100
0001
0000
0001
1000
,
0000
1000
0100
0000
0100
1000
0000
1000
,
0010
0000
0010
0100
0000
0100
0001
0000
,
0001
0010
0000
0010
0100
0000
1000
0001
,
0000
0000
0100
0000
0010
0000
0100
0010
,
0000
1000
0010
0000
0100
0000
0100
0002
,
0000
1003
0000
0200
0000
1300
0000
0020
,
0000
1030
0000
1010
0000
1001
0000
0011
,
0000
0001
0010
0000
0100
0000
1000
0100
,
0000
1000
0001
0000
0100
0000
0001
0010
,
0000
0011
0000
1000
0000
1010
0000
2000
,
0000
3010
0100
0020
0000
0000
0030
1000
,
0000
1000
0000
1100
0000
1001
0000
0011
;

//---------------dance-single - Marten-BSP----------------
#NOTES:
     dance-single:
     Marten:
     Easy:
     7:
     0.325305,0.416331,0.320079,0.164612,0,249,214,35,18,0,0,0.325305,0.416331,0.320079,0.164612,0,249,214,35,18,0,0:
0000
0000
0000
0000
,
0000
0001
0001
0000
,
1000
1000
0000
0100
,
0000
0000
0010
0000
0010
0000
0000
0220
,
0000
0000
0000
0000
0000
0330
0000
1000
,
0000
1000
0000
0001
0000
0001
0000
0100
,
0000
0000
0000
0000
0100
0000
0000
0100
,
0000
0100
0000
0001
0000
0001
0000
0010
,
0000
0000
0000
0000
0010
0000
0000
0100
,
0000
0100
0000
1000
0000
1000
0000
0001
,
0000
0000
0000
0000
1000
0000
0000
1001
,
0000
0000
0000
0110
0000
0000
0000
1001
,
0000
0000
1000
1000
,
0001
0000
0000
0001
0000
0000
0001
0000
,
0000
1000
1000
0001
,
0010
0000
0000
0010
0000
0000
0010
0000
,
0000
0100
0100
0010
,
0001
0000
0000
0001
0000
0000
0001
0000
,
0000
0100
0001
0001
,
1000
0000
0000
1000
0000
0000
1000
0000
,
0000
0000
1000
0000
1000
0000
0000
1002
,
0000
0000
0000
1000
0000
0000
0000
1000
,
0000
0000
0000
1003
0000
0100
0000
2000
,
0000
0000
0000
0001
0000
0000
0000
3020
,
0000
0000
0130
0000
,
0100
0000
0000
0100
0000
0000
0100
0000
,
0000
0100
0001
0001
,
1000
0000
0000
1000
0000
0000
1000
0000
,
0000
1000
0100
0100
,
0010
0000
0000
0010
0000
0000
0010
0000
,
0000
0010
0001
0100
,
0001
0000
0000
0001
0000
0000
0001
0000
,
0000
1000
0001
0010
,
0200
0000
1300
0001
,
0200
0000
0320
0000
,
0230
0000
0301
1000
,
0001
0000
0001
0000
0010
0000
0000
0110
,
0000
0000
0000
0100
0000
0000
0100
0000
,
0000
1000
0000
0000
0001
0000
0000
0100
,
0000
0000
0010
0000
0000
0100
0000
0000
,
0001
0000
0000
1000
0000
1000
0000
1001
,
0000
0001
0000
0000
0000
0001
0000
1001
,
0000
1000
0000
0000
0000
1000
0000
1001
,
0000
0001
0000
0000
0000
0001
0000
1001
,
0000
1100
0000
1000
0000
0010
0000
0110
,
0000
0010
0000
0000
0000
0010
0000
0110
,
0000
0100
0000
0000
0000
0100
0000
0110
,
0000
0010
0000
0000
0000
0010
0000
0110
,
0000
0101
0000
0001
0000
1000
0000
1100
,
0000
1000
0000
0000
0000
0001
0000
0101
,
0000
0001
0000
0000
0000
1000
0000
1010
,
0000
1000
0000
0000
0000
0001
0000
0011
,
0000
0110
0000
0100
0000
1000
0000
1100
,
0000
1000
0000
0000
0000
0001
0000
0011
,
0000
0001
0000
0000
0000
0001
0000
0101
,
0000
0001
0000
0000
0000
1000
0000
1010
,
0000
0110
0000
0102
0000
0000
0000
0000
,
1003
0001
2000
0000
,
3020
0000
0230
0000
,
0302
0000
1000
0000
,
0010
0000
0103
0000
,
1000
0100
0020
0000
,
0230
0000
2300
0000
,
3002
0000
0000
0100
0000
0000
0100
0000
,
0000
0100
0000
0000
0013
0000
0000
0001
,
0000
0000
0010
0000
0000
1000
0000
0000
,
0010
0000
0000
0001
0000
0000
1000
0000
,
0010
0000
0010
0000
0100
0000
0000
0110
,
0000
0100
0001
0000
,
1000
1000
0001
0001
,
1000
0000
0001
0000
1000
0000
0000
1001
,
0000
0001
0001
0000
,
0010
0000
0100
0000
1000
0000
0000
1001
,
0000
0000
0000
0110
0000
0000
0000
0001
,
0000
1000
0000
1001
0000
0000
0000
1000
,
0000
1000
0000
1010
0000
1001
0000
0011
;

//---------------dance-double - NewbStepper-DDP----------------
#NOTES:
     dance-double:
     NewbStepper:
     Medium:
     10:
     0.453336,0.451026,0.402385,0.228628,0,347,303,44,25,0,0,0.453336,0.451026,0.402385,0.228628,0,347,303,44,25,0,0:
00000000
00000000
00000000
00000000
,
00000000
10000000
01000000
00000000
00100000
00010000
00000000
00010000
,
01000000
00000000
00100000
00010000
00000000
00010000
00001000
00010000
,
00000000
00000010
00001000
00000000
00001000
00000100
00000000
00000220
,
00000000
00000000
00000000
00000000
00000000
00000330
00000000
00000001
,
00000000
00000001
00000000
00001000
00000000
00001000
00000000
00001100
,
00000000
00000000
00011000
00000000
00110000
00000000
00010000
10000000
,
00000000
10000000
00000000
00010000
00000000
00010000
00000000
01010000
,
00000000
00000000
00011000
00000000
00001010
00000000
00000010
00000100
,
00000000
00000100
00000000
00000001
00000000
00000001
00000000
00000010
,
00000000
00000010
00001000
00000000
00010000
00000000
01000000
00100000
,
00000000
00000000
00000000
01100000
00000000
00000000
00000000
10010000
,
00000000
10000000
00010000
00000000
00010000
00000000
00100000
00000000
,
01000000
00010000
00000000
00001000
00000000
00000000
00000100
00000000
,
00000000
00000001
00001000
00000010
,
00000100
00001000
00000000
00010000
00000000
00000000
01000000
00000000
,
00000000
10000000
00010000
01000000
,
00100000
00010000
00000000
00001000
00000000
00000000
00000010
00000000
,
00000000
00000001
00001000
00000100
,
00000010
00001000
00000000
00010000
00000000
00000000
00100000
00000000
,
00000000
10000000
01000000
00000000
01100000
00000000
00100000
00020000
,
00000000
00000000
00000000
00000000
00000000
00000000
00000000
00032000
,
00000000
00000000
00000000
00000010
00000000
00003010
00000000
00000020
,
00000000
00000000
00000000
00000000
00000000
00000100
00000000
00000100
,
00000000
00000230
00000000
00000000
00000001
00000000
00000301
00000000
,
00000001
00000100
00000000
00000100
00001000
00000000
00011000
00000000
,
00000000
00100000
01000000
00000000
01000000
00000000
00010000
00000000
,
10000000
00010000
00000000
00010000
10000000
00000000
10010000
00000000
,
00000000
00100000
00010000
00000000
00001000
00000000
00011000
00000000
,
00010000
00000100
00000000
00000010
00000001
00000000
00001001
00000000
,
00000000
00000010
00001000
00000000
00010000
00000000
00011000
00000000
,
00001000
01000000
00000000
00100000
10000000
00000000
10010000
00000000
,
00000000
01000000
00000000
01000000
00001000
00000000
00001000
00020000
,
00000000
00030100
00001100
00000101
,
00000020
00000000
00000000
00000230
00000000
00000000
00000301
00000000
,
00002001
00000000
00003100
00000100
,
00000120
00000000
00001030
00010000
00000000
00001000
00000000
00020000
,
00000000
00031000
00000000
00001000
00010000
00000000
00010000
01000000
,
00000000
01000000
10000000
00000000
10000000
00100000
00000000
00100000
,
00010000
00000000
00010000
00001000
00000000
00001000
00000100
00000000
,
00000100
00000001
00000000
00000001
00000010
00000000
00000100
00000010
,
00000000
00000110
00000000
00000001
00000000
00000100
00000000
00000010
,
00000000
00001001
00000000
00000100
00000000
00001000
00000000
00010000
,
00000000
00011000
00000000
00001000
00000000
00010000
00000000
00100000
,
00000000
01100000
00000000
01000000
00000000
10000000
00000000
00010000
,
00000000
10010000
00000000
01000000
00000000
00010000
00000000
00001000
,
00000000
00011000
00000000
00010000
00000000
00001000
00000000
00000010
,
00000000
00001001
00000000
00000100
00000000
00000010
00000000
00000001
,
00000000
00001001
00000000
00000010
00000000
00000001
00000000
00000100
,
00000000
00001001
00000000
00000001
00000000
00000100
00000000
00001000
,
00000000
00011000
00000000
00010000
00000000
00100000
00000000
10000000
,
00000000
10010000
00000000
00100000
00000000
00010000
00000000
01000000
,
00000000
10010000
00000000
00100000
00000000
10000000
00000000
01000000
,
00000000
10010000
00000000
10000000
00000000
01000000
00000000
00010000
,
00000000
00011000
00000000
00001000
00000000
00000010
00000000
00000001
,
00000000
00001001
00000000
00000100
00000000
00000010
00000000
00001000
,
00000000
00002002
00000000
00000000
00000000
00000000
00003003
00000000
,
00000001
00001000
00000020
00000100
,
00020030
00001000
00030200
00001000
,
00020300
00001000
00230000
10000000
,
01300000
00010000
10000000
00100000
,
00010000
00001000
00000010
00000001
,
00001000
00000100
00000020
00000030
,
00000001
00000100
00000000
00000100
00000001
00000000
00000001
00001000
,
00000000
00001000
00000100
00000000
00000100
00010000
00000000
00010000
,
00001000
00000000
00001000
00100000
00000000
00100000
00010000
00000000
,
00010000
01000000
00000000
01000000
00100000
00000000
00100000
10000000
,
00000000
01000000
00010000
01000000
,
10000000
00000000
00100000
00000000
01000000
00000000
00001000
00020000
,
00000000
00031000
00000000
00000020
00000000
00000130
00000000
00002000
,
00000000
00003001
00000000
00000011
00000000
00001010
00000000
00011000
,
00000000
00010000
00001000
00000000
00100000
00000000
00010000
01000000
,
00000000
00010000
10000000
00000000
01000000
00000000
00010000
00001000
,
00000000
00011000
00000000
00000100
00000000
00000101
00000000
00000002
,
00000000
00000013
00000100
00000020
00000000
00000000
00000030
00001000
,
00000000
00001000
00000000
00011000
00000000
01010000
00000000
01100000
;

//---------------dance-double - NewbStepper-EDP----------------
#NOTES:
     dance-double:
     NewbStepper:
     Easy:
     7:
     0.310934,0.346943,0.246918,0.164612,0,238,211,27,18,0,0,0.310934,0.346943,0.246918,0.164612,0,238,211,27,18,0,0:
00000000
00000000
00000000
00000000
,
00000000
00010000
00010000
00000000
,
00001000
00001000
00000000
01000000
,
00000000
00000000
00100000
00000000
00100000
00000000
00000000
02200000
,
00000000
00000000
00000000
00000000
00000000
03300000
00000000
10000000
,
00000000
10000000
00000000
00010000
00000000
00010000
00000000
01000000
,
00000000
00000000
00000000
00000000
01000000
00000000
00000000
00001000
,
00000000
00001000
00000000
00010000
00000000
00010000
00000000
00000100
,
00000000
00000000
00000000
00000000
00000100
00000000
00000000
00000010
,
00000000
00000010
00000000
00000001
00000000
00000001
00000000
00001000
,
00000000
00000000
00000000
00000000
00000001
00000000
00000000
00000101
,
00000000
00000000
00000000
00001100
00000000
00000000
00000000
00011000
,
00000000
00000000
00100000
00100000
,
01000000
00000000
00000000
01000000
00000000
00000000
01000000
00000000
,
00000000
10000000
10000000
00010000
,
00100000
00000000
00000000
00100000
00000000
00000000
00100000
00000000
,
00000000
00001000
00001000
00010000
,
00000100
00000000
00000000
00000100
00000000
00000000
00000100
00000000
,
00000000
00001000
00000001
00000001
,
00000010
00000000
00000000
00000010
00000000
00000000
00000010
00000000
,
00001000
00000000
00001000
00000000
00000000
00000000
00000000
00012000
,
00000000
00000000
00000000
00010000
00000000
00000000
00000000
00010000
,
00000000
00000000
00000000
00013000
00000000
01000000
00000000
00020000
,
00000000
00000000
00000000
10000000
00000000
00000000
00000000
00230000
,
00000000
00000000
01300000
00000000
,
01000000
00000000
00000000
01000000
00000000
00000000
01000000
00000000
,
00000000
00010000
10000000
10000000
,
00100000
00000000
00000000
00100000
00000000
00000000
00100000
00000000
,
00000000
00100000
00010000
00010000
,
00001000
00000000
00000000
00001000
00000000
00000000
00001000
00000000
,
00000000
00000010
00000001
00000100
,
00000001
00000000
00000000
00000001
00000000
00000000
00000001
00000000
,
00000000
00001000
00000001
00000010
,
00002000
00000000
00013000
00001000
,
02000000
00000000
03200000
00000000
,
02300000
00000000
03010000
10000000
,
00010000
00000000
00010000
00000000
00100000
00000000
00000000
01100000
,
00000000
00000000
00000000
10000000
00000000
00000000
10000000
00000000
,
00000000
01000000
00000000
00000000
00010000
00000000
00000000
00001000
,
00000000
00000000
00000010
00000000
00000000
00000001
00000000
00000000
,
00001000
00000000
00000000
00000001
00000000
00000001
00000000
00001001
,
00000000
00001000
00000000
00000000
00000000
00001000
00000000
00011000
,
00000000
00010000
00000000
00000000
00000000
00010000
00000000
10010000
,
00000000
10000000
00000000
00000000
00000000
10000000
00000000
10010000
,
00000000
00010000
00000000
00000000
00000000
00100000
00000000
01100000
,
00000000
01000000
00000000
00000000
00000000
00010000
00000000
00011000
,
00000000
00001000
00000000
00000000
00000000
00000100
00000000
00000110
,
00000000
00000010
00000000
00000000
00000000
00000001
00000000
00001001
,
00000000
00001000
00000000
00000000
00000000
00000010
00000000
00000110
,
00000000
00000100
00000000
00000000
00000000
00001000
00000000
00011000
,
00000000
00010000
00000000
00000000
00000000
01000000
00000000
01100000
,
00000000
00100000
00000000
00000000
00000000
10000000
00000000
10010000
,
00000000
00010000
00000000
00000000
00000000
10000000
00000000
11000000
,
00000000
10000000
00000000
00000000
00000000
00010000
00000000
01010000
,
00000000
00010000
00000000
00000000
00000000
00001000
00000000
00001100
,
00000000
00001000
00000000
00000000
00000000
00000001
00000000
00000101
,
00000000
00000001
00000000
00002000
00000000
00000000
00000000
00000000
,
00003001
00001000
00000002
00000000
,
00000203
00000000
00000320
00000000
,
00002030
00000000
00000100
00000000
,
00000001
00000000
00003010
00000000
,
00010000
00001000
00000020
00000000
,
00002030
00000000
00023000
00000000
,
00230000
00000000
00000000
10000000
00000000
00000000
10000000
00000000
,
00000000
10000000
00000000
00000000
01300000
00000000
00000000
00010000
,
00000000
00000000
00100000
00000000
00000000
00001000
00000000
00000000
,
00010000
00000000
00000000
00000100
00000000
00000000
00001000
00000000
,
00000010
00000000
00000010
00000000
00000100
00000000
00000000
00000110
,
00000000
00000100
00000001
00000000
,
00001000
00001000
00000001
00000001
,
00001000
00000000
00000001
00000000
00001000
00000000
00000000
00001001
,
00000000
00000010
00000010
00000000
,
00000100
00000000
00001000
00000000
00010000
00000000
00000000
00011000
,
00000000
00000000
00000000
01100000
00000000
00000000
00000000
00010000
,
00000000
10000000
00000000
10010000
00000000
00000000
00000000
10000000
,
00000000
01000000
00000000
00010000
00000000
00001000
00000000
00000100
;
