#VERSION:0.83;
#TITLE:24th Century BOY;
#ARTIST:Tatsh;
#BANNER:24th Century BOY.png;
#BACKGROUND:24th Century BOY-bg.png;
#JACKET:24th Century BOY-jacket.png;
#MUSIC:24th Century BOY.ogg;
#OFFSET:-1.134;
#SAMPLESTART:90.059;
#SAMPLELENGTH:15;
#BPMS:0=84,21=112,23=168;
#STOPS:22.875=1.071,83.5=0.179,84=0.179,221.5=0.357;
#TIMESIGNATURES:0=4=4,20=3=4,23=4=4,83=3=4,86=4=4;
#BGCHANGES:-1.75=24th Century BOY.avi=1=0=0=0=StretchNoLoop====,99999=-nosongbg-=1=0=0=0 // don't automatically add -songbackground-;

//---------------dance-single - NewbStepper-bSP----------------
#NOTEDATA:;
#CHARTNAME:NewbStepper-bSP;
#CHARTHASH:1280781374:
#STEPSTYPE:dance-single;
#DESCRIPTION:NewbStepper-bSP;
#DIFFICULTY:Beginner;
#METER:5;
#RADARVALUES:0.193862,0.297837,0.126236,0.007890,0,172,156,16,1,0,0,0,0,0,0.193862,0.297837,0.126236,0.007890,0,172,156,16,1,0,0,0,0,0;
#CREDIT:NewbStepper;
#NOTES:
0000
0000
0000
0000
,
0000
0000
0000
0000
,
0000
0000
0000
0000
,
0001
0000
1000
0000
,
0001
0000
1000
0000
,
0000
0000
0000
0000
,
0000
0001
0000
0000
,
0000
1000
0000
0000
,
0000
0001
0000
0000
,
0000
1000
1000
0000
,
0000
1000
0000
0000
,
0000
0001
0000
0000
,
0000
1000
0000
0000
,
0000
0001
0001
0010
,
0000
0010
0000
0001
,
0001
1000
1000
0100
,
0000
0100
0000
1000
,
1000
0001
0001
0010
,
0000
0010
0000
0001
,
0001
1000
1000
0010
,
0000
1001
0000
0110
,
0000
0000
1001
0000
,
1000
0001
1000
0000
,
0001
0000
0010
0000
,
0100
0010
0100
0000
,
1000
1000
0001
0000
,
0001
0000
0100
0010
,
0100
0000
0010
0110
,
0000
0110
0000
0110
,
0000
1000
1001
0000
,
0000
0000
0000
0000
,
0000
0000
0000
0000
,
0000
0000
0000
0000
,
0000
0000
0001
0000
,
0000
0000
1000
0000
,
0000
0000
0001
0000
,
0001
0000
1000
0100
,
1000
0100
0010
0000
,
0000
0000
0000
0000
,
0000
0000
0001
1000
,
0001
0000
1000
0100
,
1000
0000
0001
0100
,
0001
0000
1000
0001
,
1000
0000
0001
0000
,
0010
0000
0100
0000
,
1000
0000
0010
0000
,
0100
0000
0001
0000
,
0000
0000
1000
1000
,
1000
1000
0100
0000
,
0100
0010
0001
0001
,
0001
0001
0100
0000
,
0010
0000
1000
0001
,
1000
0001
1000
0000
,
0000
0000
0001
1000
,
0001
1000
0001
0000
,
0000
0000
0000
1001
,
0000
0110
0000
1001
,
0000
0110
0000
0001
,
0010
0001
0100
0010
,
0010
0010
0000
1001
,
0000
0110
0000
1001
,
0000
0110
0000
1000
,
0010
1000
0100
0010
,
0010
0010
0001
0000
,
1000
0000
0001
0100
,
0001
0000
1000
0000
,
0001
0000
1000
0100
,
1000
0000
0001
0010
,
0001
0000
1000
0010
,
1000
0000
0010
0000
,
0010
0000
0100
0000
,
0100
0000
0001
0000
,
1000
0000
0001
0000
,
1000
0000
0020
0000
,
0000
0000
0030
0000
,
0000
0000
1001
0000
;

//---------------dance-single - NewbStepper-BSP----------------
#NOTEDATA:;
#CHARTNAME:NewbStepper-BSP;
#CHARTHASH:1246667424:
#STEPSTYPE:dance-single;
#DESCRIPTION:NewbStepper-BSP;
#DIFFICULTY:Easy;
#METER:8;
#RADARVALUES:0.383216,0.449715,0.268251,0.078897,0,340,306,34,10,0,0,0,0,0,0.383216,0.449715,0.268251,0.078897,0,340,306,34,10,0,0,0,0,0;
#CREDIT:NewbStepper;
#NOTES:
0000
0000
0000
0000
,
0000
0000
0000
0000
,
0000
0000
0000
0000
,
1000
0000
0001
0100
1000
0000
1000
0100
,
0001
0000
0001
0010
1000
0000
0020
0000
,
0000
0000
0030
0000
,
0001
0000
0100
0000
0010
0100
0001
0000
,
1000
0000
0100
0000
0010
0100
1000
0000
,
0001
0000
0100
0010
0100
0000
0001
0000
,
0101
1010
0110
1000
,
0001
0100
0001
0000
1000
0010
0000
0000
,
1000
0100
1000
0000
0001
0010
0000
0000
,
0001
0100
1000
0000
0100
0010
0000
0000
,
1001
0010
0010
2000
,
0001
0001
3001
1000
,
0100
0000
0001
0100
1000
0000
0002
0000
,
1000
0000
1000
0000
1003
0000
0010
1000
,
0100
0000
0010
0001
0100
0000
0020
0000
,
1000
0000
1000
0000
1030
0000
0001
0100
,
0010
0100
0001
0000
1001
0000
1100
0000
,
0000
0101
0000
0110
,
1001
0000
0010
0000
0001
0100
0001
0000
,
0001
0100
0001
0000
1000
0100
1000
0000
,
1000
0100
1000
0000
0001
0000
0101
0000
,
1000
0010
1000
1100
,
0110
0000
0110
0000
0001
0010
0001
0000
,
0001
0010
0001
0000
1000
0010
1000
0000
,
1000
0010
1000
0000
0001
0000
0011
0000
,
1000
0100
1000
1010
,
0110
0110
2001
0000
,
0000
0000
0000
0000
,
0000
0000
0002
0000
,
0000
0000
0000
0000
,
0000
3003
0010
0000
,
0001
0000
1000
0100
,
0001
0100
1000
0000
,
0010
0000
0100
0001
,
0010
1000
0010
0000
,
0010
0000
0010
0000
,
0010
0000
1001
0001
,
1000
0000
0000
0010
0000
0010
1000
0000
,
0100
0010
1001
1000
,
0001
0000
0000
0010
0000
0010
0001
0000
,
0100
0010
1000
0100
,
0001
0000
0100
0000
1000
0000
0010
0100
,
0010
0000
1000
0000
1000
0000
0001
0100
,
0000
0100
0000
0010
0000
0010
0000
0010
,
0000
0010
1000
0000
0001
0100
0001
0000
,
1000
0100
1000
0000
0001
0000
0010
0000
,
1000
0010
0001
0000
1000
0100
1000
0000
,
0001
0100
0001
0000
0010
0000
0100
0000
,
1000
0000
1001
0000
0100
0010
1000
0000
,
0100
0010
0001
0000
1000
0010
0100
0010
,
1000
1001
0010
0001
,
0100
0010
2000
0000
,
0000
3000
0000
1100
,
0010
0000
0001
0100
0001
0000
0101
0000
,
0010
0000
1000
0100
1000
0000
1001
0000
,
0010
1001
1000
0100
,
0010
0001
0010
0011
,
0100
0000
1000
0010
1000
0000
1010
0000
,
0100
0000
0001
0010
0001
0000
1001
0000
,
0100
0010
1000
0100
,
0010
0000
0001
0000
1000
0010
1000
0010
,
1000
0000
1001
0000
0001
0010
0001
0010
,
0001
1001
1000
0100
,
0010
0001
0100
0010
,
1000
0000
0001
0010
0001
0010
0001
0000
,
1001
0000
1000
0010
1000
0010
1000
0000
,
1001
0000
0010
0000
0001
0000
1000
0001
,
0000
1000
0001
0000
0010
0000
0001
1000
,
0000
0001
1000
0000
0100
0000
0100
0000
,
1000
0001
0100
0010
,
1000
0100
0020
0000
,
0000
0000
0030
0000
0001
0100
0001
0100
,
0001
1000
0100
0000
2002
0000
0000
0000
,
3003
0000
0000
0000
;

//---------------dance-single - NewbStepper-DSP----------------
#NOTEDATA:;
#CHARTNAME:NewbStepper-DSP;
#CHARTHASH:4095758371:
#STEPSTYPE:dance-single;
#DESCRIPTION:NewbStepper-DSP;
#DIFFICULTY:Medium;
#METER:12;
#RADARVALUES:0.564679,0.599620,0.560171,0.126236,0.126236,501,430,71,16,0,0,0,0,0,0.564679,0.599620,0.560171,0.126236,0.126236,501,430,71,16,0,0,0,0,0;
#CREDIT:NewbStepper;
#NOTES:
0000
0000
0000
0000
,
0000
0000
0000
0000
,
0000
0000
0000
0000
,
0101
0000
0000
0010
0000
0000
1000
0000
0100
0000
0000
0010
0000
0000
0001
0000
,
0100
0000
0000
0010
0000
0000
1000
0000
0001
0000
0000
0100
0020
0000
0000
0000
,
0000
0000
0000
0000
0000
0000
0000
0000
0000
0000
0000
0000
0000
0000
0000
0000
0000
0000
0000
0000
0000
0000
0000
0030
1000
0000
0000
0000
0010
0000
0000
0000
,
1000
0000
0100
0000
0001
0000
0000
0100
0000
0000
1000
0000
0000
0000
0001
0000
,
0100
0000
0001
0000
1000
0000
0000
0100
0000
0000
0001
0000
0100
0000
1000
0000
,
0010
0000
1000
0000
0100
0000
0000
0010
0000
0000
0001
0000
1000
0000
0010
0000
,
0001
0010
1010
0000
0101
0000
0001
0010
,
0001
0000
0100
0000
1000
0000
0000
0100
0000
0000
0001
0000
0000
0000
1000
0000
,
0100
0000
1000
0000
0001
0000
0000
0100
0000
0000
1000
0000
0100
0000
0001
0000
,
0010
0000
0001
0000
0100
0000
0000
0010
0000
0000
1000
0000
0001
0000
0100
0000
,
0101
0000
0000
0000
1010
0000
0000
1010
0000
0000
1010
0000
0200
0000
0000
0000
,
0001
0000
1000
0000
0310
0000
1000
0100
,
0010
0000
0001
0000
0100
0000
0000
0010
0000
0000
1000
0000
0002
0000
0000
0000
,
0010
0000
1000
0000
0013
0000
0100
1000
,
0010
0001
0010
1000
0100
0010
0200
0000
,
1000
0000
0001
0000
0310
0000
0001
0100
,
0010
1000
0100
0010
0001
0100
0001
0101
,
0000
0010
1000
1010
0000
0001
1000
1001
,
0101
0110
0010
0000
1000
0100
0010
0100
,
1000
0100
0010
0100
1000
0100
0010
0001
,
0100
0010
1000
0000
0001
0010
0011
0000
,
1000
0010
1010
0000
0001
0100
0101
0000
,
1010
0000
0110
0000
0001
0100
0010
0100
,
0001
0100
0010
0100
0001
0100
0010
1000
,
0100
0010
0001
0000
1000
0010
1010
0000
,
0001
0010
0011
0000
1010
0000
0110
0000
,
1001
1001
0210
0000
,
0002
0003
2000
3000
,
0020
0330
1002
0000
,
0200
0300
2000
3000
,
0020
0033
1001
0100
,
0100
0000
0100
0000
0010
0001
0100
0000
,
0010
1000
0100
0000
1001
0000
0100
0000
,
0010
0000
0001
0000
0100
0010
1000
0010
,
0100
0010
1000
0000
2001
0000
0100
0000
,
0000
3100
0002
0100
,
0000
0000
0103
0000
0011
0000
0001
0100
,
0010
0000
1000
0100
0000
1100
0000
0011
,
0000
0110
1001
0000
1010
0000
1000
0100
,
0010
0000
0001
0100
0000
0101
0000
1010
,
0000
0110
1001
1001
0010
0001
0100
0100
,
1000
0010
0100
0001
0010
0010
1000
0100
,
0010
0010
1000
0000
1100
0000
0011
0000
,
1000
0100
0010
0011
0000
1010
0000
0110
,
0000
0001
0001
0001
1000
0010
0100
0010
,
1000
0000
0010
0000
0100
0000
0001
0000
0100
0000
0000
0010
0000
0000
0100
0000
,
1000
0100
0001
0000
1000
0100
0001
0100
,
1000
0000
0100
0000
0010
0000
0001
0000
0011
0000
0000
0110
0000
0000
1001
0000
,
0000
0011
0000
0000
1100
0000
0000
0000
0001
0000
0010
0000
0100
0000
0010
0000
,
0001
0000
0010
0000
0100
0000
1000
0000
0100
0000
0000
0010
0000
0000
0100
0000
,
0001
0100
1000
0000
0001
0100
1000
0100
,
0001
0000
0100
0000
0010
0000
1000
0000
1010
0000
0000
0110
0000
0000
0101
0000
,
0000
1010
0000
0000
1001
0000
0000
0000
0010
0000
1000
0000
1100
0000
0000
0000
,
0010
0001
1000
0100
0010
0001
0101
0000
,
0010
1000
0001
0100
0010
1000
1010
0000
,
0100
0000
0001
0000
0010
0000
0000
0000
0001
0100
0000
0000
0100
0010
0000
0000
,
0010
1000
0000
0000
1001
0000
0000
0000
0010
0000
0001
0000
0101
0000
0000
0000
,
0010
1000
0001
0100
0010
1000
1100
0000
,
0010
0001
1000
0100
0010
0001
0011
0000
,
0100
1000
0010
0000
0100
0001
0010
0100
,
1000
0100
0010
0000
0001
0100
0001
1000
,
0001
0010
1000
0001
0100
1000
0010
1000
,
0100
0000
0010
0000
0001
0000
0000
0000
1000
0010
0000
0000
0010
0001
0000
0000
,
0001
0100
0000
0000
0100
1000
0000
0000
0010
0000
1000
0000
0100
0000
0010
0000
,
0001
0010
0100
0000
1000
0100
1000
0001
,
1000
0010
0001
1000
0100
0001
0010
0001
,
0100
0000
0010
0000
1000
0000
0000
0000
0101
0000
0000
0010
0000
0000
1000
0000
,
0000
0010
0000
0000
1001
0000
0000
0000
1100
0000
0000
0010
0000
0000
0001
0000
,
0000
0010
0000
0000
1001
0000
0000
0000
0101
0000
0000
0000
0101
0000
0000
0110
,
0000
0000
0010
0000
1000
0000
0000
0000
1100
0000
0000
0000
1100
0000
0000
0110
,
0000
1000
0100
0010
0002
0000
0100
0000
,
1000
0000
0100
0000
0013
0001
0100
1000
,
0001
0010
1000
0100
0020
0000
0000
0000
,
0030
0000
0000
0000
;

//---------------dance-single - NewbStepper-ESP----------------
#NOTEDATA:;
#CHARTNAME:NewbStepper-ESP;
#CHARTHASH:3880240781:
#STEPSTYPE:dance-single;
#DESCRIPTION:NewbStepper-ESP;
#DIFFICULTY:Hard;
#METER:16;
#RADARVALUES:0.774321,0.839468,0.599620,0.197243,0.682462,687,611,76,25,0,0,0,0,0,0.774321,0.839468,0.599620,0.197243,0.682462,687,611,76,25,0,0,0,0,0;
#CREDIT:NewbStepper;
#NOTES:
0000
0000
0000
0000
,
0000
0000
0000
0000
,
0000
0000
0000
0000
,
1100
0000
0000
0010
0000
0000
0001
0000
0100
0000
0000
0010
0000
0000
1000
0000
,
0002
0000
0000
0203
0000
0000
0310
0000
1010
0000
0000
0100
0220
0000
0000
0000
,
0000
0000
0000
0000
0000
0000
0000
0000
0000
0000
0000
0000
0000
0000
0000
0000
0000
0000
0000
0000
0000
0000
0000
0330
1000
0000
0000
0000
0001
0000
0010
0000
,
0001
0000
1000
0000
1010
0000
0000
0011
0000
0000
1010
0000
0000
0000
0100
0000
,
0001
0000
0010
0000
0110
0000
0000
1100
0000
0000
0110
0000
0001
0000
1000
0100
,
0010
0000
0001
0000
0101
0000
0000
1010
0000
0000
0101
0000
0001
0100
0001
0100
,
0010
0000
1000
0000
0001
0010
0100
0000
0220
0000
0330
0000
0001
0000
1000
0010
,
1000
0000
0001
0000
0011
0000
0000
1010
0000
0000
0011
0000
0000
0000
0100
0000
,
1000
0000
0010
0000
0110
0000
0000
0101
0000
0000
0110
0000
1000
0000
0010
0000
,
0001
0000
0010
0000
1010
0000
0000
0101
0000
0000
0110
0000
0010
1000
0010
1000
,
0100
0000
0000
0000
0110
0000
0000
0110
0000
0000
0110
0000
0001
0000
0100
0000
,
1000
0000
0001
0000
0010
0000
1000
0000
0100
0010
0100
0000
2000
0000
3002
0000
,
0013
0001
0100
0000
1000
0100
0000
0001
0100
0000
0010
0000
1000
0000
0010
0000
,
0001
0000
1000
0000
0100
0000
0001
0000
0010
0100
0010
0000
0001
0100
0001
0100
,
0010
1000
0010
1000
0100
0010
0100
0010
0001
0100
0001
0000
1000
0000
0100
0000
,
0001
0000
1000
0000
0010
0000
0001
0000
0100
0010
0100
0000
0001
1000
0001
1000
,
0010
0100
0010
0100
0001
1000
0001
1000
0010
0100
0010
0100
0001
0000
0101
0000
,
0000
0000
1000
0100
0010
0000
0110
0000
0000
0000
0001
0100
0010
0000
1010
0000
,
0110
0000
0101
0000
1001
0000
0000
0000
1000
0100
0010
0000
0001
0100
0010
0000
,
1000
0001
0010
0000
0001
1000
0010
0000
0100
0001
0100
0010
0100
0001
0100
0010
,
0100
0001
1000
0100
0010
0000
0001
0000
1000
0100
0010
0001
0020
0000
0000
0030
,
0001
0100
0010
1000
0010
1000
0100
0010
0001
0100
0000
1000
0100
0000
0010
0000
,
0110
0000
0000
0000
1001
0000
0000
0000
0010
1000
0000
0001
0100
0010
0000
1000
,
0100
1000
0001
1000
0100
1000
0001
0000
1000
0000
0010
0000
0001
0000
1000
0000
,
0100
0001
0011
0000
1100
0010
0110
0000
,
0101
0010
0110
0000
0001
1000
0100
0010
,
0001
0100
0010
1000
0100
0010
0001
0100
0020
0000
1000
0000
0000
0000
1000
0000
,
0000
1000
0030
1000
0200
0001
0000
0001
,
0300
0001
0100
0000
0020
0001
0000
0001
,
0000
0001
0030
0001
0200
1000
0000
1000
,
0300
1000
0100
0000
0110
0000
0001
0000
,
0010
1000
0010
0001
,
0101
1010
0110
1000
,
0010
0001
0010
1000
,
1100
0011
1002
0100
,
0000
0103
2000
0100
,
0000
3100
1010
0101
,
1010
0000
2000
0010
0000
0100
0000
0010
,
3000
0000
0100
0001
0010
0000
0000
0000
0011
0000
0000
0000
1100
0000
0000
0000
,
0011
0000
0002
0010
0000
0100
0000
0010
,
0003
0000
0100
1000
0010
0000
0010
0000
1000
0000
0100
0000
0001
0000
0100
0000
,
1000
0010
0001
0010
1000
1000
0001
0001
,
0100
0000
0100
0000
0010
0100
0010
0000
0110
0000
0000
0000
0110
0000
0000
0000
,
1001
0000
1000
0000
0100
0010
0100
0000
0000
0000
1000
0100
0000
0000
0001
0100
,
0000
0000
1100
0000
0001
0100
0001
0100
0010
1000
0000
0001
0010
0000
0100
1000
,
0000
0010
0100
0000
1000
0100
0001
0000
0010
0001
0000
0101
0000
0000
1010
0000
,
0100
0000
0100
0000
0001
0010
0100
1000
0001
0100
0000
0100
1000
0000
1000
0100
,
0000
0100
0001
0000
0010
0001
0100
0000
0010
1000
0000
1000
0100
0000
0100
0010
,
0000
0010
0001
0000
0101
0000
1010
0000
1000
0100
0010
0100
1000
0100
0010
0100
,
1000
0100
0000
0100
0010
0000
0001
0000
0100
0001
0000
0001
0010
0000
0010
0100
,
1000
0100
0010
0000
0001
0000
0100
0000
0010
1000
0001
1000
0010
1000
0001
1000
,
0010
0100
0001
0010
0100
1000
0010
0000
1010
0000
0000
0101
0000
0000
0110
0000
,
0000
1010
0000
0000
1001
0000
1001
0000
0010
0000
0001
0000
0201
0000
0000
0000
,
1300
0000
1000
0000
0100
0010
0100
0000
0001
0010
0001
0010
2000
0000
0000
0000
,
3001
0100
0001
0000
0100
0010
0100
0000
1000
0010
1000
0010
0002
0000
0000
0000
,
0013
0000
1000
0000
0010
0100
0010
0000
1000
0100
0000
0000
0100
0010
0000
0000
,
0010
0001
0000
0000
1001
0000
0000
0000
0010
0000
1000
0000
1200
0000
0000
0000
,
0301
0000
0001
0000
0100
0010
0100
0000
1000
0010
1000
0010
0002
0000
0000
0000
,
1003
0100
1000
0000
0100
0010
0100
0000
0001
0010
0001
0010
2000
0000
0000
0000
,
3010
0000
0001
0000
0010
0100
0010
0000
0001
0000
1000
0100
0001
0000
0100
0000
,
0010
0001
0010
0001
1000
0010
1000
0010
0100
0000
0001
0000
0010
0000
0100
0000
,
1000
0010
0001
1000
0100
0001
0010
0100
,
1000
0000
0010
0000
0100
0001
1000
0000
0001
0010
0000
0001
0010
0000
0100
1000
,
0000
0100
1000
0000
0010
0100
0001
0100
0010
0000
1000
0000
0100
0010
0000
0001
,
0100
0001
0100
0001
0020
0000
0000
0000
0130
0000
1000
0000
0010
0000
0100
0000
,
0001
0010
1000
0001
0100
1000
0010
0100
,
0001
0000
0010
0000
0100
0000
1000
0000
0001
0100
0000
0100
0010
0000
0010
1000
,
0000
1000
0100
0000
0110
0000
0000
0000
1000
0100
0000
0100
0010
0000
0010
0001
,
0000
0001
0100
0000
0110
0000
0000
0000
1001
0000
0000
0000
1010
0000
0000
0101
,
0000
0000
0010
1000
0100
0000
0100
0000
1001
0000
0000
0000
0011
0000
0000
1100
,
0000
0000
0010
0001
0100
0000
0010
0000
1000
0000
0100
0000
0010
0000
0001
0000
,
0100
0000
1000
0000
0100
0000
0001
0000
1000
0100
0010
0001
0100
0010
1000
0100
,
0010
0001
0100
0010
1000
0100
0010
0001
0200
0000
0000
0000
0000
0000
0000
0000
,
0300
0000
0000
0000
;

//---------------dance-double - NewbStepper-BDP----------------
#NOTEDATA:;
#CHARTNAME:NewbStepper-BDP;
#CHARTHASH:502122805:
#STEPSTYPE:dance-double;
#DESCRIPTION:NewbStepper-BDP;
#DIFFICULTY:Easy;
#METER:8;
#RADARVALUES:0.376453,0.449715,0.268251,0.078897,0,334,300,34,10,0,0,0,0,0,0.376453,0.449715,0.268251,0.078897,0,334,300,34,10,0,0,0,0,0;
#CREDIT:NewbStepper;
#NOTES:
00000000
00000000
00000000
00000000
,
00000000
00000000
00000000
00000000
,
00000000
00000000
00000000
00000000
,
00010000
00000000
10000000
01000000
00010000
00000000
00001000
00000100
,
00000001
00000000
00000001
00000010
00001000
00000000
00020000
00000000
,
00000000
00000000
00030000
00000000
,
10000000
00000000
01000000
00000000
00100000
01000000
10000000
00000000
,
00010000
00000000
01000000
00000000
00100000
01000000
00010000
00000000
,
00001000
00000000
00000100
00000010
00000100
00000000
00001000
00000000
,
00001100
00000011
00000110
00000001
,
00000100
00000010
00000100
00000000
00001000
00010000
00000000
00000000
,
01000000
00100000
01000000
00000000
00010000
00001000
00000000
00000000
,
00000010
00000001
00000100
00000000
00000010
00001000
00000000
00000000
,
00011000
00100000
00100000
00020000
,
10000000
10000000
10030000
00010000
,
01000000
00000000
10000000
01000000
00010000
00000000
00002000
00000000
,
00000001
00000000
00000001
00000000
00003001
00000000
00000010
00001000
,
00000100
00000000
00000010
00000001
00000100
00000000
00002000
00000000
,
00010000
00000000
00010000
00000000
00013000
00000000
00100000
00010000
,
10000000
00010000
01000000
00000000
10010000
00000000
11000000
00000000
,
00000000
01010000
00000000
00011000
,
00011000
00000010
00000001
00000100
,
00001000
00000010
00001000
00010000
,
00100000
00010000
01000000
10000000
,
11000000
00010000
00001000
00000110
,
00011000
00011000
00100000
10000000
,
01000000
00010000
00100000
00010000
,
00001000
00000010
00001000
00000100
,
00000001
00000101
00001000
00010000
,
01100000
01100000
20010000
00000000
,
00000000
00000000
00000000
00000000
,
00000000
00000000
00020000
00000000
,
00000000
00000000
00000000
00000000
,
00000000
30030000
00100000
00000000
,
10000000
00000000
01000000
00010000
,
00001000
00000100
00000001
00000000
,
00000010
00000000
00000001
00000000
,
00000100
00001000
00010000
01000000
,
10000000
00000000
00010000
00000000
,
10000000
00000000
10010000
10000000
,
00010000
00000000
00000000
00001000
00000000
00001000
00000000
00001000
,
00000000
00001000
00000010
00000000
00001001
00000000
00000001
00000000
,
00001000
00000000
00000000
00010000
00000000
00010000
00000000
00010000
,
00000000
00010000
10000000
00000000
01000000
00000000
00010000
00000000
,
00001000
00000000
00100000
00000000
00010000
00000000
00001000
00010000
,
00001000
00000000
00000100
00000000
00000010
00000000
00000001
00000100
,
00000000
00000100
00000000
00000010
00000000
00000010
00000000
00001000
,
00000000
00001000
00010000
00000000
10000000
01000000
10000000
00000000
,
00010000
01000000
00010000
00000000
10000000
00000000
00100000
00000000
,
00010000
00001000
00000010
00000000
00000001
00000100
00000001
00000000
,
00001000
00000100
00001000
00000000
00000001
00000000
00000010
00000000
,
00001000
00000000
00010000
00000000
00011000
00000000
01000000
00100000
,
10000000
00000000
01000000
00100000
00010000
00000000
00001000
00000100
,
00000010
00000100
00001000
00000000
00001001
00000000
00000010
00000000
,
00000001
00000100
00002000
00000000
,
00000000
00003000
00011000
00100000
,
10000000
01000000
10000000
00000000
11000000
00000000
00010000
00000000
,
00100000
00001000
00100000
00000000
01010000
00000000
00100000
00000000
,
00011000
00000010
00001000
00010000
,
00000100
00001000
00011000
00000010
,
00000001
00000100
00000001
00000000
00000101
00000000
00001000
00000000
,
00000010
00010000
00000010
00000000
00001100
00000000
00000010
00000000
,
00011000
00100000
00010000
00001000
,
01000000
00000000
00010000
00000000
10000000
00100000
10000000
00100000
,
10000000
00000000
10010000
00000000
00001000
00010000
00001000
00010000
,
00001000
00011000
00100000
00010000
,
01000000
00001000
00010000
00000100
,
00000010
00000100
00000010
00000000
00000001
00000010
00000001
00000010
,
00000001
00000000
00001001
00000000
00010000
00001000
00010000
00001000
,
00010000
00011000
00000010
00001000
,
00010000
00001000
00010000
00000000
00100000
00000000
00010000
00000000
,
00001000
00010000
00001000
00000000
00100000
00000000
00100000
00000000
,
00010000
10000000
00010000
00001000
,
00000001
00001000
00000200
00000000
,
00000000
00000000
00000300
00000000
00010000
00001000
00010000
00001000
,
00100000
00001000
00010000
00000000
00022000
00000000
00000000
00000000
,
00033000
00000000
00000000
00000000
;

//---------------dance-double - NewbStepper-DDP----------------
#NOTEDATA:;
#CHARTNAME:NewbStepper-DDP;
#CHARTHASH:1971057271:
#STEPSTYPE:dance-double;
#DESCRIPTION:NewbStepper-DDP;
#DIFFICULTY:Medium;
#METER:13;
#RADARVALUES:0.547773,0.599620,0.402376,0.142015,0.114401,486,435,51,18,0,0,0,0,0,0.547773,0.599620,0.402376,0.142015,0.114401,486,435,51,18,0,0,0,0,0;
#CREDIT:NewbStepper;
#NOTES:
00000000
00000000
00000000
00000000
,
00000000
00000000
00000000
00000000
,
00000000
00000000
00000000
00000000
,
00000101
00000000
00000000
00000010
00000000
00000000
00001000
00000000
00000100
00000000
00000000
00010000
00000000
00000000
00001000
00000000
,
00100000
00000000
00000000
01000000
00000000
00000000
00010000
00000000
00001000
00000000
00000000
00100000
00020000
00000000
00000000
00000000
,
00000000
00000000
00000000
00000000
00000000
00000000
00000000
00000000
00000000
00000000
00000000
00000000
00000000
00000000
00000000
00000000
00000000
00000000
00000000
00000000
00000000
00000000
00000000
00030000
10000000
00000000
00000000
00000000
00100000
00000000
00000000
00000000
,
10000000
00000000
01000000
00000000
00010000
00000000
00000000
00001000
00000000
00000000
00010000
00000000
00000000
00000000
00100000
00000000
,
00010000
00000000
00001000
00000000
00000010
00000000
00000000
00000001
00000000
00000000
00000100
00000000
00000001
00000000
00000010
00000000
,
00000001
00000000
00000100
00000000
00001000
00000000
00000000
00010000
00000000
00000000
00100000
00000000
00010000
00000000
10000000
00000000
,
01000000
00010000
00110000
00000000
00001100
00000000
00000001
00000010
,
00000001
00000000
00000100
00000000
00001000
00000000
00000000
00010000
00000000
00000000
00001000
00000000
00000000
00000000
00000010
00000000
,
00001000
00000000
00010000
00000000
00100000
00000000
00000000
10000000
00000000
00000000
01000000
00000000
10000000
00000000
00100000
00000000
,
10000000
00000000
01000000
00000000
00010000
00000000
00000000
00001000
00000000
00000000
00000010
00000000
00001000
00000000
00010000
00000000
,
00011000
00000000
00000000
00000000
00000101
00000000
00000000
00000101
00000000
00000000
00000101
00000000
00000020
00000000
00000000
00000000
,
00001000
00000000
00000001
00000000
00000100
00000000
00010030
00001000
,
00000010
00000000
00001000
00000000
00010000
00000000
00000000
01000000
00000000
00000000
10000000
00000000
00020000
00000000
00000000
00000000
,
01000000
00000000
10000000
00000000
00100000
00000000
10030000
01000000
,
00100000
00010000
00001000
00000100
00000010
00000001
00002000
00000000
,
00000100
00000000
00000001
00000000
00000010
00000000
00003001
00000100
,
00000010
00001000
00010000
01000000
00100000
10000000
00010000
10010000
,
00000000
01000000
00100000
01100000
00000000
00010000
00001000
00011000
,
00010010
00001010
00000100
00000000
00000001
00000100
00000010
00000100
,
00001000
00000100
00010000
00000100
00001000
00010000
00001000
00100000
,
10000000
00100000
00010000
01000000
00100000
00010000
00011000
00000000
,
00000010
00001000
00011000
00000000
00010000
00001000
00010000
00100000
,
10100000
00000000
10010000
00000000
10000000
01000000
00100000
01000000
,
00010000
01000000
00001000
01000000
00010000
00001000
00010000
00000010
,
00000001
00000010
00001000
00000100
00000010
00001000
00011000
00000000
,
00100000
00010000
00011000
00000000
00001000
00010000
00001000
00000010
,
00000001
00000100
00000010
00001000
00020000
00000000
00000000
00000000
,
02000000
03000000
20000000
30000000
,
00200000
00300000
00032000
00000000
,
00000200
00000300
00000002
00000003
,
00000020
00003030
00001001
00000100
,
00000100
00000100
00000010
00001000
,
00100000
00100000
10010000
01000000
,
01000000
00000000
01000000
00000000
00100000
00010000
00001000
00000000
,
00000010
00001000
00010000
01000000
20000000
00000000
01000000
00000000
,
00000000
31000000
00020000
01000000
,
00000000
01030000
10100000
00110000
,
20100000
00000000
00000000
30010000
00000000
00010000
00000000
00001000
,
00000000
00001000
00000100
00000000
00000011
00000000
00001010
00000000
,
00000012
00000000
00000000
00001003
00000000
00001000
00000000
00010000
,
00000000
00010000
01000000
01000000
00100000
00000000
10010000
00000000
,
10000000
01000000
00010000
00010000
00100000
00001000
00010000
00100000
,
10000000
01000000
00010000
00001000
00010000
00000010
00001000
00010000
,
00001000
00000010
00000100
00000101
00000000
00001010
00000000
00000110
,
00000000
00000001
00000001
00000001
00001000
00000010
00010000
00001000
,
00000010
00000000
00001000
00000000
00010000
00000000
00001000
00000000
00100000
00000000
00000000
00100000
00000000
00000000
10000000
00000000
,
00010000
00010000
00100000
10000000
00010000
00100000
00001000
00010000
,
00100000
00000000
00010000
00000000
00001000
00000000
00010000
00000000
00010010
00000000
00000000
00011000
00000000
00000000
00101000
00000000
,
00000000
00011000
00000000
00000000
00010100
00000000
00000000
00000000
00000010
00000000
00000001
00000000
00000100
00000000
00001000
00000000
,
00000100
00000000
00000010
00000000
00001000
00000000
00010000
00000000
01000000
00000000
00000000
00100000
00000000
00000000
00010000
00000000
,
00000000
00001000
00000000
00000000
00010000
00000000
00100000
00000000
10000000
00000000
01000000
00000000
00010000
00000000
00001000
00000000
,
00000100
00000000
00000001
00000000
00000010
00000000
00001000
00000000
00011000
00000000
00000000
01001000
00000000
00000000
00011000
00000000
,
00000000
00010100
00000000
00000000
00000110
00000000
00000000
00000000
00000001
00000000
00000010
00000000
00001000
00000000
00000000
00000000
,
00010000
01000000
10000000
00010000
10000000
00100000
00010000
00000000
,
00001000
00000100
00000001
00001000
00000001
00000010
00001000
00000000
,
00010000
00000000
01000000
00000000
10000000
00000000
00000000
00000000
10000000
01000000
00000000
00000000
01000000
00010000
00000000
00000000
,
00010000
00001000
00000000
00000000
00011000
00000000
00000000
00000000
00000010
00000000
00000001
00000000
00000100
00000000
00000000
00000000
,
00000010
00001000
00000100
00000001
00000100
00001000
00010000
00000000
,
00100000
00010000
01000000
10000000
01000000
00010000
00001000
00000000
,
00000010
00000100
00000001
00000010
00000100
00001000
00010000
00100000
,
01000000
10000000
00010000
00000000
10000000
01000000
00010000
01000000
,
00100000
00001000
00010000
00001000
00000010
00000100
00010000
00001000
,
00000100
00000010
00001000
00010000
01000000
00100000
00010000
00001000
,
00000010
00001000
00010000
00100000
10000000
01000000
00010000
00001000
,
00000100
00000001
00001000
00000000
00000001
00000100
00001000
00000100
,
00000010
00010000
00001000
00010000
00100000
01000000
00001000
00010000
,
01000000
00000000
00100000
00000000
00010000
00000000
00000000
00000000
11000000
00000000
00000000
00100000
00000000
00000000
00010000
00000000
,
00000000
00000100
00000000
00000000
00000110
00000000
00000000
00000000
00000101
00000000
00000000
00000010
00000000
00000000
00001000
00000000
,
00000000
01000000
00000000
00000000
01100000
00000000
00000000
00000000
10100000
00000000
00000000
00000000
01100000
00000000
00000000
01010000
,
00000000
00000000
00010000
00000000
00001000
00000000
00000000
00000000
00000011
00000000
00000000
00000000
00000110
00000000
00000000
00001100
,
00000000
00000001
00000100
00001000
00020000
00000000
00100000
00000000
,
00000010
00000000
00130000
00000000
00001000
00010000
01000000
10000000
,
00100000
00010000
00001000
00000100
00000002
00000000
00000000
00000000
,
00000003
00000000
00000000
00000000
;

//---------------dance-double - NewbStepper-EDP----------------
#NOTEDATA:;
#CHARTNAME:NewbStepper-EDP;
#CHARTHASH:2005015468:
#STEPSTYPE:dance-double;
#DESCRIPTION:NewbStepper-EDP;
#DIFFICULTY:Hard;
#METER:16;
#RADARVALUES:0.731491,0.839468,0.433935,0.213023,0.611454,649,594,55,27,0,0,0,0,0,0.731491,0.839468,0.433935,0.213023,0.611454,649,594,55,27,0,0,0,0,0;
#CREDIT:NewbStepper;
#NOTES:
// measure 0
00000000
00000000
00000000
00000000
,  // measure 1
00000000
00000000
00000000
00000000
,  // measure 2
00000000
00000000
00000000
00000000
,  // measure 3
10100000
00000000
00000000
01000000
00000000
00000000
00010000
00000000
00001000
00000000
00000000
00000010
00000000
00000000
00000100
00000000
,  // measure 4
00000002
00000000
00000000
00000023
00000000
00000000
00000130
00000000
00001100
00000000
00000000
00000010
00000220
00000000
00000000
00000000
,  // measure 5
00000000
00000000
00000000
00000000
00000000
00000000
00000000
00000000
00000000
00000000
00000000
00000000
00000000
00000000
00000000
00000000
00000000
00000000
00000000
00000000
00000000
00000000
00000000
00000330
00001000
00000000
00000000
00000000
00000001
00000000
00000010
00000000
,  // measure 6
00000001
00000000
00000100
00000000
00001000
00000000
00000000
00010000
00000000
00000000
00011000
00000000
00000000
00000000
00100000
00000000
,  // measure 7
10000000
00000000
01000000
00000000
00010000
00000000
00000000
00001000
00000000
00000000
00011000
00000000
00010000
00000000
00001000
00000000
,  // measure 8
00000100
00000000
00001000
00000000
00010000
00000000
00000000
00001000
00000000
00000000
00000010
00000000
00000001
00000000
00000100
00000010
,  // measure 9
00001000
00000000
00010000
00000000
01010000
00000000
00000000
00000000
10100000
00000000
00000000
00000000
00010000
00000000
10000000
00100000
,  // measure 10
10000000
00000000
01000000
00000000
00010000
00000000
00000000
00001000
00000000
00000000
00011000
00000000
00000000
00000000
00000010
00000000
,  // measure 11
00000001
00000000
00000100
00000000
00001000
00000000
00000000
00010000
00000000
00000000
00011000
00000000
00001000
00000000
00010000
00000000
,  // measure 12
01000000
00000000
00010000
00000000
00001000
00000000
00000000
00010000
00000000
00000000
00100000
00000000
10000000
01000000
10000000
01000000
,  // measure 13
00100000
00000000
00000000
00000000
01100000
00000000
00000000
01100000
00000000
00000000
01100000
00000000
00010000
00000000
00001000
00000000
,  // measure 14
00000010
00000000
00001000
00000000
00010000
00000000
00001000
00000000
00000100
00000010
00000100
00000000
00000002
00000000
00002003
00000000
,  // measure 15
00003010
00000100
00000001
00000000
00001000
00000100
00000000
00000010
00000100
00000000
00010000
00000000
00001000
00000000
00010000
00000000
,  // measure 16
00100000
00000000
00010000
00000000
00001000
00000000
00010000
00000000
01000000
00100000
01000000
00000000
10000000
00100000
10000000
00100000
,  // measure 17
01000000
00010000
01000000
00010000
00100000
00001000
00100000
00001000
00010000
00000000
00000100
00000000
00010000
00000000
00001000
00000000
,  // measure 18
00000100
00000000
00001000
00000000
00010000
00000000
00001000
00000000
00000010
00000100
00000010
00000000
00000001
00000100
00000001
00000100
,  // measure 19
00000010
00001000
00000010
00001000
00000100
00010000
00000100
00010000
00001000
00100000
00001000
00100000
00010000
00000000
10010000
00000000
,  // measure 20
00000000
00000000
10000000
01000000
00010000
00000000
00011000
00000000
00000000
00000000
00000010
00000100
00000010
00000000
00000110
00000000
,  // measure 21
00001001
00000000
00001100
00000000
00000101
00000000
00000000
00000000
00000010
00000001
00001000
00000000
00000010
00001000
00000001
00000000
,  // measure 22
00000100
00000010
00001000
00000000
00000100
00010000
00001000
00000000
00010000
00100000
10000000
00000000
01000000
00100000
01000000
00000000
,  // measure 23
10000000
00010000
00100000
00000000
00001000
00010000
00100000
00000000
01000000
00010000
01000000
00001000
00020000
00000000
00000000
00000000
,  // measure 24
00030100
00000010
00000100
00000010
00001000
00000000
00010000
00000000
00100000
10000000
00010000
10000000
01000000
00000000
00100000
00000000
,  // measure 25
01100000
00000000
00000000
00000000
10010000
00000000
00000000
00000000
00100000
10000000
00010000
00000000
00100000
00010000
10000000
00000000
,  // measure 26
01000000
00100000
00010000
00000000
01000000
00001000
00010000
00001000
01000000
00001000
00010000
00000000
00001000
00000000
00000010
00000000
,  // measure 27
00000001
00000100
00000101
00000000
00000110
00001000
00011000
00000000
,  // measure 28
01100000
00010000
00011000
00000000
00001000
00010000
00100000
10000000
,  // measure 29
00010000
01000000
00001000
00010000
00000100
00001000
00000001
00000100
00000020
00000000
00010000
00000000
00000000
00000000
00010000
00000000
,  // measure 30
00000000
00010000
00000030
00010000
02000000
10000000
00000000
10000000
,  // measure 31
03000000
10000000
00010000
00000000
00200000
00001000
00000000
00001000
,  // measure 32
00000000
00001000
00300000
00001000
00000200
00000001
00000000
00000001
,  // measure 33
00000300
00000001
00001000
00000000
00020000
00000000
01000000
00000000
,  // measure 34
10000000
00100000
00032000
00000100
,  // measure 35
00000001
00000010
00023000
01000000
,  // measure 36
10000000
00100000
00032000
00000100
,  // measure 37
00000001
00000010
00023000
01000000
,  // measure 38
00000000
01030000
20000000
01000000
,  // measure 39
00000000
31000000
01100000
00110000
,  // measure 40
00011000
00000000
00002000
00000100
00000000
00010000
00000000
00000010
,  // measure 41
00003000
00000000
00010000
00000100
00001000
00000000
00000000
00000000
00000110
00000000
00000000
00000000
00001010
00000000
00000000
00000000
,  // measure 42
00011000
00000000
00020000
01000000
00000000
00001000
00000000
00100000
,  // measure 43
00030000
00000000
00001000
01000000
00010000
00000000
00010000
00000000
10000000
00000000
01000000
00000000
00010000
00000000
01000000
00000000
,  // measure 44
00001000
00010000
00100000
00010000
00001000
00000100
00000001
00000100
,  // measure 45
00001000
00000010
00010000
00001000
00011000
00000000
00011000
00000000
,  // measure 46
01100000
00010000
00001000
00000110
00000000
00001001
00000000
00000101
,  // measure 47
00000000
00000000
00001100
00000000
00010000
00001000
00010000
00001000
00100000
00010000
00000000
10000000
00100000
00000000
01000000
00010000
,  // measure 48
00000000
00100000
00001000
00000000
00010000
00001000
00010000
00000000
00100000
00010000
00000000
00010000
00001000
00000000
00000010
00000000
,  // measure 49
00000001
00000000
00000001
00000000
00000100
00000010
00000100
00000000
00000010
00001000
00000000
00000001
00000010
00000000
00000100
00001000
,  // measure 50
00000000
00000010
00010000
00000000
00001000
00010000
00001000
00000000
00010000
00100000
00000000
00100000
10000000
00000000
10000000
01000000
,  // measure 51
00000000
01000000
00010000
00000000
00001000
00000000
00011000
00000000
00010000
00000100
00010000
00001000
00000000
00000010
00000100
00000000
,  // measure 52
00010000
00001000
00000100
00000000
00000001
00000000
00000010
00000000
00000001
00000100
00000000
00000100
00000010
00000000
00000010
00001000
,  // measure 53
00000000
00001000
00010000
00000000
00100000
00000000
00010000
00000000
10000000
01000000
10000000
01000000
00100000
00010000
00100000
00010000
,  // measure 54
00001000
00000100
00001000
00000100
00000010
00000001
00000010
00000001
00000100
00000000
00000000
00000101
00000000
00000000
00000110
00000000
,  // measure 55
00000000
00001010
00000000
00000000
00011000
00000000
00011000
00000000
00100000
00000000
10000000
00000000
12000000
00000000
00000000
00000000
,  // measure 56
03010000
00000000
00010000
00000000
00001000
00010000
00001000
00000000
00000100
00000010
00000100
00000010
00002000
00000000
00000000
00000000
,  // measure 57
00003001
00000000
00000001
00000000
00000100
00000010
00000100
00000000
00001000
00010000
00001000
00010000
00200000
00000000
00000000
00000000
,  // measure 58
10300000
00000000
10000000
00000000
00010000
01000000
00010000
00000000
10000000
01000000
00000000
00000000
01000000
00010000
00000000
00000000
,  // measure 59
00010000
00001000
00000000
00000000
00011000
00000000
00000000
00000000
00000010
00000000
00000001
00000000
00000201
00000000
00000000
00000000
,  // measure 60
00001300
00000000
00001000
00000000
00010000
00001000
00010000
00000000
01000000
00100000
01000000
00100000
00020000
00000000
00000000
00000000
,  // measure 61
10030000
00000000
10000000
00000000
01000000
00100000
01000000
00000000
00010000
00001000
00010000
00001000
00000020
00000000
00000000
00000000
,  // measure 62
00000031
00000000
00000001
00000000
00001000
00000100
00001000
00000000
00000001
00000000
00000100
00001000
00010000
00000000
00001000
00000000
,  // measure 63
00100000
00010000
00100000
00010000
10000000
00100000
10000000
00100000
01000000
00000000
00001000
00000000
00010000
00000000
00100000
00000000
,  // measure 64
00001000
00100000
01000000
00010000
00001000
00000100
00010000
00000100
,  // measure 65
00001000
00000000
00000001
00000000
00000100
00000010
00001000
00000010
00000100
00000001
00000000
00000100
00000010
00000000
00000100
00001000
,  // measure 66
00000000
00010000
00001000
00000000
00100000
00010000
00100000
00000000
01000000
10000000
00000000
01000000
00100000
00000000
01000000
00010000
,  // measure 67
00000000
00001000
00100000
00001000
00020000
00000000
00000000
00000000
00030100
00000000
00010000
00000000
00001000
00000000
00000010
00000000
,  // measure 68
00010000
00000010
00000100
00001000
00010000
01000000
00001000
01000000
,  // measure 69
00010000
00000000
10000000
00000000
00100000
00000000
00010000
00000000
00001000
00010000
00000000
00000100
00010000
00000000
00001000
00010000
,  // measure 70
00000000
00000010
00010000
00000000
00011000
00000000
00000000
00000000
00010000
00001000
00000000
00100000
00001000
00000000
00010000
00001000
,  // measure 71
00000000
01000000
00001000
00000000
00011000
00000000
00000000
00000000
00010100
00000000
00000000
00000000
00001010
00000000
00000000
00000101
,  // measure 72
00000000
00000000
00000010
00000100
00001000
00000000
00000000
00000000
01001000
00000000
00000000
00000000
00110000
00000000
00000000
11000000
,  // measure 73
00000000
10000000
01000000
00010000
00001000
00000100
00000001
00000010
,  // measure 74
00001000
00000000
00010000
00000000
00100000
00000000
10000000
00000000
00100000
10000000
00010000
10000000
01000000
00100000
00001000
00010000
,  // measure 75
00000100
00001000
00000001
00001000
00000010
00010000
00001000
00100000
00020000
00000000
00000000
00000000
00000000
00000000
00000000
00000000
,  // measure 76
00030000
00000000
00000000
00000000
;
