#TITLE:128beat;
#ARTIST:xRGTMx;
#ARTISTTRANSLIT:RGTM;
#BANNER:128beat.png;
#BACKGROUND:128beat-bg.png;
#MUSIC:128beat.ogg;
#SAMPLESTART:46.875;
#SAMPLELENGTH:15;
#BPMS:0=128;
#STOPS:146.667=0.469;

//---------------dance-single - Marten-bSP----------------
#NOTES:
     dance-single:
     Marten:
     Beginner:
     4:
     :
0000
0000
0000
0000
,
0000
0000
0000
0000
,
0000
0000
0000
0000
,
0000
0000
0000
0000
,
0000
0000
0000
0000
,
2000
0000
3000
0000
,
0002
0000
0003
0000
,
0020
0000
0030
0000
,
0200
0000
0300
0000
,
1000
0000
1001
0000
,
0001
0000
1001
0000
,
1000
0000
1001
0000
,
0001
0000
1001
0000
,
0010
0000
0110
0000
,
0100
0000
0110
0000
,
0010
0000
0110
0000
,
0100
0000
0100
0000
,
0001
0000
0001
0000
,
1000
0000
1000
0000
,
0010
0000
0010
0000
,
0100
0000
0100
0100
,
0100
0000
0001
0000
,
0010
0000
0100
0000
,
1000
0000
0010
0000
,
0100
0000
0001
0001
,
0001
0000
0100
0000
,
1000
0000
0100
0000
,
0001
0000
0010
0000
,
1000
0000
0010
0010
,
0010
0000
0001
0000
,
0100
0000
0010
0000
,
1000
0000
0100
0000
,
0010
0000
0001
0002
,
2003
0000
0000
3000
,
0020
0000
0000
0030
,
0200
0000
0000
0300
,
0002
0000
0003
1000
,
0000
1000
1000
0100
,
0000
0100
0100
0010
,
0000
0110
0000
0010
,
0000
0110
0000
0001
,
0000
0001
0001
0100
,
0000
0100
0100
0010
,
0000
0110
0000
0010
,
0000
0110
0100
0100
,
0000
0001
0000
1000
,
0000
0100
0100
0010
,
0000
0001
0000
1000
,
0000
0010
0010
1000
,
0000
0100
0000
0010
,
0000
0001
0001
0001
,
0000
0100
0000
0010
,
0000
1000
0000
0001
,
0001
0001
0000
1000
,
1000
1000
0000
0010
,
0010
0010
0000
0100
,
0100
0100
0000
0001
,
0001
0001
0000
0010
,
0010
0010
0000
0100
,
0100
0100
0000
1000
,
1000
2000
3000
1002
,
0000
0013
0000
2000
,
0000
3010
0000
0002
,
0000
0103
0100
0010
,
0010
1000
0000
0002
,
0000
0013
0000
2000
,
0000
3010
0000
0002
,
0000
1003
1000
1000
,
0000
0100
0100
0010
;

//---------------dance-single - Marten-BSP----------------
#NOTES:
     dance-single:
     Marten:
     Easy:
     7:
     :
0000
0000
0000
0000
,
0000
0000
0000
0000
,
0000
0000
0000
0000
,
0000
0000
0000
0000
,
0000
0000
0000
0000
,
2000
0100
3100
0010
,
0002
0100
0103
0010
,
2000
0010
3010
0100
,
0002
0013
0001
0001
,
2001
0000
3100
1000
,
0002
0000
0103
0001
,
0020
0000
0130
1000
,
0020
0000
0130
0001
,
2000
0000
3100
1000
,
0002
0000
0103
0010
,
2000
0000
3100
0010
,
0001
0001
1000
1000
,
0001
0100
0001
0001
,
1000
0100
1000
1000
,
0001
0010
0001
0001
,
1000
0010
1000
1001
,
1000
0100
0010
0010
,
0001
0100
0010
0010
,
1000
0100
0001
0100
,
2000
0000
0001
3001
,
1000
1001
0001
0100
,
0010
0110
0010
1000
,
0001
1001
1000
0100
,
0010
0110
0010
0002
,
1003
0100
0001
0100
,
1000
0010
0100
0001
,
0001
0100
1000
0100
,
0001
0010
0100
2000
,
3002
0000
0000
0013
,
0002
0000
0000
0103
,
0020
0000
0000
1030
,
0020
0000
0030
1000
,
1100
0100
0010
0001
,
0101
0100
0010
1000
,
0000
1001
0000
0001
,
0100
0110
0000
1000
,
1010
0010
0100
0001
,
0011
0010
0100
1000
,
0000
1001
0000
0010
,
0100
0110
0010
2001
,
0100
3100
0010
0002
,
0100
0103
0010
2000
,
0010
3010
0100
0002
,
0010
0103
0001
0200
,
0010
0310
1000
0200
,
0010
0310
0001
2000
,
0010
3001
0001
0002
,
0013
0020
0130
2100
,
0100
3100
1000
0002
,
0100
0103
0001
0020
,
0100
0130
0100
2000
,
0010
3100
1000
0002
,
0010
0013
0010
0200
,
0010
0310
0100
2000
,
0001
3001
0001
2000
,
3010
0200
0302
2003
,
3000
1100
0010
0002
,
0003
0101
0100
0020
,
0130
0002
0023
0230
,
2300
3001
1000
0020
,
0030
0101
0001
0020
,
0030
1100
1000
0020
,
0130
0020
2030
3002
,
0103
0002
0023
0130
;

//---------------dance-single - Marten-DSP----------------
#NOTES:
     dance-single:
     Marten:
     Medium:
     11:
     :
0000
0000
0000
0000
,
0000
0000
0000
0000
,
0000
0000
0000
0000
,
0000
0000
0000
0000
,
0000
0000
0000
0000
,
0002
0000
0000
0100
0000
0000
0103
0000
0000
0010
0100
0010
,
2000
0000
0000
0100
0000
0000
3100
0000
0000
0010
0100
0010
,
0002
0000
0000
0010
0000
0000
0013
0000
0000
0100
0010
0100
,
2000
3010
0200
0301
,
2001
0000
0000
3100
0000
0000
0011
0000
0000
0001
0100
0001
,
0200
0000
0000
0310
0000
0000
1010
0000
0000
1000
0100
1000
,
0002
0000
0000
0103
0000
0000
1010
0000
0000
1000
0100
1000
,
0200
0000
0000
0310
0000
0000
0011
0000
0000
0010
0001
0010
,
0200
0000
0000
1300
0000
0000
1100
0000
0000
1000
0010
1000
,
0020
0000
0000
0130
0000
0000
0101
0000
0000
0001
1000
0001
,
2000
0000
0000
3100
0000
0000
0110
0000
0000
0010
0001
0010
,
0002
0023
0230
2300
,
3001
0000
0010
0000
0001
0000
1000
0000
0010
0000
1000
0000
,
0001
0000
0100
0000
0001
0000
1000
0000
0100
0000
1000
0100
,
0010
0000
0001
0000
0100
0000
0010
0000
1000
0000
0100
0000
,
0010
0000
0001
0000
0100
0000
0010
1000
0010
2000
0000
0000
,
3001
0000
0001
0000
0001
0000
0010
0000
0010
0000
0010
0000
,
0100
0000
0100
0000
0100
0000
1000
0000
1000
0000
1000
0001
,
1000
0000
1000
0000
1000
0000
0010
0000
0010
0000
0010
0000
,
0100
0000
0100
0000
0100
0000
0001
0000
0000
1000
0000
0000
,
0100
0000
1000
0001
0000
1000
0010
0000
1000
0100
0000
0100
,
0010
0000
0001
1000
0000
0001
0010
0000
0001
0100
0000
0100
,
0010
0000
1000
0100
0000
1000
0001
0000
1000
0010
0000
0100
,
0001
0000
0001
0100
0000
0001
1000
0000
0000
0020
0000
0000
,
1030
0000
1000
0100
0000
0100
0010
0000
0010
0001
0000
0001
,
0100
0000
0100
0010
0000
0010
1000
0000
1000
0001
0000
0001
,
1000
0000
1000
0010
0000
0010
0100
0000
0100
0001
0000
0001
,
0010
0000
0010
0100
0000
0100
1000
0000
1000
0002
0000
0000
,
2003
0000
0000
3010
,
0200
0000
0000
0301
,
0020
0000
0000
1030
,
0020
0000
0000
0000
0000
0000
0000
0000
0000
0031
0000
0100
,
0000
0001
0000
1000
0000
0010
0100
0000
0010
1000
0000
0100
,
0000
1000
0000
0001
0000
0010
0100
0000
0010
0001
0000
0000
,
0100
0000
0000
0110
0000
0000
0010
0000
0000
1000
0000
0100
,
0010
0000
0000
0110
0000
0010
0000
0001
0000
1000
0000
0010
,
0000
1000
0000
0001
0000
0100
0001
0000
1000
0001
0000
0010
,
0000
0001
0000
1000
0000
0100
1000
0000
0001
1000
0000
0000
,
0100
0000
0000
0110
0000
0000
0010
0000
0000
0001
0000
0100
,
0010
0000
0000
0110
0000
0000
0010
1000
0010
2000
0000
0000
,
3200
0000
1300
0010
0000
0000
0100
0001
0100
0002
0000
0000
,
0203
0000
0301
0010
0000
0000
0100
1000
0100
2000
0000
0000
,
3020
0000
1030
0100
0000
0000
0010
0001
0010
0002
0000
0000
,
0023
0000
0031
0100
0000
0000
0001
1000
0001
0020
0000
0000
,
0230
0000
1300
0001
0000
0000
1000
0001
1000
0020
0000
0000
,
0230
0000
0301
1000
0000
0000
0001
1000
0001
0200
0000
0000
,
0320
0000
1030
0001
0000
0000
1000
0001
1000
0200
0000
0000
,
0320
0031
0001
2001
,
0010
0000
0000
3010
0000
0000
0100
0001
0100
0002
0000
0000
,
0010
0000
0000
0013
0000
0000
0100
1000
0100
0020
0000
0000
,
0001
0000
0000
0031
0000
0000
0100
0001
0100
0020
0000
0000
,
1000
0000
0000
0130
0000
0000
0100
0001
1000
0002
0000
0000
,
0010
0000
0000
0013
0000
0000
0100
1000
0001
2000
0000
0000
,
0010
0000
0000
3010
0000
0000
0010
1000
0010
0200
0000
0000
,
0001
0000
0000
0301
0000
0000
0010
0001
0010
0002
0000
0000
,
1000
2003
3001
1002
,
0103
0000
0000
0110
0000
0000
0010
1000
0010
2000
0000
0000
,
3100
0000
0000
0110
0000
0000
0010
0001
0010
0002
0000
0000
,
0103
0020
2030
3002
,
0023
0000
0000
0130
1000
0100
1000
0000
1000
0002
0000
0000
,
1003
0000
0000
1010
0000
0000
0010
1000
0001
2000
0000
0000
,
3001
0000
0000
0011
0000
0000
0001
0100
0001
2000
0000
0000
,
3100
0000
0000
0020
0000
0031
0010
0001
0010
0100
0000
0100
,
1000
0000
1000
0010
0000
0100
0001
0000
1000
0100
0000
0000
;

//---------------dance-single - Marten-ESP----------------
#NOTES:
     dance-single:
     Marten:
     Hard:
     13:
     :
0000
0000
0000
0000
,
0000
0000
0000
0000
,
0000
0000
0000
0000
,
0000
0000
0000
0000
,
0000
0000
0000
0000
,
0002
0000
0000
0100
0000
0000
0103
0000
0000
0001
0010
0100
,
2000
0000
0000
0100
0000
0000
3100
0000
0000
1000
0010
0100
,
0002
0000
0000
0010
0000
0000
0013
0000
0000
0001
0010
0100
,
2000
0000
0000
0000
0000
0000
3010
0000
0000
0000
0010
0000
0100
0000
0000
0000
0010
0100
0010
0000
1000
0000
0001
0000
,
1000
0000
0000
0100
0000
0010
0001
0000
0000
0001
0100
1000
,
0100
0000
0000
0010
0000
0010
1000
0000
0000
0100
0010
0001
,
1000
0000
0000
0001
0000
0010
0100
0000
0000
1000
0010
0001
,
0010
0000
0000
0100
0000
0100
0001
0000
0000
0010
0100
1000
,
0001
0000
0000
0010
0000
0010
0100
0000
0000
0001
0100
1000
,
0001
0000
0000
0100
0000
0100
0010
0000
0000
0001
0010
1000
,
0001
0010
0001
1000
0010
1000
0001
0100
0010
1000
0100
0010
,
0002
0023
2030
3200
,
0301
0000
0010
0000
0010
0000
1000
0000
0100
0000
0100
0000
,
0001
0000
0010
0000
0010
0000
1000
0000
0100
0000
0100
0001
,
1000
0000
0010
0000
0010
0000
0001
0000
0100
0000
0100
0000
,
1000
0000
0010
0000
0010
0000
0001
0100
0010
1020
0000
0000
,
0130
0000
1000
0000
1000
0000
0010
0000
0001
0000
0001
0000
,
0100
0000
1000
0000
1000
0000
0010
0000
0100
0000
0001
0010
,
0100
0000
0001
0000
0001
0000
0010
0000
1000
0000
1000
0000
,
0100
0000
0000
0000
0010
0000
0000
0000
0001
0000
0010
0100
0010
0000
0001
0000
0010
0000
0100
0000
1000
0000
0001
0000
,
1000
0000
0010
0100
0000
0010
1000
0000
0100
0010
0000
0100
,
1000
0000
0001
0100
0000
0010
0100
0000
0001
0010
0000
0100
,
0010
0000
0001
0100
0000
1000
0100
0000
0001
0010
0000
1000
,
0010
0000
0100
1000
0000
0100
0001
0100
1000
0002
0000
0000
,
0103
0000
0010
1000
0000
1000
0100
0000
0100
0001
0000
0001
,
0010
0000
0010
1000
0000
1000
0100
0000
0100
0001
0000
0001
,
1000
0000
1000
0010
0000
0010
0001
0000
0001
0100
0000
0100
,
1000
0000
0000
0000
1000
0000
0010
0000
0000
0000
0010
0000
0001
0000
0000
0000
0001
0000
0200
0000
0000
0300
0000
0000
,
0120
0001
1000
0230
,
0302
0010
0100
2003
,
3200
0001
1000
0320
,
0032
0000
0000
0010
0000
0000
1003
0000
0000
0001
0000
0100
,
1000
0100
0010
1000
0000
0100
0010
0000
0100
1000
0000
0100
,
0001
0100
0010
0001
0000
0100
0010
0000
0100
0001
0000
0010
,
0000
0010
0100
0110
0000
0010
0100
0000
0000
1000
0000
0010
,
0010
0000
0100
0110
0000
0100
0000
0001
0001
1000
0000
0010
,
0001
0010
0100
0001
0000
0010
0100
0000
0010
0001
0000
0010
,
1000
0010
0100
1000
0000
0010
0100
0000
0010
1000
0000
0100
,
0001
0100
1000
1010
0000
0000
0100
0000
0000
0001
0000
0010
,
0010
0000
0000
0000
0001
0000
0011
0000
0000
0000
0001
1000
0001
0000
0100
0000
0010
0000
0110
0000
0000
0000
0010
0000
,
1000
0000
1000
0100
0000
0001
0100
1000
0001
0010
0000
0010
,
0001
0000
0001
0100
0000
1000
0100
0001
0010
1000
0000
1000
,
0010
0000
0010
0001
0000
1000
0100
0001
0100
1000
0000
1000
,
0010
0000
0010
0001
0000
0010
1000
0100
0010
0002
0000
1003
,
0100
0000
0001
0100
0000
1000
0001
0100
0010
2000
0000
3001
,
0100
0000
1000
0100
0000
0001
1000
0100
0010
0002
0000
1003
,
0010
0000
0001
0010
0000
1000
0010
0100
0001
0020
0000
0000
,
2030
0000
0000
0000
3010
0000
0002
0000
0000
0000
1003
0010
2000
0000
0010
0000
3010
0000
1020
0000
0000
0000
0000
0000
,
0100
0000
0000
0130
0000
0000
1000
0100
0001
0021
0000
0000
,
0100
0000
0000
0130
0000
0000
0001
0100
1000
1002
0000
0000
,
0100
0000
0000
0103
0000
0000
1000
0100
0001
2001
0000
0000
,
0100
0000
0000
3100
0000
0000
0010
0001
0100
1200
0000
0000
,
1000
0000
0000
0301
0000
0000
0010
1000
0100
0201
0000
0000
,
0001
0000
0000
1300
0000
0000
0010
0001
0100
0120
0000
0000
,
0001
0000
0000
1030
0000
0000
1000
0100
0010
0002
0000
0000
,
0023
2030
3010
0210
,
1300
0010
0100
0110
0000
0000
0100
0001
0010
0021
0000
0000
,
1030
0010
0001
0011
0000
0000
0001
0100
0010
1020
0000
0000
,
0130
0000
0001
2001
0000
0000
3002
0000
0000
0023
0000
0000
,
0230
0000
0000
1300
0010
0001
0010
1000
0100
0002
0000
0000
,
0103
0000
0010
0011
0000
0000
0010
0001
0100
2000
0000
0000
,
3100
0000
0010
1010
0000
0000
1000
0100
0010
0120
0000
0000
,
0230
0000
0000
2300
0000
3010
0001
0010
1000
0001
0000
0001
,
0010
0000
0010
1000
0010
0001
0100
1000
0100
0001
0000
0000
;

//---------------dance-double - Pandemonium X-BDP----------------
#NOTES:
     dance-double:
     Pandemonium X:
     Easy:
     7:
     :
00000000
00000000
00000000
00000000
,
00000000
00000000
00000000
00000000
,
00000000
00000000
00000000
00000000
,
00000000
00000000
00000000
00000000
,
00000000
00000000
00000000
00000000
,
10000000
00010000
00010000
00000000
,
00100000
00001000
00001000
00000000
,
00010000
00000010
00000010
00000000
,
00000100
00000010
00001000
00000001
,
00001001
00000001
00000200
00000300
,
00000010
00001000
00000200
00000300
,
00010000
00001000
02000000
03000000
,
00100000
10000000
02000000
03000000
,
00100000
01000000
20000000
30000000
,
00010000
10000000
00200000
00300000
,
01000000
00010000
00200000
00300000
,
00001000
00100000
00001000
00010000
,
00000100
00001000
00000100
00000010
,
00000100
00001000
00000100
00000010
,
00000001
00000100
00000010
00000100
,
00000001
00000010
00000100
00001001
,
00001000
00000100
00010000
00001000
,
00100000
00010000
01000000
00100000
,
10000000
01000000
10000000
00010000
,
01000000
00000000
00000000
00000000
,
10000000
00010000
00100000
00001000
,
00010000
00000100
00001000
00000010
,
00000100
00000001
00000010
00000100
,
00001000
00000100
00010000
00011000
,
00001000
00100000
00010000
01000000
,
00010000
00100000
00001000
00010000
,
00000100
00001000
00000010
00000100
,
00000001
00001000
00000100
00011000
,
00002000
00000000
00000000
01003000
,
00200000
00000000
00000000
10300000
,
00020000
00000000
00000000
10030000
,
02000000
00000000
03200000
00300000
,
00010000
00100000
00001000
00010000
,
00001000
00010000
00000100
00001000
,
00000010
00000010
00000110
00000000
,
00000100
00000100
00000110
00000000
,
00000001
00000010
00000001
00001000
,
00000100
00000010
00000100
00001000
,
00000100
00010000
00011000
00000000
,
00001000
00100000
00110000
00000000
,
10000000
01000000
01000000
00100000
,
00001000
00010000
00010000
00000100
,
00001000
00000010
00000010
00000100
,
00000001
00000010
00001000
00000010
,
00000001
00001000
00001000
00000100
,
00010000
00001000
00001000
01000000
,
00100000
10000000
10000000
00100000
,
01000000
00010000
00100000
00001000
,
00020000
00032000
00013000
00000000
,
00002000
02003000
03001000
00000000
,
00200000
20300000
30100000
00000000
,
02000000
03020000
01030000
00000000
,
00200000
00302000
00013000
00000000
,
00020000
00030200
00001300
00000000
,
00002000
00003002
00000013
00000000
,
00000100
00000100
00000010
00000001
,
00001001
00000110
00000110
00000000
,
00001010
00001100
00001100
00000000
,
00000200
00010300
00002000
01003000
,
00200000
10300000
02000000
03100000
,
00110000
11000000
00110000
00000000
,
00101000
00011000
00101000
00000000
,
00011000
00001100
00010100
00001100
,
00001001
00000110
00001001
00000110
,
00001001
00000000
00000000
00000000
;

//---------------dance-double - Pandemonium X-DDP----------------
#NOTES:
     dance-double:
     Pandemonium X:
     Medium:
     10:
     :
00000000
00000000
00000000
00000000
,
00000000
00000000
00000000
00000000
,
00000000
00000000
00000000
00000000
,
00000000
00000000
00000000
00000000
,
00000000
00000000
00000000
00000000
,
10000000
00100000
00100000
01000000
,
00010000
00100000
00100000
00001000
,
00010000
00000100
00000100
00001000
,
00000010
00000001
00000010
00001000
,
00001200
00010000
00010300
00000100
,
00021000
00001000
00031000
00001000
,
00210000
00010000
00310000
01000000
,
01200000
10300000
01020000
00130000
,
20010000
00010000
30010000
00100000
,
21000000
01000000
31000000
00100000
,
00210000
00010000
00310000
00100000
,
00011000
00011000
00010100
00001100
,
00001010
00000000
00001000
00000000
00000001
00000000
00000010
00000000
00000001
00000000
00001000
00000000
,
00000010
00000000
00001000
00000000
00000100
00000000
00000010
00000000
00000001
00000000
00000100
00000010
,
00000100
00000000
00000100
00000000
00000010
00000000
00001000
00000000
00001000
00000000
00000100
00000000
,
00010000
00000000
00010000
00000000
00001000
01000000
00100000
01000000
00010000
10000000
00000000
00000000
,
01000000
00000000
00100000
00000000
00010000
00000000
00100000
00000000
01000000
00000000
10000000
00000000
,
00100000
00000000
01000000
00000000
00010000
00000000
00100000
00000000
00001000
00000000
00010000
00000100
,
00010000
00000000
00000100
00000000
00001000
00000000
00000010
00000000
00000100
00000000
00000001
00000000
,
00000010
00000001
00000200
00000000
00000000
00000000
00000310
00001000
00000010
00000100
00000001
00000100
,
00000001
00000000
00001000
00000100
00000000
00000000
00010000
00000000
00000000
00001000
00000000
00000000
,
01000000
00000000
00100000
10000000
00000000
00000000
01000000
00000000
00000000
00100000
00000000
00000000
,
00010000
00000000
00100000
00001000
00000000
00000000
00010000
00000000
00000000
00000100
00000000
00000000
,
00001000
00000000
00000010
00000100
00000000
00000000
00000001
00001000
00000001
00000010
00000000
00000000
,
00000100
00000000
00001000
00000010
00000000
00000000
00000100
00000000
00000000
00000001
00000000
00000000
,
00001000
00000100
00010000
00001000
,
01000000
00000000
00100000
01000000
00000000
00000000
00100000
00000000
00000000
10000000
00000000
00000000
,
01000000
00000000
00000000
00100000
00000000
00000000
00010000
00000000
00100000
02000000
00000000
00000000
,
13000000
10000000
10000000
00010000
,
00100000
00100000
00100000
00001000
,
00010000
00010000
00010000
00000010
,
00000100
00000000
00000000
00000100
00000000
00000000
00000100
00000000
00000000
00000001
00000000
00000001
,
00001000
00000000
00000100
00000000
00010000
00000000
00001000
00000000
00100000
00000000
00010000
00000000
,
10000000
00000000
01000000
00000000
00100000
00000000
01000000
00000000
10000000
00000000
00100000
01000000
,
00010000
00010000
00110000
00011000
,
00000100
00000100
00001100
00011000
,
00001000
00000000
01000000
00000000
00100000
00000000
10000000
00000000
01000000
00000000
00100000
00000000
,
00010000
00000000
00100000
00000000
00001000
00000000
00010000
00000000
00000100
00000000
00001000
00000001
,
00000100
00000000
00000010
00000100
00000000
00000000
00001001
00000000
00000000
00000110
00000000
00000000
,
00000010
00000000
00001000
00000100
00000000
00000000
00001100
00000000
00000000
00011000
00000000
00000000
,
02001000
00100000
03100000
10000000
,
21000000
00010000
30010000
00100000
,
00210000
00001000
00301000
00010000
,
00000200
00001300
00000002
00000103
,
00000210
00000001
00000301
00000010
,
00000201
00000010
00000310
00001000
,
00001200
00001000
00001300
00000100
,
00020000
00031000
00020000
00030100
,
00010100
00011000
00101000
00100000
,
01100000
11000000
10100000
10000000
,
10010000
00110000
00101000
00001000
,
00011000
00010100
00011000
00100000
,
00011000
00010100
00001100
00000010
,
00000101
00000011
00000101
00000001
,
00001001
00001010
00001100
00000100
,
00011000
00110000
01100000
11000000
,
20010000
00100000
31000000
10000000
,
00020000
00100000
01000000
10030000
,
02000000
03002000
00023000
00032000
,
00023000
00030200
00002300
00003020
,
00002030
00000001
00000010
00003100
,
00000002
00000010
00000100
00001003
,
00000010
00001000
00000100
00010000
,
00001000
00000000
00001000
01000000
00000000
01000000
00100000
00000000
10000000
01000000
00100000
00010000
,
10000000
00000000
00000000
00000000
;

//---------------dance-double - Pandemonium X-EDP----------------
#NOTES:
     dance-double:
     Pandemonium X:
     Hard:
     13:
     :
00000000
00000000
00000000
00000000
,
00000000
00000000
00000000
00000000
,
00000000
00000000
00000000
00000000
,
00000000
00000000
00000000
00000000
,
00000000
00000000
00000000
00000000
,
10000000
00100000
00100000
01000000
,
00010000
00100000
00100000
00001000
,
00010000
00000100
00000100
00001000
,
00000010
00000000
00000000
00000100
00000000
00000000
00000010
00000000
00001000
00000001
00000010
00000100
,
00002000
00000000
00000000
00000100
00000000
00000000
00003010
00000000
00000000
00000100
00000010
00001000
,
00000200
00000000
00000000
00010000
00000000
00000000
00001300
00000000
00000000
00000100
00010000
00001000
,
02000000
00000000
00000000
00100000
00000000
00000000
03010000
00000000
00000000
00100000
01000000
10000000
,
00020000
00000000
00000000
01000000
00000000
00000000
10030000
00000000
00000000
01000000
00100000
00001000
,
00020000
00000000
00000000
00000010
00000000
00000000
00030100
00000000
00000000
00001000
00000100
00010000
,
00002000
00000000
00000000
00100000
00000000
00000000
01003000
00000000
00000000
00100000
01000000
00010000
,
00200000
00000000
00000000
00001000
00000000
00000000
00310000
00000000
00000000
00100000
00001000
00010000
,
00011000
00011000
00001010
00000011
,
00000100
00000000
00000100
00000000
00000100
00000000
00001000
00000000
00001000
00000000
00001000
00000000
,
00000010
00000000
00000010
00000000
00000010
00000000
00010000
00000000
00010000
00000000
00010000
00010000
,
00001000
00000000
00001000
00000000
00001000
00000000
01000000
00000000
01000000
00000000
01000000
00000000
,
00100000
00000000
00100000
00000000
00100000
00000000
10000000
01000000
00100000
20020000
00000000
30030000
,
00010000
00000000
00010000
00000000
00010000
00000000
00100000
00000000
00100000
00000000
00100000
00000000
,
00001000
00000000
00001000
00000000
00001000
00000000
00010000
00000000
00010000
00000000
00010000
00010000
,
00000100
00000000
00000100
00000000
00000100
00000000
00000010
00000000
00000010
00000000
00000010
00000000
,
00000001
00000000
00000010
00000000
00001000
00000000
00000000
00000000
00000000
00000000
00000010
00000001
00000010
00000000
00000100
00000000
00001000
00000000
00000100
00000000
00000100
00000000
00000100
00000000
,
00010000
00000000
00001000
01000000
00000000
00100000
10000000
00000000
01000000
00100000
00000000
01000000
,
10000000
00000000
00010000
01000000
00000000
00010000
00100000
00000000
00100000
00000000
00100000
00100000
,
00001000
00000000
00010000
00000100
00000000
00001000
00000010
00000000
00000100
00000001
00000000
00000010
,
00000100
00000000
00000010
00000001
00000000
00001000
00000010
00000100
00000001
00000220
00000000
00000330
,
00000010
00000000
00000100
00000010
00000000
00000001
00001000
00000000
00000100
00001000
00000000
00000100
,
00010000
00000000
00001000
01000000
00000000
00100000
10000000
00000000
10000000
01000000
01000000
00100000
,
00010000
00000000
00100000
00001000
00000000
00010000
00000100
00000000
00001000
00000010
00000000
00000100
,
00000001
00000000
00001000
00000010
00000000
00000001
00000010
00000000
00000100
00001001
00000000
00000000
,
00000002
00000100
00000100
00000023
,
00000230
00010000
00010000
00002300
,
00003200
00010000
00010000
00002300
,
00003200
00000000
00000000
00000000
00000000
00000000
00010000
00000000
00000000
00000000
00000000
00000000
00020300
00000000
00000000
00000000
00000000
00000000
00032000
00003000
00000000
00000000
02000000
03000000
,
00100000
00000000
00100000
00000000
10100000
00000000
00010000
00000000
00010000
00000000
01010000
00000000
,
10000000
00000000
10000000
00000000
10010000
00000000
00100000
00000000
00001000
00000000
00010000
00010000
,
00002000
00023000
00030010
00000110
,
00000020
00020030
00031000
00011000
,
00001000
00000000
01000000
00000000
01100000
00000000
01000000
00000000
00010000
00000000
00110000
00000000
,
00100000
00000000
00001000
00000000
00010100
00000000
00000100
00000000
00000100
00000000
00000100
00000100
,
00020000
00032000
01003000
10010000
,
00200000
00000000
00000000
00302000
00000000
00000000
00013000
00000000
00000000
00000100
00001000
00000010
,
00000200
00000000
00000000
00000001
00000000
00000000
00000310
00000000
00000000
00000100
00000010
00001000
,
00000200
00000000
00000000
00001000
00000000
00000000
00010300
00000000
00000000
00000100
00010000
00001000
,
02000000
00000000
00000000
00100000
00000000
00000000
03010000
00000000
00000000
00100000
01000000
10000000
,
00200000
00000000
00000000
10000000
00000000
00000000
01300000
00000000
00000000
00100000
10000000
00010000
,
00200000
00000000
00000000
00001000
00000000
00000000
00310000
00000000
00000000
00100000
00001000
00010000
,
00002000
00000000
00000000
00010000
00000000
00000000
00103000
00000000
00000000
00001000
00000100
00000010
,
00000002
00000000
00000000
00000100
00000000
00000000
00000013
00000000
00000000
00000001
00001000
00000100
,
00020000
00000000
00000000
00000000
00000000
00000000
00031000
00000000
00000000
00000000
00000000
00000000
00011000
00000000
00000000
00000000
00010000
00001000
00010000
00000000
00001000
00000000
00010000
00000000
,
00010100
00000000
00000000
00011000
00000000
00000000
00011000
00000000
00000000
00001000
01000000
00100000
,
10100000
00000000
00000000
01010000
00000000
00000000
01010000
00000000
00000000
00010000
00100000
00001000
,
00011000
00000000
00000000
00010100
00000000
00000000
00010100
00000000
00000000
00000100
00001000
00000010
,
00000110
00000000
00000000
00000101
00000000
00000000
00000101
00000000
00000000
00000001
00000010
00000100
,
00001100
00000000
00000000
00001010
00000000
00000000
00001010
00000000
00000000
00000010
00010000
00001000
,
00101000
00000000
00000000
00011000
00000000
00000000
00011000
00000000
00000000
00001000
01000000
00100000
,
10100000
00000000
00000000
01010000
00000000
00000000
01010000
00000000
00000000
00010000
00100000
01000000
,
11000000
01010000
11000000
01010000
,
12000000
00000000
00000000
03200000
00000000
00000000
00310000
00000000
00000000
00100000
00001000
00010000
,
00000200
00000000
00000000
00000320
00000000
00000000
00000031
00000000
00000000
00000001
00000100
00000010
,
00002000
00003200
00020300
00032000
,
00023000
00000000
00000000
00032000
00000000
00000000
00013000
00001000
00100000
01000000
10000000
00100000
,
02000000
00000000
00000000
03020000
00000000
00000000
00130000
00000000
00000000
00010000
00100000
00001000
,
00020000
00000000
00000000
00030200
00000000
00000000
00000310
00000000
00000000
00000100
00001000
00000001
,
00000200
00000000
00000000
00000320
00000000
00000000
00001030
00000000
00001000
00000100
00000010
00000001
,
00001000
00000000
00000100
00010000
00000000
00001000
00010000
00100000
10000000
00100000
00010000
00100000
,
01100000
00000000
00000000
00000000
;
