#VERSION:0.83;
#TITLE:1048;
#ARTIST:dj vortivask;
#BANNER:1048.png;
#BACKGROUND:1048-bg.png;
#JACKET:1048-jacket.png;
#MUSIC:1048.ogg;
#SAMPLESTART:13.7;
#SAMPLELENGTH:15;
#DISPLAYBPM:85:360;
#BPMS:0=87.5,11.5=175,12=87.5,19=175,66.5=87.5,67=175,83=87.5,85=175,101=350,102.5=175,117=87.5,129.75=43.75,130=175,132=87.5,133=175,139=87.5,140=175,142=350,142.75=175,159=350,179=85,193=42.5,194=700,202=175,230=87.5,232=360,358.167=361,358.333=362,358.5=363,358.667=364,358.833=365,359=366,359.167=367,359.333=368,359.5=369,359.667=370,359.833=371,360=372,360.167=373,360.333=374,360.5=375,360.667=376,360.833=377,361=378,361.167=379,361.333=380,361.5=381,361.667=382,361.833=383,362=384,362.167=385,362.333=386,362.5=387,362.667=388,362.833=389,363=390,363.167=391,363.333=392,363.5=393,363.667=394,363.833=395,364=396,364.167=397,364.333=398,364.5=399,364.667=400,374=175;
#STOPS:11.5=0.171,19=0.171,19.5=0.171,66=0.171,101=0.043,101.250=0.043,101.5=0.043,101.75=0.043,102=0.043,102.250=0.043,124=0.343,128=0.171,128.250=0.171,128.5=0.171,128.75=0.086,128.875=0.086,129=0.171,129.250=0.171,129.5=0.171,142=0.129,292=0.125,292.75=0.125,293.5=0.083;
#SCROLLS:0=1,193.042=1.9,193.083=1.8,193.125=1.7,193.167=1.6,193.208=1.5,193.250=1.4,193.292=1.3,193.333=1.2,193.375=1.1,193.417=1,193.458=0.95,193.5=0.9,193.542=0.85,193.583=0.8,193.625=0.75,193.667=0.7,193.708=0.65,193.75=0.6,193.792=0.8,193.833=1,193.875=1.2,193.917=1.4,193.958=1.6,194=1,365.333=1.02,365.667=1.04,366=1.06,366.333=1.08,366.667=1.1,367=1.12,367.333=1.14,367.667=1.16,368=1.18,368.333=1.2,368.667=1.22,369=1.24,369.333=1.26,369.667=1.28,370=1.3,370.333=1.32,370.667=1.34,371=1.36,371.333=1.38,371.667=1.4,372=1.42,372.333=1.44,372.667=1.46,373=1.48,373.333=1.5,373.667=1.52,374=1;
#TIMESIGNATURES:0=4=4,64=3=4,67=4=4,83=2=4,85=4=4,121=3=4,124=4=4,128=2=4,130=3=4,133=4=4,137=3=4,143=4=4,191=3=4,194=4=4,230=2=4,232=4=4,292=2=4,294=4=4;

//---------------dance-single - RGTM-bSP----------------
#NOTEDATA:;
#CHARTNAME:RGTM-bSP;
#STEPSTYPE:dance-single;
#DESCRIPTION:RGTM-bSP;
#DIFFICULTY:Beginner;
#METER:4;
#DISPLAYBPM:85:340;
#BPMS:0=87.5,11.5=175,12=87.5,19=175,66.5=87.5,67=175,83=87.5,85=175,101=350,102.5=175,117=87.5,129.75=43.75,130=175,132=87.5,133=175,139=87.5,140=175,142=350,142.75=175,159=350,179=85,193=42.5,194=700,202=175,230=87.5,232=360,358.167=361,358.333=362,358.5=363,358.667=364,358.833=365,359=366,359.167=367,359.333=368,359.5=369,359.667=370,359.833=371,360=372,360.167=373,360.333=374,360.5=375,360.667=376,360.833=377,361=378,361.167=379,361.333=380,361.5=381,361.667=382,361.833=383,362=384,362.167=385,362.333=386,362.5=387,362.667=388,362.833=389,363=390,363.167=391,363.333=392,363.5=393,363.667=394,363.833=395,364=396,364.167=397,364.333=398,364.5=399,364.667=400,374=175;
#STOPS:11.5=0.171,19=0.171,19.5=0.171,66=0.171,101=0.043,101.250=0.043,101.5=0.043,101.75=0.043,102=0.043,102.250=0.043,124=0.343,128=0.171,128.250=0.171,128.5=0.171,128.75=0.086,128.875=0.086,129=0.171,129.250=0.171,129.5=0.171,142=0.129,292=0.125,292.75=0.125,293.5=0.083;
#SCROLLS:0=1,11.5=0.5,12=1,66.5=2,67=1,83=2,85=1,129.75=4,130=1,132=2,133=1,139=2,140=1,142=0.5,143=1,159=0.5,179=2,193=4,194=0.25,202=1,230=2,232=0.5,374=1;
#TIMESIGNATURES:0=4=4,64=3=4,67=4=4,83=2=4,85=4=4,121=3=4,124=4=4,128=2=4,130=3=4,133=4=4,137=3=4,143=4=4,191=3=4,194=4=4,230=2=4,232=4=4,292=2=4,294=4=4;
#CREDIT:RGTM;
#NOTES:
0000
0000
0000
0000
,
0000
1000
0000
0001
,
0000
1000
0000
0001
,
0000
0100
0100
0100
,
0100
0000
0010
0020
,
0030
0000
0000
0000
,
1000
1000
1000
0000
,
0001
0000
0000
0000
,
0001
0001
0001
0000
,
0010
0000
0000
0000
,
0100
0000
0000
0100
,
0100
0000
0000
0000
,
2000
3000
1000
0000
,
0001
0000
0000
1001
,
0000
0000
1000
1000
,
1000
0000
0000
0000
,
0010
0000
0020
0030
,
0000
0000
0000
0100
,
0000
0100
0000
0001
,
0000
0000
0000
1000
,
0000
1000
0000
2000
,
0000
3000
0000
0000
,
0100
0000
0000
0010
,
0000
0000
0001
0000
,
0000
1000
0000
0000
,
0000
0000
0002
0000
0000
0003
0000
0000
,
0001
0000
0000
0100
,
0000
0000
0010
0000
,
0000
1000
0000
1000
,
0000
1000
0000
0000
,
0000
0001
0000
0001
,
0000
0000
0010
0000
,
0200
0000
0300
0000
,
1001
0000
0000
0010
,
0000
0000
0000
1001
,
0000
0000
0200
0300
,
0000
0000
0000
0100
,
0000
0000
0000
0010
,
0000
0010
0000
0100
,
0100
0100
0100
0200
,
0000
0000
0000
0000
,
0000
0000
0000
0000
,
0000
0000
0000
0000
,
0000
0000
0000
0300
,
0000
0000
0000
1001
,
0000
1000
1000
1000
,
0000
0001
0001
0001
,
0000
0100
0100
0100
,
0000
0020
0030
0000
,
0000
0000
0000
0000
,
0000
0000
1001
0000
,
0000
0000
1000
0000
,
0001
0000
1000
0000
,
0000
0000
0001
0000
,
1000
0000
0001
0000
,
0000
0000
0100
0000
,
0010
0000
0100
0000
,
0000
0000
0000
0000
0010
0000
0000
0010
,
0010
0000
0000
0000
,
0000
0000
0000
0000
,
1000
0000
0000
0000
,
1000
0000
0000
0000
,
0100
0000
0000
0000
,
0000
0000
0000
0000
,
0010
0000
0000
0000
,
0001
0000
0000
0000
,
0001
0000
0000
0000
,
0000
0000
0000
0000
,
1000
0000
0000
0000
,
0001
0000
0000
0000
,
1000
0000
0000
0000
,
0000
0000
0000
0000
,
0010
0000
0000
0000
,
0200
0000
0300
0000
,
0000
0000
0010
0000
,
0000
0000
1000
0000
,
0000
0000
1000
0000
,
0000
0000
0100
0000
,
0000
0000
0010
0000
,
0000
0000
0001
0000
,
0000
0000
0001
0000
,
0000
0000
1000
0000
,
0000
0000
0001
0000
,
0000
0000
1000
0000
,
0000
0000
0001
0000
,
0000
0000
0100
0000
,
0000
0000
0010
0000
,
0000
0000
1001
0000
,
0000
0000
0110
0000
,
0000
0000
2002
0000
,
0000
0000
0000
0000
,
0000
0000
3003
0000
,
0000
0000
0010
0000
,
0010
0000
0020
0000
,
0000
0000
0030
0000
;

//---------------dance-single - RGTM-BSP----------------
#NOTEDATA:;
#CHARTNAME:RGTM-BSP;
#STEPSTYPE:dance-single;
#DESCRIPTION:RGTM-BSP;
#DIFFICULTY:Easy;
#METER:8;
#CREDIT:RGTM;
#NOTES:
0000
0000
0000
0000
,
1000
0000
0100
0000
0010
0100
0010
0000
,
0001
0000
0100
0000
0010
0100
0020
0000
,
0030
0000
0010
0000
1000
0000
0001
0001
,
1000
1000
0001
1000
0001
1000
0002
0000
,
0003
0000
0000
0001
0000
0000
0010
0000
,
0100
0010
0001
1000
,
0010
0000
0000
0010
0000
0000
0100
0000
,
0010
0100
0010
0000
1000
0000
0001
0000
,
1000
0000
0000
1000
0000
0000
0100
0000
,
0010
0001
1000
0001
,
0100
0000
0000
0100
0000
0000
0010
0000
,
1000
0001
1000
0000
0010
0000
1001
0000
,
0001
0000
0000
0001
0000
0000
0110
0000
,
1000
0001
1000
0010
,
0100
0000
0000
0100
0000
0000
0010
0000
,
1000
0001
1000
0000
0200
0300
0000
0000
,
0000
0100
0000
0000
0010
0000
0001
0000
,
0010
0100
1000
0001
,
0000
0001
0000
0000
0100
0000
0110
0000
,
1000
0110
0001
0220
,
0000
0000
0330
0000
0000
1000
0000
0000
,
1000
0000
0000
0100
0000
0000
0100
0000
,
0000
0010
0000
0000
0010
0000
0000
0001
,
0000
0000
0001
0000
0000
1000
0000
0000
,
0010
0000
0020
0000
0000
0130
0000
0000
,
0001
0000
0000
1000
0000
0000
0100
0000
,
0000
0010
0000
0000
0001
0000
0000
1000
,
0000
0010
0100
0020
,
0230
0000
0301
0000
0001
0000
1000
0001
,
1000
0000
0100
0000
0010
0000
0001
1000
,
0002
0000
1003
0000
0001
1000
0001
0000
,
0020
0000
0000
0030
0010
0000
0110
0000
,
1001
0000
0001
0000
1000
0001
1000
0000
,
0000
0010
0110
1001
,
1000
0001
1000
0000
0200
0000
0300
0000
,
0000
0000
0010
0100
0010
0000
0001
0000
,
0010
0100
1000
0001
,
0001
0000
1000
0000
1000
0000
0010
0100
,
0010
0000
1000
0001
1000
0000
0200
0000
,
0000
0000
0000
0000
,
0000
0000
0000
0000
,
0000
0000
0000
0000
,
0000
0000
0000
0300
,
0000
0000
0000
1001
,
0000
0000
1000
0001
1000
0000
0010
0000
,
0100
0000
0001
1000
0001
1000
0001
0000
,
0010
0000
0100
0000
0100
0000
1000
0001
,
1000
0020
0000
0000
,
0000
0000
0000
0000
,
0000
0000
0030
0000
,
0000
0000
0010
0000
0001
1000
0001
0000
,
0100
0000
0010
0000
1000
0000
0000
1000
,
0000
0000
0000
0000
0100
0010
0100
0000
,
1000
0000
1001
0000
0001
0000
0000
0001
,
0000
0000
0100
0000
0010
0100
0010
0000
,
1000
0000
0001
0000
1000
0000
0000
1000
,
0000
0000
0000
0000
0100
0000
0000
0000
0010
0000
0000
0010
0000
0000
0010
0000
,
0001
0000
0000
1000
,
0000
0000
1000
0000
,
0010
0000
0100
0000
,
0001
0000
1000
0000
,
0100
0000
0000
0100
,
0000
0000
0010
0000
,
0001
0000
1000
0000
,
0110
0000
1001
0000
,
1000
0000
0000
0001
,
0000
0000
1000
0000
,
0100
0000
0010
0000
,
0001
0000
1000
0000
,
0010
0000
0000
0100
,
0000
0000
0010
0000
,
1000
0000
0001
0000
,
0020
0000
0030
0000
,
0010
0100
0000
0100
,
1000
0000
0001
1000
,
0001
0000
0010
0000
,
0100
0000
1000
0000
,
0001
1000
0000
1000
,
0001
0000
0100
0010
,
0100
0000
0001
0000
,
1000
0000
0100
0000
,
0100
0010
0000
0010
,
0001
0000
1000
0001
,
1000
0000
0010
0000
,
0100
0000
0001
0000
,
0001
1000
0000
1000
,
0001
0000
0110
0000
,
1000
0000
0110
0000
,
1001
0000
0200
0000
,
0000
0000
0000
0000
,
0000
0000
0000
0000
,
0000
0000
0310
0000
,
0010
0000
2002
0000
,
0000
0000
3003
0000
;

//---------------dance-single - RGTM-DSP----------------
#NOTEDATA:;
#CHARTNAME:RGTM-DSP;
#STEPSTYPE:dance-single;
#DESCRIPTION:RGTM-DSP;
#DIFFICULTY:Medium;
#METER:10;
#CREDIT:RGTM;
#NOTES:
0000
0000
0000
0000
,
0001
0100
0010
0000
1000
0100
0010
0000
,
0001
0000
0000
0000
1000
0000
0000
0000
0010
0000
0000
0000
0000
0000
0000
0000
1000
0000
0000
0000
0001
0000
0000
0000
0010
0000
0000
0000
0200
0300
0000
0000
,
1000
0000
1000
0000
0010
0000
0010
0010
,
0100
0000
0000
0000
0100
0000
0000
0000
0001
0000
0000
0000
1000
0000
0000
0000
0100
0000
0000
0000
0010
0000
0000
0000
0200
0300
0000
0000
0020
0030
0000
0000
,
1001
0000
0001
1000
0000
0000
0010
0000
,
0100
0001
0100
0000
0010
0000
1000
0000
,
0100
0000
0100
0010
0000
0000
0001
0000
,
1000
0000
0001
0000
1000
0000
0000
0000
0010
0000
0000
0010
0000
0000
0010
0000
,
1000
0000
1000
0001
0000
0000
0010
0000
,
0001
0000
0000
0010
0000
0000
0100
0000
0000
1000
0000
0000
0001
0000
0000
0000
,
0100
0000
0010
0100
0000
0000
0010
0000
,
1000
0000
0010
0000
1000
0000
0000
0000
0001
0000
0000
0001
0000
0000
0001
0000
,
1000
0000
1000
0100
0000
0100
0010
0000
,
0001
0010
0001
0000
1000
0000
0010
0000
,
0100
0000
0100
0010
0000
0000
1000
0000
,
0001
0000
0000
0000
1000
0000
0000
0000
0001
0000
0000
0000
0000
0000
0000
0000
0020
0030
0000
0000
0210
0000
0300
0000
1001
0000
0000
0000
0000
0000
0000
0000
,
0001
1000
0000
0000
0010
0000
0100
0001
,
0100
0010
1000
0001
,
0001
0000
0010
0000
0000
0000
0000
0000
0100
0000
0000
0000
1000
0000
0000
0100
,
0000
0000
1000
0000
0001
0000
0000
0100
0000
0000
0001
0000
0020
0000
0000
0000
,
0000
0000
0130
0000
0100
1000
0000
1000
,
0001
0000
0001
0100
0000
0100
0010
0000
,
0010
1000
0000
1000
0001
0000
0001
0010
,
0000
0010
0100
0000
0100
1000
0000
1000
,
0001
1000
0002
0000
0000
0103
0000
0001
,
0010
0000
0010
0100
0000
0100
1000
0000
,
1000
0001
0000
0001
0100
0000
0100
0010
,
0000
0010
1000
0000
0001
1000
0002
0000
,
0023
0000
0130
0100
0100
0000
1000
1000
,
1000
0001
0100
0100
0100
0000
0010
0010
,
0020
0030
0010
0000
1000
1000
1000
1000
,
0001
1000
0001
0001
1000
0001
1000
2000
3010
0000
0000
0000
0100
0000
0000
0000
,
0110
0000
1000
0001
1000
0000
0001
0000
,
0000
0010
0100
0110
,
0001
0000
0000
0000
1000
0000
0000
0000
0001
0000
0000
0000
0000
0000
0000
0000
2000
3000
0000
0000
0000
0000
0000
0000
0001
0000
0000
0000
0000
0000
0000
0000
,
0100
0000
0010
0100
0010
0100
0010
0000
,
1000
0010
1000
0000
0001
0000
0010
0100
,
0010
0000
0001
1000
0001
0000
1000
0010
,
1000
0010
0100
0001
0100
0001
2000
0000
,
0000
0000
0000
0000
,
0000
0000
0000
0000
,
0000
0000
0000
0000
,
0000
0000
0000
3001
,
0000
0000
0000
0000
0000
0000
1001
1000
,
0100
0000
0010
0000
0001
0010
0001
0000
1000
0000
0001
0000
0100
0001
0100
0000
,
0010
0000
1000
0000
0001
0000
0020
0000
0130
0000
0200
0000
1300
0001
1000
0000
,
0001
0000
1000
0000
0010
0000
0000
0010
0000
0000
0010
0000
0100
0010
0100
0000
,
0001
1000
0100
0000
0020
0000
0000
0000
,
0000
0000
0000
0000
,
0000
0000
0000
0000
0030
0000
0000
0010
,
0000
0000
0100
0000
0010
0001
1000
0000
,
0001
0000
0100
0000
0010
0000
0100
0010
,
0000
0000
1000
0000
0001
0100
0001
0000
,
1000
0000
0100
0000
0010
0000
0100
0010
,
0000
0000
0001
0000
1000
0010
1000
0000
,
0010
0000
0100
0000
0001
0000
1000
0001
,
0000
0000
0000
0000
0010
0000
0000
0000
0110
0000
0000
1001
0000
0000
0110
0000
,
1001
0000
0000
1000
,
0000
0000
0100
0000
,
0010
0001
0010
0000
,
0001
0000
1000
0000
,
0010
0000
0000
0010
,
0000
0000
0100
0000
,
0001
0100
0001
0100
,
0010
0000
1000
0000
,
0001
0000
1000
0001
,
0000
0000
0010
0000
,
0100
1000
0100
0000
,
0010
0000
0001
0000
,
1000
0000
0001
1000
,
0000
0000
0010
0000
,
1000
0000
0000
0010
0000
0000
1000
0000
,
0002
0000
1003
0000
,
1000
0001
0000
0001
,
0010
0000
0100
0010
,
0100
0000
1000
0000
,
0001
0000
0100
0000
,
0100
0010
0000
0010
,
1000
0000
0001
0010
,
0100
0010
0001
0000
,
1000
0000
0010
0000
,
0010
0100
0000
0100
,
0010
0000
1000
0001
,
1000
0000
0100
0000
,
0010
0000
0001
0000
,
0010
0100
0000
0100
,
1000
0000
0000
0000
0001
0000
0000
0010
,
0000
0000
0001
0000
1000
0000
0000
0010
,
0000
1000
0200
0000
,
0000
0000
0000
0000
,
0000
0000
0000
0000
,
0000
0000
0310
0000
,
0110
0000
2002
0000
,
0000
0000
3003
0000
;

//---------------dance-single - RGTM-ESP----------------
#NOTEDATA:;
#CHARTNAME:RGTM-ESP;
#STEPSTYPE:dance-single;
#DESCRIPTION:RGTM-ESP;
#DIFFICULTY:Hard;
#METER:14;
#CREDIT:RGTM;
#NOTES:
0000
0000
0000
0000
,
1000
0100
0011
0000
0001
0100
1010
0000
,
1000
0000
0000
0000
0001
0000
0000
0000
0110
0000
0000
0000
0000
0000
0000
0000
0001
0000
0000
0000
1000
0000
0000
0000
0110
0000
0000
0000
0002
0003
0000
0000
,
1000
0000
1000
0000
0001
0000
0001
0001
,
0010
0000
0000
0000
0010
0000
0000
0000
0100
0000
0000
0000
0100
0000
1000
0000
0001
0000
0100
0000
0001
0000
0100
0000
0020
0030
0000
0000
0220
0330
0000
0000
,
1001
0000
0000
0000
0001
1000
0100
0000
0000
0000
0010
0100
1000
0000
0000
0000
,
0001
0000
0001
0000
1000
0010
0100
0000
0010
0000
0000
0000
1000
0000
0000
0000
,
0001
0000
0000
0001
1000
0000
0100
0000
0000
0000
0010
0000
0001
0000
1000
0000
,
0001
0100
0001
0100
0001
0000
0100
0000
0010
0000
0000
1000
0100
0000
0000
0010
,
0001
0000
0000
0000
1000
0001
0100
0000
0000
0000
0010
0100
0001
0000
0000
0000
,
1000
0000
0000
0100
0000
0000
0001
0000
0000
0100
0000
0000
0010
0000
0000
0000
,
0001
0000
1000
0010
0100
0000
0010
0000
0000
0000
1000
0000
0001
0000
0000
0000
,
1000
0000
0200
0000
0310
0000
0001
0000
0101
0000
0000
1100
0000
0000
0010
0000
,
1001
0000
0000
0001
1000
0001
0010
0000
0000
0000
0100
1000
0002
0000
0000
0000
,
0103
0000
0100
0000
0010
1000
0100
0000
0010
0000
0001
0000
0100
0000
0010
0000
,
1000
0000
0100
1000
0010
0000
0100
0000
0000
0000
0010
0000
1000
0000
0001
0000
,
1000
0000
0100
0000
1000
0000
0100
0000
1000
0000
0000
0000
0001
0000
0000
0000
0200
0300
0000
0000
0120
0000
0030
0000
1001
0000
0000
0000
0000
0000
0000
0000
,
0001
1000
0010
0000
0000
0000
0100
0010
0000
0000
1000
0000
0001
0000
0010
0001
,
0000
0010
0100
0000
0010
0000
0001
0000
1000
0000
0010
0000
0100
0000
0000
0000
,
0001
0010
0100
0000
0000
0000
0010
0000
0001
0000
1000
0000
1010
0000
0000
0011
,
0000
0000
0110
0000
1100
0000
0000
0101
0000
0000
0110
0000
2002
0000
0000
0000
,
0000
0000
3003
0000
0001
1000
0010
0000
0100
0000
0001
0000
0100
0000
0010
0000
,
1000
0000
0001
1000
0100
0010
0001
1000
,
0010
0000
0001
0000
0010
0100
0010
0000
1000
0000
0001
0000
0010
0000
0100
0000
,
0000
0000
0010
0000
0100
0000
1000
0000
0010
0000
0100
0001
0100
0001
0100
0000
,
0010
0000
0000
0000
1000
0000
0000
0000
0200
0300
0020
0030
0200
0300
0020
0030
0002
0003
2000
3000
0010
0000
0000
0000
1000
0000
0000
0000
0001
0000
0000
0000
,
1000
0000
0100
0010
0001
1000
0001
0100
,
0010
0000
0100
0001
0000
0001
0010
0000
0100
0000
0010
0000
0001
0000
0100
0000
,
0010
0000
0000
1000
0000
0000
0100
0000
0000
1000
0000
0000
0010
0000
0000
0100
0000
0000
0010
0000
1000
0000
0100
0000
,
0010
0000
0000
0000
0001
0000
0000
0000
1000
0000
0000
0000
0002
0000
0000
0000
0000
0000
0100
0000
0000
0000
0000
0000
0103
0000
0000
0000
0000
0000
0010
0000
0000
2000
0000
0000
0010
0000
0000
0000
0000
0000
0010
0000
0000
0000
0000
0000
,
3001
0000
1000
0000
0100
0000
0200
0000
0010
0000
1300
0100
0020
0000
0100
0000
,
0032
0000
1000
0000
0013
0000
0001
0100
0020
0100
0100
0000
2030
0000
0010
0000
,
3002
0003
0020
0030
0200
0300
0020
0230
2300
3000
0002
0003
0020
0030
0200
0000
1300
0000
0000
0000
0010
0000
1000
0000
0000
0000
1000
0000
0100
0000
0000
0000
,
0010
0000
0000
0000
0001
0010
0001
0000
1000
0000
0001
0100
0010
0000
1000
0001
,
1000
0000
0000
0000
0001
0000
0010
0001
0000
0001
0100
0000
0010
0000
0000
0000
,
1000
0000
0010
0000
1000
0000
0000
0000
0001
0000
0000
0000
1000
0000
0100
0000
0020
0030
0000
0000
0000
0000
0001
0000
1000
0000
0000
0000
0000
0000
0010
0000
,
0100
0001
0011
0010
0010
0010
0100
1000
,
0010
0000
0100
0000
1000
0000
0100
0000
0010
0000
1000
0000
0001
0000
0010
0001
,
0010
0000
0100
0010
0100
0000
1000
0100
1000
0000
0001
1000
0001
0000
0100
0000
,
0110
0010
1010
1000
0001
0001
0020
0000
,
0000
0000
0000
0000
,
0000
0000
0000
0000
,
0000
0000
0000
0000
,
0000
0000
0000
0130
,
0000
0000
0000
0000
0000
0000
0000
0000
0000
0000
0000
0000
1001
0000
1000
0001
,
0100
0000
0000
0000
0010
0000
0000
0000
0100
0000
0000
0000
0001
0000
0000
0000
1000
0000
0000
0000
0100
0000
0000
0000
0010
0000
0001
0010
0001
0000
0010
0000
,
0100
0000
2000
0000
3001
0000
0002
0000
0103
0000
0010
0200
0301
0100
0010
1000
,
0100
0000
0000
0000
0010
0000
0000
0000
0001
0000
0000
0010
0000
0000
1000
0000
0000
0010
0000
0000
0100
0000
0000
0000
1000
0000
0100
1000
0100
0000
1000
0000
,
0001
0000
0100
0010
0100
0000
0000
0000
0020
0000
0000
0000
0000
0000
0000
0000
,
0000
0000
0000
0000
,
0000
0000
0000
0000
0000
0000
0000
0000
0130
0000
0000
0000
0010
1000
0100
0000
,
0000
0000
0010
0000
0100
0000
1000
0000
0001
0000
0001
0000
0000
1000
0001
0000
,
0010
0000
0100
0000
1000
0000
0001
0000
0100
0000
0001
0010
0100
0000
0010
0000
,
0000
0000
0001
0000
1000
0000
0010
0000
0100
0010
0100
0010
0100
0000
0010
0000
,
1000
0000
0000
1000
0100
0000
0000
0010
0100
0000
0000
0000
0010
0001
0100
0000
,
0000
0000
0010
0000
1000
0000
0001
0000
1000
0000
1000
0000
0000
0001
1000
0000
,
0100
0000
0010
0000
0001
0000
1000
0000
0010
0000
1000
0100
0010
0000
0100
0000
,
0000
0000
0000
0000
1000
0000
0000
0000
0001
0000
0000
0000
0100
0000
0000
0000
1010
0000
1000
0000
0100
0000
0011
0000
0001
0000
0100
0000
0010
1000
0001
0100
,
0010
0000
0000
0000
1000
0001
0010
0000
,
0000
0100
1000
0000
,
0001
0000
0001
0000
0100
0010
0100
0000
,
0000
0010
1000
0001
,
0010
0000
0001
0100
0010
0000
0100
0000
,
0000
0010
1000
0001
,
1000
0100
1000
0100
1000
0000
0001
0000
,
0100
0000
0010
0100
0010
0000
1000
0010
,
1000
0000
0000
0000
0001
1000
0100
0000
,
0000
0010
0001
1000
,
0001
0000
0001
0000
0100
0010
0100
0000
,
0010
1000
0001
0010
,
0100
0000
0010
0001
0100
0000
0010
0000
,
0000
0100
0001
1000
,
0001
0100
0001
0100
0001
0000
1000
0000
,
0002
0003
0000
0020
0030
0000
0200
0300
0010
0000
0000
0000
0010
0000
0000
0000
,
0001
1000
0010
0000
0000
0010
0100
0000
,
0001
0000
1000
1000
,
0000
0100
0010
0000
0000
0000
0100
0000
,
1000
0001
1000
0000
0010
0000
1000
0100
,
0010
0100
0000
0010
,
0001
0000
1000
0000
0001
0100
0001
0100
,
0001
0000
1000
0000
0100
0000
0010
0100
,
0000
0010
0001
0001
,
1000
0001
0100
0000
0100
0000
0010
0000
,
1000
0001
1000
1000
,
0100
0010
0100
0000
0010
0000
0001
0000
,
1000
0000
0010
0000
0100
0000
0010
1000
,
0100
0010
0100
1000
,
0001
0000
0010
0000
0011
0000
0000
1010
,
0000
0000
0110
0000
0101
0000
0000
1100
,
0000
0110
0002
0000
,
0000
0000
0000
0000
,
0000
0000
0000
0000
,
0000
0000
0000
0000
0000
0000
1003
0000
0100
0000
0010
0000
,
0100
0000
0010
0000
0001
0000
0200
0000
0000
0000
0000
0000
,
0000
0000
0300
0000
;

//---------------dance-single - RGTM-CSP----------------
#NOTEDATA:;
#CHARTNAME:RGTM-CSP;
#STEPSTYPE:dance-single;
#DESCRIPTION:RGTM-CSP;
#DIFFICULTY:Challenge;
#METER:18;
#CREDIT:RGTM;
#NOTES:
0000
0000
0000
0000
,
0001
1000
0100
1000
1010
0000
0000
0010
1000
0001
0100
0001
0011
0000
0010
0100
,
1000
0000
0010
0000
1000
0000
0001
0000
0101
0000
0000
0000
0001
0000
0100
0000
0001
0000
0010
0000
0100
0000
1000
0000
1100
0000
0100
0000
0020
0030
0000
0000
,
0001
1000
1010
0100
1001
0100
0011
1001
,
1010
0000
0000
0000
0110
0000
0000
0000
0101
0000
0000
0000
1001
0000
1000
0000
1100
0000
0100
0000
0110
0000
0010
0000
0002
0003
0000
0000
0220
0330
0000
0000
,
1002
0000
1003
0010
1000
0100
0020
0000
0031
0000
1000
0010
1000
0000
0001
0000
,
0010
0000
0000
0000
0100
0000
0010
0000
0000
0000
0010
0000
0001
0000
0010
0000
0200
0000
0000
0000
1300
0000
0000
0000
0002
0000
0000
0003
0110
0000
0000
0000
,
2000
0000
3010
1000
0100
0000
0020
0000
0031
0000
0100
0000
0110
0000
0010
0000
,
1000
0000
0000
0100
0000
0000
1000
0000
0000
0100
0000
0000
0010
0000
0000
0100
0000
0000
1000
0000
0000
0001
0000
0000
0100
0000
0000
0000
0000
0000
0010
0000
0000
0100
0000
0000
0000
0000
0000
0001
0000
0000
1000
0000
0001
0000
1000
0000
,
0002
0000
0013
0000
0001
0100
0020
0000
1030
0000
0100
0010
0100
0000
1000
0000
,
0002
0000
0013
2000
0000
3010
0002
0000
0103
2000
0000
3100
0002
0000
0013
0000
,
0200
0000
1300
0010
0100
0000
0020
0000
1030
0000
0001
0010
0100
0000
0010
0001
,
0100
0000
0000
0001
0000
0000
1000
0000
0001
0000
1000
0000
0001
0000
0000
0000
0000
0000
0010
0000
0000
0000
0000
0000
0110
0000
0000
0000
0000
0000
0100
0000
0000
1000
0000
0000
0020
0000
0000
0000
0000
0000
0100
0000
0000
0030
0000
0000
,
2001
0000
3001
1000
0100
0010
0002
0000
0013
0000
0001
0100
0120
0000
0100
0000
,
1030
0000
0000
0000
0100
0000
0010
0000
0000
0000
0010
0000
0001
0000
0000
0000
0200
0000
0000
0000
0301
0000
0000
0000
2000
0000
0000
3000
0110
0000
0000
0000
,
0002
0000
0103
0001
0100
0000
0020
0000
1030
0000
0001
1000
0001
0000
0010
0000
,
0100
0000
0000
0000
0000
0000
1000
0000
0000
0000
0000
0000
0100
0000
0000
0000
0000
0000
1000
0000
0000
0000
0000
0000
0001
0000
0000
0000
0000
0000
0100
0000
0000
0000
0000
0000
0010
0000
0000
0000
0000
0000
1000
0000
0000
0000
0000
0000
0200
0000
0000
0300
0000
0000
0000
0000
0000
0000
0000
0000
0120
0000
0000
0000
0000
0000
0031
0000
1000
0000
0001
0000
2000
0000
0000
0000
0000
0000
0000
0000
0000
0000
0000
0000
3010
0000
0000
0000
0000
0000
0000
0000
0000
0000
0000
0000
,
1000
0100
0020
0000
0031
0000
0100
0010
0100
0000
0001
0000
1000
0000
0010
0100
,
0000
0100
0001
0000
0020
0000
0130
0000
1100
0000
0101
0000
0002
0000
1003
0010
,
1000
0000
0200
0000
0310
0000
0001
0100
0010
1000
0100
0000
0002
0000
0103
2000
,
0000
3010
0002
0013
2000
0000
3100
0002
0000
0103
2000
3010
0200
0000
0000
0000
,
0000
0000
0000
0000
0301
0100
0010
0000
1000
0000
1100
0000
0100
0000
0010
0000
,
0011
0000
0000
0001
0000
0000
0100
0000
0000
0110
0000
0000
0010
0100
0010
0100
0000
0000
0101
0000
0000
0001
0000
0000
,
1000
0000
1100
0000
0010
0001
0100
0000
0110
0000
0010
0000
1000
0000
1010
0000
,
0010
0000
0100
0000
0001
0010
0001
0010
0100
0000
1000
0100
1000
0100
0010
0001
,
1000
0000
0001
0000
0100
0000
0000
0000
2000
3000
0200
0300
2000
3000
0200
0300
0002
0003
2000
3000
0100
0000
0000
0000
0010
0000
0000
0000
0001
0000
0000
0000
,
1010
0000
0000
0100
0000
0000
0001
0000
0000
1100
0000
0000
0100
0010
0100
0010
0000
0000
0011
0000
0000
1000
0000
0000
,
0010
0000
0100
0010
1000
0100
0010
0000
0110
0000
1000
0000
0001
0000
1010
0000
,
0100
0000
0000
0000
0000
0000
0001
0000
0000
0000
0000
0000
0010
0000
0000
0100
0000
0000
1000
0000
0000
0100
0000
0000
1000
0000
0000
0001
0000
0000
0100
0000
0000
0000
0000
0000
0001
0000
0000
0000
0001
0000
0000
0000
0001
0000
0000
0000
,
1000
0000
0000
0000
1000
0000
0000
0000
1000
0000
0000
0000
0102
0000
0000
0000
0000
0000
1000
0000
0000
0000
0000
0000
0023
0000
0000
0000
0000
0000
0130
0000
0000
0010
0000
0000
0100
0000
0000
1000
0000
0000
0200
0000
0000
0000
0000
0000
,
2300
0000
0010
0000
3002
0000
1000
0000
0203
0000
0310
0100
0010
1000
0010
0100
,
0002
0000
0010
0000
2003
0000
3010
0100
0010
1000
0100
1000
0002
0000
0010
0003
,
0022
0033
0000
0000
2020
3030
0000
0000
0022
0033
0000
0000
2200
3300
0202
0303
2200
3300
0000
0000
0022
0033
0000
0000
2020
3030
0000
0000
0002
0000
0000
0000
1003
0000
0000
0000
0000
0000
0000
0000
0010
0000
0000
0000
0100
0000
0000
0000
0000
0000
0000
0000
0001
0000
0000
0000
0010
0000
0000
0000
0000
0000
0000
0000
,
0110
0000
0000
0000
1000
0010
0100
0010
1000
0100
0010
0001
1000
0000
0010
0000
,
0110
0000
0100
0000
0001
0000
0010
0100
0000
1000
0010
0000
0110
0000
0000
0000
,
0001
0000
0010
0000
0100
0000
0010
0000
0001
0000
0100
0000
0010
0000
1000
0000
0002
0003
0000
0000
0000
0000
0010
0000
0100
0000
0000
0000
0000
0000
1000
0000
,
0001
0100
0101
1100
0101
1100
0001
0001
,
0010
0000
0010
0000
0100
0000
0100
0000
1000
0000
1000
0000
0001
0000
0001
0100
,
0001
0100
0001
0100
0010
0000
1000
0010
1000
0010
1000
0010
1000
0100
0010
0001
,
1000
0010
0100
0001
0020
0000
0230
0000
2300
0000
3002
0000
0203
0000
0000
0000
,
0000
0000
0000
0000
,
0000
0000
0000
0000
,
0000
0000
0000
0000
,
0000
0000
0000
0310
,
0000
0000
0000
0000
0000
0000
0000
0000
1000
0000
0000
0000
0000
0000
0000
0000
0000
0000
0000
0000
0000
0000
0000
0000
1010
0000
0010
1000
0100
0000
0010
0000
,
0011
0000
0001
0100
0001
0000
1000
0000
0010
0000
0100
0010
1000
0000
0100
0000
0110
0000
0010
0000
0002
0000
0000
0000
1003
0000
0001
0010
0001
0000
0100
0000
,
0101
0000
0000
0001
0000
0000
1000
0100
1000
0100
1000
0100
1000
0000
0000
0000
0000
0000
0001
0010
0001
0010
0001
0010
0001
0000
0000
0000
0000
0000
1000
0000
0000
0001
1000
0001
1000
0000
0000
0010
0000
0000
0100
0000
0000
0010
0000
0000
,
1010
0000
1000
0100
0010
0000
0001
0000
2000
0000
3010
0002
0000
0013
2000
0000
3100
0002
0000
0103
2000
0000
3000
0000
0001
0000
0100
0010
1000
0010
0100
0001
,
1001
0000
0000
1000
0000
0000
0010
0000
0000
0100
0000
0000
0001
0000
0010
0000
0100
0000
0000
0000
0000
0000
0000
0000
0020
0000
0000
0000
0000
0000
0000
0000
0000
0000
0000
0000
0000
0000
0000
0000
0000
0000
0000
0000
0000
0000
0000
0000
,
0000
0000
0000
0000
,
0000
0000
0000
0000
0000
0000
0000
0000
0032
0000
0013
0100
1000
0001
0200
0000
,
0310
0000
1000
0010
1000
0000
0001
0000
0010
0000
0010
0100
0000
0100
1000
0000
,
0002
0000
0103
0000
2000
0000
3100
0000
0020
0000
1030
0100
0010
0000
0002
0000
,
0103
0000
0010
0100
0010
0000
1000
0000
0001
0100
0001
0100
0010
0100
0001
1000
,
0100
0000
0000
0000
0000
0000
0010
0000
0000
0100
0000
0000
0000
0000
0000
1000
0000
0000
0001
0000
1000
0000
0001
0000
2000
0000
0000
0000
0000
0000
3010
0000
0000
0000
0000
0000
1000
0000
0000
0100
0000
0000
0020
0000
0000
0000
0000
0000
,
0031
0000
0100
0010
0100
0000
0001
0000
1000
0000
1000
0010
0000
0010
0100
0000
,
0002
0000
0013
0000
2000
0000
3010
0000
0002
0000
0103
0001
0010
0000
0200
0000
,
1300
0000
0000
0000
0010
0000
0000
0000
0100
0000
0000
0000
1001
0000
0000
0000
0101
0000
0001
0010
0100
0000
1100
0000
1000
0010
0100
0000
0001
1000
0100
0010
,
0001
0000
0010
0001
1000
0001
0100
0000
,
0010
1000
0001
1000
0100
0000
0010
0000
,
0011
0000
0110
0000
0100
1000
0001
0100
,
0010
0000
1010
0000
0001
0010
0100
1000
,
0001
0000
0100
0010
0100
0001
1000
0000
,
0100
1000
0100
0010
0001
0000
1001
0000
,
1000
0010
0100
0010
1000
0100
0010
0000
,
0110
0000
0100
1000
0000
0001
0100
0010
,
1000
0000
0100
1000
0001
1000
0010
0000
,
0100
0001
1000
0001
0010
0000
0100
0000
,
1100
0000
0110
0000
0010
0001
1000
0010
,
0100
0000
0101
0000
1000
0100
0010
0001
,
1000
0000
0010
0100
0010
1000
0001
0000
,
0010
0001
0010
0100
1000
0000
1001
0000
,
0001
0100
1000
0100
0001
0000
0011
0000
,
0020
0030
0000
0002
0003
0000
2000
3000
0010
0000
0000
0000
1000
0000
0001
0000
,
1000
0100
0010
0000
0001
0010
0100
0000
,
1100
0000
1001
0000
0001
0000
0100
0010
,
0000
0010
0100
0001
0010
0000
0110
0000
,
0100
1000
0001
0000
0011
0000
0010
0001
,
0100
0010
1000
0000
1010
0000
0110
0000
,
0100
0001
1000
0000
0001
0010
0100
0010
,
0001
0100
0010
0000
1000
0001
1000
0100
,
0010
0000
1001
0000
0001
0010
0100
0010
,
0001
0100
0010
0100
0001
0010
0001
1000
,
0010
0100
0010
1000
0100
0010
0100
1000
,
0001
0100
0010
0100
0001
0010
0001
1000
,
0010
0100
0001
0100
0010
1000
0100
0001
,
0100
0010
0001
0100
1000
0100
0010
1000
,
0001
0010
0100
1000
0002
0000
0103
2000
,
0000
3100
0002
0013
2000
0000
3010
0002
,
0000
0103
2000
3100
0002
0000
0000
0000
,
0000
0000
0000
0000
,
0000
0000
0000
0000
,
0000
0000
0000
0000
0000
0000
0013
0100
0010
0000
0001
0000
,
0100
0010
0100
0000
0001
0000
2002
0000
0000
0000
0000
0000
,
0000
0000
3003
0000
;

//---------------dance-double - RGTM-BDP----------------
#NOTEDATA:;
#CHARTNAME:RGTM-BDP;
#STEPSTYPE:dance-double;
#DESCRIPTION:RGTM-BDP;
#DIFFICULTY:Easy;
#METER:8;
#CREDIT:RGTM;
#NOTES:
00000000
00000000
00000000
00000000
,
10000000
00000000
00010000
00000000
00100000
01000000
00100000
00000000
,
00001000
00000000
00010000
00000000
00000010
00000100
00000020
00000000
,
00000030
00000010
00000100
00000001
,
00001000
00000000
00000100
00000100
00010000
00010000
00002000
00000000
,
00003000
00000000
00000000
00001000
00000000
00000000
00001000
00000000
,
00100000
01000000
00100000
00010000
,
10000000
00000000
00000000
10000000
00000000
00000000
10000000
00000000
,
00100000
01000000
00001000
00010000
,
00001000
00000000
00000000
00001000
00000000
00000000
00010000
00000000
,
00000100
00000100
00000010
00000001
,
00000100
00000000
00000000
00000100
00000000
00000000
00000010
00000000
,
00010000
00001000
00010000
00000000
00001000
00000000
00100000
00000000
,
00010000
00000000
00000000
00010000
00000000
00000000
10010000
00000000
,
10000000
00100000
01000000
00001000
,
00010000
00000000
00000000
00010000
00000000
00000000
00000100
00000000
,
00000010
00000100
00000010
00000000
00000002
00000003
00000000
00000000
,
00000000
00000001
00000000
00000000
00001000
00000000
00000010
00000000
,
00010000
00001000
00100000
01000000
,
00000000
01000000
00000000
00000000
10000000
00000000
01100000
00000000
,
00010000
01100000
10000000
20020000
,
00000000
00000000
30030000
00000000
00000000
10000000
00000000
00000000
,
01000000
00000000
00000000
01000000
00000000
00000000
00100000
00000000
,
00000000
00100000
00000000
00000000
00001000
00000000
00000000
00001000
,
00000000
00000000
00010000
00000000
00000000
00010000
00000000
00000000
,
00000010
00000000
00000020
00000000
00000000
00000130
00000000
00000000
,
00000001
00000000
00000000
00000010
00000000
00000000
00001000
00000000
,
00000000
00010000
00000000
00000000
00100000
00000000
00000000
10000000
,
00000000
01000000
00010000
00002000
,
00023000
00000000
00031000
00000000
00001000
00000000
00010000
00001000
,
00010000
00000000
00000010
00000000
00000010
00000000
00000100
00000010
,
00000200
00000000
00000301
00000000
00001000
00000001
00001000
00000000
,
00000200
00000000
00000000
00000300
00000100
00000000
00000010
00000000
,
00001001
00000000
00001000
00000001
00001000
00000000
00000001
00000000
,
00000000
00000100
00001000
00011000
,
00010000
00001000
00010000
00000000
02000000
00000000
03000000
00000000
,
00000000
00000000
01000000
00100000
01000000
00000000
10000000
00000000
,
00100000
01000000
00001000
00010000
,
00010000
00000000
00000010
00000000
00000010
00000000
00000100
00000010
,
00000100
00000000
00000001
00001000
00000001
00000000
00000020
00000000
,
00000000
00000000
00000000
00000000
,
00000000
00000000
00000000
00000000
,
00000000
00000000
00000000
00000000
,
00000000
00000000
00000000
00000030
,
00000000
00000000
00000000
00001001
,
00000000
00000000
00000001
00001000
00000001
00000000
00000100
00000000
,
00000010
00000000
00010000
00001000
00010000
00001000
00010000
00000000
,
01000000
00000000
10000000
00000000
10000000
00000000
00100000
01000000
,
00100000
02000000
00000000
00000000
,
00000000
00000000
00000000
00000000
,
00000000
00000000
03000000
00000000
,
00000000
00000000
00100000
00000000
10000000
00010000
10000000
00000000
,
01000000
00000000
00100000
00000000
00001000
00000000
00000000
00001000
,
00000000
00000000
00010000
00000000
00000010
00000100
00000010
00000000
,
00001000
00000000
00000001
00000000
00000010
00000000
00000000
00000010
,
00000000
00000000
00000100
00000000
00010000
00001000
00010000
00000000
,
00100000
00000000
01000000
00000000
00010000
00000000
00000000
00010000
,
00000000
00000000
00000000
00000000
10000000
00000000
00000000
00000000
00010000
00000000
00000000
00010000
00000000
00000000
00010000
00000000
,
10000000
00000000
00000000
10000000
,
00000000
00000000
01000000
00000000
,
00100000
00000000
00001000
00000000
,
00010000
00000000
00000010
00000000
,
00000100
00000000
00000000
00000100
,
00000000
00000000
00000001
00000000
,
00001000
00000000
00000100
00000000
,
00000010
00000000
00001000
00000000
,
00010000
00000000
00000000
00010000
,
00000000
00000000
00100000
00000000
,
01000000
00000000
00010000
00000000
,
10000000
00000000
01000000
00000000
,
00100000
00000000
00000000
00100000
,
00000000
00000000
00001000
00000000
,
00010000
00001000
00010000
00000000
,
00000020
00000000
00000030
00000000
,
00000010
00000100
00000000
00000100
,
00000001
00000000
00001000
00000001
,
00001000
00000000
00000100
00000000
,
00000010
00000000
00001000
00000000
,
00001000
00010000
00000000
00010000
,
00001000
00000000
01000000
00100000
,
01000000
00000000
00010000
00000000
,
10000000
00000000
01000000
00000000
,
01000000
00100000
00000000
00100000
,
00010000
00000000
10000000
00010000
,
10000000
00000000
00100000
00000000
,
01000000
00000000
00001000
00000000
,
00001000
00010000
00000000
00010000
,
00001000
00000000
00011000
00000000
,
00000010
00000000
00011000
00000000
,
00100000
00000000
00022000
00000000
,
00000000
00000000
00000000
00000000
,
00000000
00000000
00033000
00000000
,
00000000
00000000
00010000
00000000
,
00001000
00000000
00022000
00000000
,
00000000
00000000
00033000
00000000
;

//---------------dance-double - RGTM-DDP----------------
#NOTEDATA:;
#CHARTNAME:RGTM-DDP;
#STEPSTYPE:dance-double;
#DESCRIPTION:RGTM-DDP;
#DIFFICULTY:Medium;
#METER:10;
#CREDIT:RGTM;
#NOTES:
00000000
00000000
00000000
00000000
,
10000000
01000000
00100000
00000000
00010000
01000000
00100000
00000000
,
10000000
00000000
00000000
00000000
01000000
00000000
00000000
00000000
00010000
00000000
00000000
00000000
00000000
00000000
00000000
00000000
00001000
00000000
00000000
00000000
00000100
00000000
00000000
00000000
00000001
00000000
00000000
00000000
00002000
00003000
00000000
00000000
,
00000001
00000000
00000001
00000000
00000010
00000000
00000010
00000010
,
00001000
00000000
00000000
00000000
00001000
00000000
00000000
00000000
00010000
00000000
00000000
00000000
00100000
00000000
00000000
00000000
10000000
00000000
00000000
00000000
01000000
00000000
00000000
00000000
00200000
00300000
00000000
00000000
02000000
03000000
00000000
00000000
,
10010000
00000000
10000000
00010000
00000000
00000000
01000000
00000000
,
00100000
01000000
00100000
00000000
01000000
00000000
00001000
00000000
,
00010000
00000000
00001000
00010000
00000000
00000000
00000100
00000000
,
00000010
00000000
00000100
00000000
00000010
00000000
00000000
00000000
00000001
00000000
00000000
00000001
00000000
00000000
00000001
00000000
,
00001000
00000000
00001000
00000001
00000000
00000000
00000100
00000000
,
00000001
00000000
00000000
00000010
00000000
00000000
00000100
00000000
00000000
00001000
00000000
00000000
00000010
00000000
00000000
00000000
,
00010000
00000000
00001000
00010000
00000000
00000000
00100000
00000000
,
01000000
00000000
00100000
00000000
01000000
00000000
00000000
00000000
00010000
00000000
00000000
00010000
00000000
00000000
00010000
00000000
,
10000000
00000000
10000000
01000000
00000000
01000000
00100000
00000000
,
00001000
00100000
00001000
00000000
00010000
00000000
00000010
00000000
,
00000100
00000000
00000100
00000001
00000000
00000001
00001000
00000000
,
00000100
00000000
00000000
00000000
00000010
00000000
00000000
00000000
00000100
00000000
00000000
00000000
00000000
00000000
00000000
00000000
00000020
00000030
00000000
00000000
00000210
00000300
00000000
00000000
00001001
00000000
00000000
00000000
00000000
00000000
00000000
00000000
,
00000001
00001000
00000000
00000000
00000010
00000000
00000100
00000001
,
00000100
00000010
00010000
00001000
,
00001000
00000000
00100000
00000000
00000000
00000000
00100000
00000000
01000000
00000000
00000000
00000000
10000000
00000000
00000000
01000000
,
00000000
00000000
10000000
00000000
00010000
00000000
00000000
01000000
00000000
00000000
00010000
00000000
00200000
00000000
00000000
00000000
,
00000000
00000000
01300000
00000000
01000000
10000000
00000000
10000000
,
00010000
00000000
00010000
01000000
00000000
01000000
00100000
00000000
,
00100000
00010000
00000000
00010000
00001000
00000000
00001000
00000010
,
00000000
00000010
00000100
00000000
00000100
00001000
00000000
00001000
,
00000001
00000000
00000200
00000000
00000000
00000310
00000000
00000100
,
00000001
00000000
00000001
00000010
00000000
00000010
00000100
00000000
,
00000100
00010000
00000000
00010000
00001000
00000000
00001000
01000000
,
00000000
01000000
00100000
00000000
10000000
00010000
20000000
00000000
,
30020000
00000000
10030000
10000000
10000000
00000000
01000000
01000000
,
01000000
00000000
00100000
00100000
00100000
00000000
00001000
00001000
,
00002000
00003000
00001000
00000000
00010000
00010000
00010000
00000000
,
00000010
00000100
00000010
00000010
00000100
00000010
00000100
00000200
00000301
00000000
00000000
00000000
00000010
00000000
00000000
00000000
,
00000110
00000000
00000100
00010000
00000100
00000000
00010000
00000000
,
00000000
00001000
01000000
01100000
,
00100000
00000000
00000000
00000000
10000000
00000000
00000000
00000000
00100000
00000000
00000000
00000000
00000000
00000000
00000000
00000000
20000000
30000000
00000000
00000000
00000000
00000000
00000000
00000000
00010000
00000000
00000000
00000000
00000000
00000000
00000000
00000000
,
00100000
00000000
01000000
00100000
01000000
00100000
01000000
00000000
,
10000000
00000000
00010000
00000000
01000000
00000000
00001000
00010000
,
00001000
00000000
00010000
00000100
00010000
00000000
00000100
00000010
,
00000100
00000010
00000001
00001000
00000001
00001000
00000020
00000000
,
00000000
00000000
00000000
00000000
,
00000000
00000000
00000000
00000000
,
00000000
00000000
00000000
00000000
,
00000000
00000000
00000000
00000130
,
00000000
00000000
00000000
00000000
00000000
00000000
00001001
00000001
,
00000010
00000000
00000100
00000000
00010000
00001000
00010000
00000000
00001000
00000000
01000000
00000000
00100000
01000000
00100000
00000000
,
10000000
00000000
00010000
00000000
10000000
00000000
20000000
00000000
31000000
00000000
02000000
00000000
03100000
01000000
00100000
00000000
,
00001000
00000000
00010000
00000000
00001000
00000000
00000000
00001000
00000000
00000000
00001000
00000000
00010000
00000010
00010000
00000000
,
00000100
00000010
00000001
00000000
00000002
00000000
00000000
00000000
,
00000000
00000000
00000000
00000000
,
00000000
00000000
00000000
00000000
00000003
00000000
00000000
00000001
,
00000000
00000000
00000100
00000000
00000010
00010000
00001000
00000000
,
00010000
00000000
00001000
00000000
00100000
00000000
01000000
00100000
,
00000000
00000000
00010000
00000000
10000000
00010000
10000000
00000000
,
00100000
00000000
01000000
00000000
00001000
00000000
00010000
00001000
,
00000000
00000000
00010000
00000000
00000100
00000010
00000100
00000000
,
00001000
00000000
00000001
00000000
00000100
00000000
00000010
00000100
,
00000000
00000000
00000000
00000000
00000001
00000000
00000000
00000000
00000110
00000000
00000000
00001001
00000000
00000000
00000110
00000000
,
00001001
00000000
00000000
00000001
,
00000000
00000000
00000010
00000000
,
00000100
00000010
00000100
00000000
,
00010000
00000000
00001000
00000000
,
00010000
00000000
00000000
00010000
,
00000000
00000000
00001000
00000000
,
01000000
00100000
01000000
00000000
,
00010000
00000000
10010000
00000000
,
10000000
00000000
00000000
10000000
,
00000000
00000000
01000000
00000000
,
00100000
01000000
00100000
00000000
,
00001000
00000000
00010000
00000000
,
00001000
00000000
00000000
00001000
,
00000000
00000000
00010000
00000000
,
00000010
00000100
00000010
00000000
,
00002000
00000000
00003001
00000000
,
00000001
00000010
00000000
00000010
,
00000100
00000000
00001000
00000100
,
00001000
00000000
00000010
00000000
,
00010000
00000000
00001000
00000000
,
00001000
00010000
00000000
00010000
,
00001000
00000000
01000000
00001000
,
01000000
00000000
00100000
00000000
,
10010000
00000000
10000000
00000000
,
10000000
01000000
00000000
01000000
,
00100000
00000000
00010000
00100000
,
00010000
00000000
01000000
00000000
,
00001000
00000000
00010000
00000000
,
00010000
00001000
00000000
00001000
,
00010000
00000000
00000000
00000000
00001000
00000000
00000000
00010000
,
00000000
00000000
00000100
00000000
00000010
00000000
00000000
00000001
,
00000000
00001000
00000020
00000000
,
00000000
00000000
00000000
00000000
,
00000000
00000000
00000000
00000000
,
00000000
00000000
00000130
00000000
,
00000110
00000000
00002002
00000000
,
00000000
00000000
00003003
00000000
;

//---------------dance-double - RGTM-EDP----------------
#NOTEDATA:;
#CHARTNAME:RGTM-EDP;
#STEPSTYPE:dance-double;
#DESCRIPTION:RGTM-EDP;
#DIFFICULTY:Hard;
#METER:14;
#CREDIT:RGTM;
#NOTES:
00000000
00000000
00000000
00000000
,
10000000
01000000
00110000
00000000
00001000
00000010
00000101
00000000
,
00000001
00000000
00000000
00000000
00000010
00000000
00000000
00000000
00001100
00000000
00000000
00000000
00000000
00000000
00000000
00000000
00010000
00000000
00000000
00000000
01000000
00000000
00000000
00000000
10100000
00000000
00000000
00000000
00020000
00030000
00000000
00000000
,
10000000
00000000
10000000
00000000
01000000
00000000
01000000
01000000
,
00100000
00000000
00000000
00000000
00100000
00000000
00000000
00000000
00001000
00000000
00000000
00000000
00001000
00000000
00100000
00000000
00001000
00000000
00010000
00000000
00001000
00000000
00010000
00000000
00000020
00000030
00000000
00000000
00000220
00000330
00000000
00000000
,
00001001
00000000
00000000
00000000
00000001
00000010
00000100
00000000
00000000
00000000
00000000
00000000
00000000
00000000
00000000
00000000
,
00010000
00000000
00001000
00000000
00100000
01000000
00000000
00000000
10000000
00000000
00000000
00000000
00010000
00000000
00000000
00000000
,
10000000
00000000
00000000
00000000
00100000
01000000
00010000
00000000
00000000
00000000
00000000
00000000
00000000
00000000
00000000
00000000
,
00100000
00001000
00010000
00000010
00001000
00000000
00000000
00000000
00000001
00000000
00000000
00000010
00000000
00000000
00001000
00000000
,
00010000
00000000
00000000
00000000
00100000
10000000
01000000
00000000
00000000
00000000
00000000
00000000
00000000
00000000
00000000
00000000
,
00101000
00000000
00000000
00010010
00000000
00000000
00101000
00000000
00000000
00010010
00000000
00000000
00201000
00000000
00000000
00000000
,
00301000
00000000
00000000
00000000
00010000
00000100
00000010
00000000
00000000
00000000
00000000
00000000
00000000
00000000
00000000
00000000
,
00000001
00000000
00000200
00000000
00001300
00000000
00010000
00000000
00000100
00000000
00000000
00000010
00000000
00000000
00001000
00000000
,
00010000
00000000
00000000
00100000
10000000
01000000
00100000
00000000
00000000
00000000
00000000
00000000
00000220
00000000
00000000
00000000
,
00000330
00000000
00010000
00001000
,
00000100
00000000
00000000
00000000
00000001
00000010
00000100
00000000
00000000
00000000
00000000
00000000
00000000
00000000
00000000
00000000
,
00010000
00000000
00001000
00000000
00010000
00000000
00001000
00000000
00010000
00000000
00000000
00000000
00000000
00000000
00000000
00000000
00200000
00300000
00000000
00000000
02100000
00000000
03000000
00000000
10010000
00000000
00000000
00000000
00000000
00000000
00000000
00000000
,
10000000
01000000
00010000
00000000
00000000
00000000
00000000
00000000
00000000
00000000
00000000
00000000
00001000
00000000
00000010
00000000
,
00000001
00000100
00000000
00000000
00001000
00000000
00000000
00000000
00010000
00000000
00000000
00000000
00100000
00000000
00000000
00000000
,
01000000
00001000
00010000
00000000
00000000
00000000
00000000
00000000
00000000
00000000
00000000
00000000
00001010
00000000
00000000
00011000
,
00000000
00000000
00110000
00000000
01010000
00000000
00000000
00011000
00000000
00000000
00001100
00000000
00000220
00000000
00000000
00000000
,
00000000
00000000
00000330
00000000
00000001
00001000
00000001
00000000
00001000
00000000
00000001
00000000
00000000
00000000
00000001
00000000
,
00000010
00000000
00000010
00000100
00000000
00000100
01000000
00000000
,
01000000
00010000
00000000
00010000
00100000
00000000
00100000
00000010
,
00000000
00000010
00000100
00000000
00000100
00001000
00000000
00001000
,
10000000
00000000
00000000
00000000
00000000
00000000
00000000
00000000
00020000
00030000
00200000
00300000
02000000
03000000
20000000
30000000
02000000
03000000
00200000
00300000
00020000
00030000
00000000
00000000
00000000
00000000
00000000
00000000
00010000
00000000
00000000
00000000
,
01000000
00000000
01000000
00000100
00000000
00000100
00001000
00000000
,
00001000
00000010
00000000
00000010
00100000
00000000
00100000
01000000
,
00000000
00000000
00000000
01000000
00000000
00000000
00010000
00000000
00000000
00000000
00000000
00000000
00010000
00000000
00000000
00001000
00000000
00000000
00000010
00000000
00000001
00000000
00000100
00000000
,
00001000
00000000
00000000
00000000
00010000
00000000
00000000
00000000
01000000
00000000
00000000
00000000
20000000
00000000
00000000
00000000
00000000
00000000
00100000
00000000
00000000
00000000
00000000
00000000
30100000
00000000
00000000
00000000
00000000
00000000
10000000
00000000
00000000
00020000
00000000
00000000
10000000
00000000
00000000
00000000
00000000
00000000
00100000
00000000
00000000
00000000
00000000
00000000
,
00130000
00000000
00010000
00000000
02000000
00000000
00001000
00000000
03001000
00000000
00010000
00002000
00010000
00000000
00010000
00000000
,
00003020
00000000
00000100
00000000
00000130
00000000
00000010
00000002
00001000
00000000
00001000
00000000
00002003
00000000
00000010
00000000
,
00003002
00000003
00000020
00000030
00000200
00000300
00000020
00000230
00002300
00003000
00000020
00000030
00000200
00000300
00002000
00000000
00013000
00000000
00000000
00000000
00000000
00000000
00100000
00000000
00000000
00000000
00000000
00000000
10000000
00000000
00000000
00000000
,
11000000
00000000
00010000
10000000
00100000
00010000
00001000
00000000
,
00000000
00000000
00000000
00000000
00001000
00000000
00000000
00000010
00000000
00000000
00000001
00000000
00000101
00000000
00000000
00000000
,
00001000
00000000
00000001
00000000
00000010
00000000
00001000
00000000
00010000
00000000
00000000
00010000
00001000
00000000
00000000
00000000
,
00000000
00000000
01100000
01100000
01100000
01100000
00000000
00000000
,
00000000
00000000
10000000
00010000
10000000
00000000
01000000
00100000
,
00001000
00010000
00000100
00000010
00001000
00010000
00000010
00000010
,
00000100
00000000
00000100
00000000
00000001
00001000
00000001
00001000
00000001
00001000
00000001
00001000
00000200
00000000
00000000
00000000
,
00000000
00000000
00000000
00000000
,
00000000
00000000
00000000
00000000
,
00000000
00000000
00000000
00000000
,
00000000
00000000
00000000
00000310
,
00000000
00000000
00000000
10010000
,
00100000
00000000
00000100
01000000
00011000
00000000
00001001
00000000
,
00000010
00000000
00000100
00020000
01030000
00002000
00003100
00000000
,
00000010
00000000
00000000
00000000
00000000
00000000
00000000
00000000
00010010
00000000
00000000
00101000
00000000
00000000
00010010
00000000
00000000
00101000
00000000
00000000
00020010
00000000
00000000
00000000
00031000
00000000
00000000
00000000
00000000
00000000
00000000
00000000
,
01000000
10010000
00200000
00000000
,
00000000
00000000
00000000
00000000
,
00000000
00000000
00000000
00000000
00000000
00000000
00000000
00000000
01300000
00000000
00000000
00000000
00100000
01000000
00100000
00000000
,
00000000
00000000
00000000
00000000
00000000
00000000
00000000
00000000
10010000
00000000
10000000
00000000
01000000
00010000
00000000
00000000
,
00001000
00000000
00000000
00000000
00000100
00000000
00000000
00000000
00000001
00000000
00000000
00000000
00000010
00001000
00010000
00000000
,
00000000
00000000
00000000
00000000
00100000
00000000
00000000
00000000
10000000
01000000
00100000
01000000
10000000
00000000
00000000
00000000
,
00100000
00000000
00000000
00010000
00000000
00000000
00001000
00000000
00000100
00000000
00000000
00000000
00000010
00010000
00000100
00000000
,
00000000
00000000
00000000
00000000
00000000
00000000
00000000
00000000
00000010
00000000
00000001
00000000
00000100
00001000
00000000
00000000
,
00010000
00000000
00000000
00000000
00100000
00000000
00000000
00000000
01000000
00000000
00000000
00000000
00001000
00100000
01000000
00000000
,
00000000
00000000
00000000
00000000
00000000
00000000
00000000
00000000
00000000
00000000
00000000
00000000
00000000
00000000
00000000
00000000
01100000
00000000
00000000
00000000
00000000
00000000
00011000
00000000
00000000
00000000
00000000
00000000
00000001
00000010
00000100
00001000
,
00000001
00000000
00000000
00000000
00000100
00000010
00001000
00000000
,
00000000
00000000
00000000
00000000
,
00000100
00000000
00000100
00000000
00010000
00001000
01000000
00000000
,
00000000
00000000
00010000
00000000
,
10000000
00000000
00000000
00000000
01000000
00100000
00010000
00000000
,
00000000
00000000
00000000
00000000
,
01000000
00001000
00010000
00000100
00000010
00000000
00000001
00000000
,
00001000
00000000
01100000
00000000
,
10000000
00000000
00000000
00000000
01000000
00100000
00010000
00000000
,
00000000
00000000
00000000
00000000
,
01000000
00000000
01000000
00000000
00001000
00010000
00000100
00000000
,
00000000
00000000
00001000
00000000
,
00000001
00000000
00000000
00000000
00000100
00000010
00001000
00000000
,
00000000
00000000
00000000
00000000
,
00000100
00010000
00001000
01000000
00100000
00000000
10000000
00000000
,
00020000
00030000
00000000
00200000
00300000
00000000
02000000
03000000
10000000
00000000
00000000
00000000
00000000
00000000
00000000
00000000
,
00100000
00010000
00001000
00000000
00000000
00000000
00100000
01000000
,
00010000
00000000
00001000
00000100
,
00000010
00001000
00000001
00000000
00000010
00000000
00000100
00000000
,
00001000
00000001
00001000
00000000
00000001
00000000
00000000
00000000
,
00000010
00001000
00010000
00000000
00000000
00000000
00000010
00000100
,
00001000
00000000
00000000
00000000
00010000
00100000
01000000
00100000
,
01000000
00000000
00010000
00000000
00100000
00000000
00000000
01000000
,
00000000
10000000
00010000
00000000
,
01000000
00100000
00010000
00000000
00000000
00000000
00001000
00000010
,
00000001
00000000
00000100
00000100
,
00001000
00010000
00100000
00000000
01000000
00000000
00001000
00000000
,
00010000
00000100
00000010
00000000
,
00000100
00001000
00000010
00000000
00000000
00000000
00000100
00001000
,
00010000
00000000
00000000
00000000
00001000
00000000
00000000
00100000
,
00000000
00000000
01000000
00000000
10000000
00000000
00000000
00100000
,
00000000
01000000
00002000
00000000
,
00000000
00000000
00000000
00000000
,
00000000
00000000
00000000
00000000
,
00000000
00000000
00000000
00000000
00000000
00000000
00013000
00000000
00000000
00000000
00000100
00000000
,
00000010
00000000
00000000
00000000
00000001
00000000
00000200
00000000
00000000
00000000
00000000
00000000
,
00000000
00000000
00000300
00000000
;

//---------------dance-double - RGTM-CDP----------------
#NOTEDATA:;
#CHARTNAME:RGTM-CDP;
#STEPSTYPE:dance-double;
#DESCRIPTION:RGTM-CDP;
#DIFFICULTY:Challenge;
#METER:18;
#CREDIT:RGTM;
#NOTES:
00000000
00000000
00000000
00000000
,
10000000
00010000
01000000
00001000
00101000
00000000
00000000
00001000
00010000
00000010
00000100
00000001
00000011
00000000
00000010
00000100
,
00010000
00000000
00001000
00000000
00100000
00000000
00010000
00000000
01010000
00000000
00000000
00000000
01000000
00000000
00100000
00000000
10000000
00000000
01000000
00000000
00100000
00000000
00001000
00000000
00010000
00000000
00000010
00000000
00000200
00000300
00000000
00000000
,
00000001
00000010
00000110
00000100
00010100
00010000
00011000
01001000
,
01100000
00000000
00000000
00000000
10100000
00000000
00000000
00000000
10010000
00000000
00000000
00000000
00010000
00000000
00100000
00000000
01000000
00000000
10000000
00000000
00010000
00000000
01000000
00000000
00200000
00300000
00000000
00000000
02200000
03300000
00000000
00000000
,
00012000
00000000
00013000
00001000
00100000
00010000
02000000
00000000
03100000
00000000
10000000
00100000
10000000
00000000
00010000
00000000
,
00100000
00000000
00000000
00000000
01000000
00000000
00010000
00000000
00000000
00000000
00010000
00000000
00001000
00000000
00000000
00000000
00020000
00000000
00000000
00000000
00030010
00000000
00000000
00000000
00000200
00000000
00000000
00000300
00000101
00000000
00000000
00000000
,
00000002
00000000
00000013
00000100
00001000
00000000
00000020
00000000
00001030
00000000
00000100
00010000
00000100
00000000
00010000
00000000
,
00001000
00000000
00000000
01000000
00000000
00000000
00001000
00000000
00000000
01000000
00000000
00000000
00100000
00000000
00000000
10000000
00000000
00000000
01000000
00000000
00000000
00100000
00000000
00000000
00020000
00000000
00000000
00000000
00000000
00000000
01030000
00000000
00000000
00100000
00000000
00000000
00000000
00000000
00000000
01000000
00000000
00000000
00001000
00000000
00010000
00000000
00001000
00000000
,
00020000
00000000
00031000
00010000
00000100
00000010
00000200
00000000
00001300
00000000
00000010
00000100
00000010
00000000
00000100
00000000
,
00002000
00000000
00013000
00200000
00000000
00310000
20000000
00000000
30010000
00200000
00000000
00310000
00002000
00000000
00013000
00000000
,
00000200
00000000
00000310
00000001
00000100
00000000
00000020
00000000
00000130
00000000
00001000
00010000
00001000
00000000
00010000
00000000
,
00100000
00000000
00000000
00000000
00000000
00000000
00000000
00000000
00000000
00000000
00000000
00000000
01000000
00000000
00000000
00000000
00100000
00000000
00000000
00000000
01000000
00000000
00000000
00000000
00100000
00000000
00000000
00000000
00000000
00000000
00000000
00000000
00000000
00000000
00000000
00000000
10000000
00000000
00000000
00000000
00000000
00000000
00000000
00000000
00000000
00000000
00000000
00000000
11000000
00000000
00000000
00000000
00000000
00000000
00000000
00000000
00000000
00000000
00000000
00000000
01000000
00000000
00000000
00000000
00000000
00000000
00100000
00000000
00000000
00000000
00000000
00000000
00002000
00000000
00000000
00000000
00000000
00000000
00000000
00000000
00000000
00000000
00000000
00000000
00000000
00000000
00000000
00000000
00000000
00000000
00000000
00000000
00000000
00003000
00000000
00000000
,
00021000
00000000
00031000
00010000
00001000
00010000
00000200
00000000
00000310
00000000
00000001
00001000
00002001
00000000
00000000
00000000
,
00003001
00000000
00000100
00000010
00000000
00000010
00010000
00000000
00000200
00000000
00000310
00000000
00002000
00000000
00013000
00000000
,
00200000
00000000
01300000
00000000
00010000
00100000
02000000
00000000
13000000
00000000
00100000
10000000
00100000
00000000
01000000
00000000
,
00001000
00000000
00000000
00000000
00000000
00000000
00010000
00000000
00000000
00000000
00000000
00000000
00001000
00000000
00000000
00000000
00000000
00000000
00010000
00000000
00000000
00000000
00000000
00000000
00000010
00000000
00000000
00000000
00000000
00000000
00001000
00000000
00000000
00000000
00000000
00000000
00000001
00000000
00000000
00000000
00000000
00000000
00000010
00000000
00000000
00000000
00000000
00000000
00000200
00000000
00000000
00000300
00000000
00000000
00000000
00000000
00000000
00000000
00000000
00000000
00000210
00000000
00000000
00000000
00000000
00000000
00001300
00000000
00000001
00000000
00001000
00000000
00000002
00000000
00000000
00000000
00000000
00000000
00000000
00000000
00000000
00000000
00000000
00000000
00000103
00000000
00000000
00000000
00000000
00000000
00000001
00000000
00000000
00000000
00000000
00000000
,
00001000
00000100
00000020
00000000
00001030
00000000
00010000
00001000
00010000
00000000
01000000
00000000
10000000
00000000
00100000
01000000
,
00000000
01000000
00010000
00000000
00200000
00000000
00301000
00000000
00011000
00000000
00011000
00000000
00020000
00000000
00031000
00010000
,
00000010
00000000
00000200
00000000
00000310
00000000
00001000
00000001
00001000
00000000
00000100
00000000
00020000
00000000
00031000
00000200
,
00000000
00000310
00020000
00000000
00032000
00000000
00013000
02000000
00000000
03100000
00001000
00010000
00002000
00000000
00000000
00000000
,
00000000
00000000
00000000
00000000
00013000
00100000
01000000
00000000
00001000
00000000
00010000
00000000
00100000
00000000
10000000
00000000
,
00010000
00000000
00000000
00100000
00000000
00000000
01000000
00000000
00000000
00010000
00000000
00000000
00001000
00010000
00001000
00010000
00000000
00000000
00001000
00000000
00000000
00000010
00000000
00000000
,
00000100
00000000
00002000
00000000
00003001
00000100
00000010
00000000
00001000
00000000
00000100
00000000
00000001
00000000
00001000
00000000
,
00000010
00000000
00000100
00000000
00010000
00000000
00001000
00000000
01000000
00000000
00010000
00100000
01000000
10000000
00100000
00000000
,
00010000
00000000
00000000
00000000
00001000
00000000
00000000
00000000
00020000
00030000
00002000
00003000
00000020
00000030
00000002
00000003
00000020
00000030
00002000
00003000
00010000
00000000
00000000
00000000
01000000
00000000
00000000
00000000
00100000
00000000
00000000
00000000
,
00010000
00000000
00000000
10000000
00000000
00000000
00100000
00000000
00000000
00010000
00000000
00000000
00001000
00010000
00001000
00010000
00000000
00000000
00001000
00000000
00000000
00000100
00000000
00000000
,
00000010
00000000
00001000
00000001
00000010
00000100
00000010
00000000
00001000
00000000
00020000
00000000
00030020
00000000
00001030
00000000
,
00100000
00000000
00000000
00000000
00000000
00000000
01000000
00000000
00000000
00000000
00000000
00000000
00010000
00000000
00000000
00100000
00000000
00000000
01000000
00000000
00000000
10000000
00000000
00000000
00100000
00000000
00000000
00000000
00000000
00000000
00010000
00000000
00000000
00000000
00000000
00000000
00001000
00000000
00000000
00000000
00000100
00000000
00000000
00000000
00000010
00000000
00000000
00000000
,
00010000
00000000
00000000
00000000
00100000
00000000
00000000
00000000
01000000
00000000
00000000
00000000
00002000
00000000
00000000
00000000
00000000
00000000
00010000
00000000
00000000
00000000
00000000
00000000
00100000
00000000
00000000
00000000
00000000
00000000
00013000
00000000
00000000
00001000
00000000
00000000
00010000
00000000
00000000
00001000
00000000
00000000
00000020
00000000
00000000
00000000
00000000
00000000
,
00000001
00000000
00001000
00000000
00000032
00000000
00000010
00000000
00000100
00000000
00001003
00000001
00001000
00000001
00000100
00001000
,
00020000
00000000
00001000
00000000
00000010
00000000
00031000
00010000
00001000
00010000
00200000
00000000
00010000
00000000
01300000
00000000
,
02200000
03300000
00000000
00000000
20020000
30030000
00000000
00000000
02200000
03300000
00000000
00000000
00022000
00033000
00022000
00033000
00022000
00033000
00000000
00000000
00002002
00003003
00000000
00000000
00000220
00000330
00000000
00000000
00002000
00000000
00000000
00000000
00003001
00000000
00000000
00000000
00000000
00000000
00000000
00000000
00000001
00000000
00000000
00000000
00000010
00000000
00000000
00000000
00000000
00000000
00000000
00000000
00000010
00000000
00000000
00000000
00000100
00000000
00000000
00000000
00000000
00000000
00000000
00000000
,
00010100
00000000
00000000
00000000
00010000
00001000
00010000
00000100
00010000
00001000
01000000
00010000
00100000
00000000
01000000
00000000
,
01100000
00000000
00000000
00000000
10000000
00000000
10000000
00100000
00000000
00100000
01000000
00000000
01001000
00000000
00000000
00000000
,
00001000
00000000
00010000
00000000
00001000
00000000
01000000
00000000
00001000
00000000
00010000
00000000
00000100
00000000
00001000
00000000
00000020
00000030
00000000
00000000
00000000
00000000
00001000
00000000
00000001
00000000
00000000
00000000
00000000
00000000
00000010
00000000
,
00000100
00010000
00011000
00010100
00011000
01001000
00001000
00001000
,
00010000
00000000
00010000
00000000
00100000
00000000
00100000
00000000
01000000
00000000
01000000
00000000
00010000
00000000
10000000
01000000
,
10000000
01000000
10000000
01000000
00100000
00000000
00001000
00100000
00001000
00100000
00001000
00100000
00001000
00010000
00000010
00001000
,
00000001
00000010
00000100
00001000
00000002
00000000
00000203
00000000
00002300
00000000
00023000
00000000
02030000
00000000
00000000
00000000
,
00000000
00000000
00000000
00000000
,
00000000
00000000
00000000
00000000
,
00000000
00000000
00000000
00000000
,
00000000
00000000
00000000
13000000
,
00000000
00000000
00000000
00000000
00000000
00000000
00000000
00000000
01100000
00000000
00000000
00000000
00000000
00000000
00000000
00000000
00000000
00000000
00000000
00000000
00000000
00000000
00000000
00000000
10010000
00000000
10000000
00100000
10000000
00000000
00100000
00000000
,
01100000
00000000
01000000
00010000
01000000
00000000
00010000
00000000
00100000
00000000
00001000
00100000
00001000
00000000
00010000
00000000
00011000
00000000
00001000
00000000
00000020
00000000
00000000
00000000
00000031
00000000
00000010
00000001
00000010
00000000
00000100
00000000
,
00001100
00000000
00000000
00000000
00000000
00000000
00001000
00000000
00000000
00000000
00000000
00000000
00000020
00000000
00000000
00000000
00000000
00000000
00020030
00000000
00000000
00000000
00000000
00000000
00030100
00000000
00000000
00000000
00000000
00000000
00000000
00000000
00000000
00000000
00000000
00000000
00200000
00000000
00000000
00000000
00000000
00000000
00302000
00000000
00000000
00000000
00000000
00000000
01003000
00000000
00000000
00000000
00000000
00000000
00000000
00000000
00000000
00000000
00000000
00000000
00100000
00000000
00000000
00000000
00000000
00000000
10000000
00000000
00010000
00000000
10000000
00000000
00010000
00000000
00000000
00000000
00000000
00000000
00100000
00000000
00000000
00000000
00000000
00000000
01000000
00000000
00000000
10000000
00000000
00000000
00100000
00000000
00000000
00000000
00000000
00000000
,
01100000
00000000
01000000
00010000
00100000
00000000
00001000
00000000
00020000
00000000
00031000
00000020
00000000
00001030
00000002
00000000
00001003
00000020
00000000
00001030
00020000
00000000
00030000
00000000
00001000
00000000
00010000
00000100
00001000
00000010
00000100
00000000
,
00000110
00000000
00000000
00000020
00000000
00000000
00000000
00000000
00000000
00001030
00000000
00000000
00000001
00000000
00000010
00000000
00000100
00000000
00000000
00000000
00000000
00000000
00000000
00000000
20000000
00000000
00000000
00000000
00000000
00000000
00000000
00000000
00000000
00000000
00000000
00000000
00000000
00000000
00000000
00000000
00000000
00000000
00000000
00000000
00000000
00000000
00000000
00000000
,
00000000
00000000
00000000
00000000
,
00000000
00000000
00000000
00000000
00000000
00000000
00000000
00000000
30020000
00000000
00130000
00000000
01000000
10000000
00200000
00000000
,
01300000
00000000
00010000
00100000
00010000
00000000
01000000
00000000
00001000
00000000
00010000
00000100
00000000
00000100
00000010
00000000
,
00000002
00000000
00000103
00000000
00000020
00000000
00000130
00000000
00002000
00000000
00013000
00001000
00010000
00000000
00000200
00000000
,
00000310
00000000
00000100
00010000
00000100
00000000
00010000
00000000
00001000
01000000
00001000
01000000
00100000
10000000
00010000
00000000
,
00100000
00000000
00000000
00000000
00000000
00000000
01000000
00000000
00000000
10000000
00000000
00000000
00000000
00000000
00000000
10000000
00000000
00000000
00010000
00000000
10000000
00000000
00010000
00000000
20000000
00000000
00000000
00000000
00000000
00000000
30100000
00000000
00000000
00000000
00000000
00000000
10000000
00000000
00000000
01000000
00000000
00000000
00200000
00000000
00000000
00000000
00000000
00000000
,
01300000
00000000
00100000
00001000
00100000
00000000
01000000
00000000
00010000
00000000
00001000
00000000
00100000
00010000
01000000
00000000
,
00200000
00000000
00310000
00000000
00002000
00000000
00013000
00000000
00000200
00000000
00000310
00000000
00000001
00000100
00000020
00000000
,
00001030
00000000
00000000
00000000
00000100
00000000
00000000
00000000
00000010
00000000
00000000
00000000
00000001
00000000
00000000
00000000
00000200
00000000
00000310
00010000
00001000
00000000
00200000
00000000
01300000
00010000
00001000
00000000
00000100
00000001
00000010
00001000
,
00010000
00000000
00001000
00000000
01000000
00100000
01000000
00000000
,
00010000
00000000
00100000
00010000
00100000
00000000
01000000
00000000
,
10000000
00000000
00010000
00000000
01000000
00001000
00010000
00000000
,
00000100
00000010
00000001
00001001
,
00001000
00000000
00000001
00000000
00000100
00000010
00000100
00000000
,
00000010
00010000
00001000
00100000
,
01000000
10000000
01000000
00100000
00001000
00000000
00010000
00000000
,
00000010
00000000
00001000
00000100
00000000
00000010
00000001
00001000
,
00000001
00000000
00000010
00000000
00001000
00010000
00001000
00000000
,
00010000
00000000
00100000
01000000
00100000
00000000
01000000
00000000
,
00010000
00000000
10000000
00000000
01000000
00100000
00001000
00000000
,
00010000
00000010
00000100
00000110
,
00000010
00000000
00001000
00000000
00000100
00000010
00000100
00000000
,
00010000
00100000
01000000
01100000
,
00100000
10000000
00010000
00100000
01000000
00000000
00010000
00000000
,
00000200
00000300
00000000
02000000
03000000
00000000
00000200
00000300
00010000
00000000
00000000
00000000
00001000
00000000
00010000
00000000
,
00001000
00000010
00000100
00000000
00001000
00000000
00000001
00000100
,
00000010
00000000
00001000
00000000
00000100
00000010
00000100
00010000
,
00001000
01000000
00100000
00000000
10000000
00000000
01000000
00000000
,
00100000
00001000
00010000
00000000
00001000
00000000
00010000
00001000
,
00010000
00100000
01000000
00000000
00010000
00000000
10000000
01000000
,
00100000
00000000
00010000
00000000
01000000
00100000
01000000
00001000
,
00010000
00000100
00000010
00000000
00000001
00000100
00000010
00010000
,
00001000
00000000
00011000
00000000
00010000
00100000
01000000
00100000
,
00010000
00100000
01000000
00100000
00010000
00001000
00010000
00100000
,
00010000
00001000
00010000
00000000
00001000
00000010
00000100
00000010
,
00001000
00000010
00000100
00000010
00001000
00010000
00001000
00000010
,
00001000
00010000
00001000
00000000
00010000
01000000
00100000
01000000
,
00010000
01000000
00100000
00000000
00001000
00000100
00000010
00000100
,
00001000
00000100
00000010
00000000
00020000
00000000
01030000
00200000
,
00000000
00301000
00020000
00000000
00032000
00000000
00003100
00000020
,
00000000
00010030
00002000
01003000
00200000
00000000
00000000
00000000
,
00000000
00000000
00000000
00000000
,
00000000
00000000
00000000
00000000
,
00000000
00000000
00000000
00000000
00000000
00000000
10300000
00000000
01000000
00000000
00010000
00000000
,
00001000
00000000
00000010
00000000
00000001
00000000
00000200
00000000
00000000
00000000
00000000
00000000
,
00000000
00000000
00000300
00000000
;
