#TITLE:snowy night;
#SUBTITLE:;
#ARTIST:Billlie;
#TITLETRANSLIT:;
#SUBTITLETRANSLIT:;
#ARTISTTRANSLIT:;
#CREDIT:;
#BANNER:snowy night.png;
#BACKGROUND:snowy night-bg.png;
#LYRICSPATH:;
#CDTITLE:;
#MUSIC:snowy night.mp3;
#OFFSET:-0.520;
#SAMPLESTART:48.380;
#SAMPLELENGTH:15.000;
#SELECTABLE:YES;
#BPMS:0.000=100.000;
#STOPS:;
#BGCHANGES:;

//---------------dance-single - ----------------
#NOTES:
     dance-single:
     :
     Easy:
     4:
     0.165,0.201,0.041,0.082,0.000:
0000
0000
0000
0000
,
0000
0000
0000
0000
,
0000
0000
0000
0000
,
0000
0000
0000
0000
,
0010
0100
0010
0100
,
0002
0003
0000
0000
,
1000
0010
0100
0001
,
2000
3000
0000
0000
,
0010
0100
0000
0100
,
0010
0001
0000
1000
,
0001
0100
0000
0010
,
0010
1000
0000
0000
,
0100
1001
0010
0000
,
0000
1000
0000
0001
,
0100
0110
1000
0000
,
0000
0010
0000
0100
,
0000
0010
0100
0001
,
0000
1000
0010
0001
,
0000
0100
0010
1000
,
0000
1000
0001
1000
,
0010
1000
0010
0100
,
0001
1000
0010
1000
,
0001
0100
0010
0001
,
1000
0010
0001
0010
,
1001
0020
0230
0310
,
0000
0010
0100
0010
,
0000
2000
3002
1003
,
0000
0001
0100
1000
,
0000
0001
0010
0001
,
0000
1000
0010
0001
,
0000
0100
0010
1000
,
0000
0010
0001
1000
,
0000
0010
0000
1000
,
0000
0010
0000
0100
,
0000
0001
0000
1000
,
0000
0010
0000
1000
,
1001
0001
0000
0100
,
0000
0010
0000
1000
,
0000
0010
0000
1000
,
0000
0100
0000
2000
,
0000
0000
3000
0000
,
1001
0200
0320
0130
,
0000
0100
0010
0100
,
0000
0002
2003
3001
,
0000
1000
0010
0001
,
0000
1000
0100
1000
,
0000
0001
0100
1000
,
0000
0010
0100
0001
,
0000
0100
1000
0001
,
0000
0100
0000
0001
,
0000
0010
0000
0001
,
0000
1000
0000
0010
,
0000
1000
0000
0010
,
0000
0100
0010
0100
,
0000
0010
1000
0001
,
0000
1000
0100
0010
,
0000
0010
0100
1000
,
1001
0000
0010
0100
,
0020
0000
0030
0000
;

//---------------dance-single - ----------------
#NOTES:
     dance-single:
     :
     Beginner:
     2:
     0.121,0.120,0.034,0.069,0.000:
0000
0000
0000
0000
,
0000
0000
0000
0000
,
0000
0000
0000
0000
,
0000
0000
0000
0000
,
0000
0100
0000
0100
,
0000
0010
0000
0010
,
0000
1000
0000
0001
,
0000
0100
0000
0001
,
0000
1000
0000
0010
,
0000
1000
0000
0001
,
0000
0100
0000
0001
,
0000
1000
0000
1000
,
0000
0110
0000
0010
,
0000
0100
0000
0010
,
0000
1001
0000
0001
,
0000
1000
0000
0010
,
0000
1000
0000
0001
,
0000
0100
0000
0010
,
0000
1000
0000
0001
,
0000
0110
0000
0100
,
0000
0010
0010
0010
,
0000
1000
1000
1000
,
0000
0001
0001
0001
,
0000
1000
1000
1000
,
0000
0110
0000
0100
,
0000
0001
0000
0001
,
0000
1000
0000
0001
,
0000
0100
0000
0010
,
0000
1000
0000
0010
,
0000
1000
0000
0001
,
0000
0100
0000
0001
,
0000
0010
0000
0001
,
0002
0000
0003
0000
,
0020
0000
0030
0000
,
0002
0000
0003
0000
,
2000
0000
3000
0000
,
0200
0000
0300
0000
,
2000
0000
3000
0000
,
0020
0000
0030
0000
,
0200
0000
0300
0000
,
0020
0000
0030
0000
,
0000
0110
0000
0010
,
0000
1000
0000
1000
,
0000
0001
0000
1000
,
0000
0010
0000
0100
,
0000
0001
0000
0100
,
0000
0001
0000
1000
,
0000
0010
0000
1000
,
0000
0100
0000
1000
,
0000
1000
1000
1000
,
0000
0001
0001
0001
,
0000
0100
0100
0100
,
0000
0010
0010
0010
,
0000
1000
0000
0010
,
0000
1000
0000
0001
,
0000
0100
0000
0001
,
0000
1000
0000
0010
,
0000
1000
0000
0010
,
0020
0000
0030
0000
;

//---------------dance-single - ----------------
#NOTES:
     dance-single:
     :
     Medium:
     6:
     0.268,0.261,0.034,0.165,0.003:
0000
0000
0000
0000
,
0000
0000
0000
0000
,
0000
0000
0000
0000
,
0000
0000
0000
0000
,
0001
0000
1000
0000
1000
0010
0100
0000
,
0001
0000
0010
0000
1000
0001
1000
0000
,
0010
0000
0100
0000
0010
0100
0001
0000
,
1000
0000
0001
0000
0001
0010
0100
0000
,
0010
0000
1000
0000
0010
1000
0001
0000
,
0100
0000
0010
0000
0100
0010
1000
0000
,
1000
0000
0010
0000
0100
0001
0100
0000
,
0001
0000
1000
0000
0010
1000
0001
0000
,
1000
0000
1001
0000
0001
0100
0010
0000
,
1000
0000
0100
0000
0001
1000
0001
0000
,
0100
0000
0110
0000
0100
0010
1000
0000
,
0001
0000
1000
0000
1000
0100
0010
0000
,
0100
0000
0001
0000
0100
0001
1000
0000
,
0010
0000
0100
0000
0010
0100
0001
0000
,
0001
0000
0100
0000
0010
1000
0010
0000
,
1000
0000
0001
0000
0100
0001
1000
0000
,
0010
0010
1000
1000
,
0001
0010
0100
0000
0001
0000
0100
0000
,
0010
1000
0001
0100
,
1000
0010
1000
0000
0010
0000
1001
0000
,
0001
0020
0230
1300
,
0010
1000
0010
0000
0100
0000
0010
0100
,
0010
0200
0320
0130
,
0001
1000
0001
0000
0100
0000
0100
0010
,
0100
0000
0010
0000
1000
0000
0001
0100
,
0001
0000
1000
0010
1000
0000
0001
0000
,
0100
2000
3020
1030
,
0010
0100
0010
0000
0100
0000
0001
0000
,
0002
0013
0000
1000
,
2000
3100
0000
0100
,
0020
0130
0000
0001
,
0020
0031
0000
1000
,
0200
0301
0000
0010
,
0020
1030
0000
1000
,
0002
1003
0000
0100
,
0002
0103
0000
0020
,
0000
0000
0130
0010
,
1000
0200
0320
0031
,
0100
0001
0100
0000
0010
0000
0100
0010
,
0100
0020
0230
0310
,
1000
0001
1000
0000
0010
0000
0010
0100
,
0010
0000
0100
0000
0001
0000
1000
0010
,
1000
0000
0001
0100
0001
0000
1000
0000
,
0010
0002
0203
0301
,
0100
0010
0100
0000
0010
0000
1000
0000
,
0101
0000
0000
0100
0001
0100
0000
0010
,
1000
0010
0000
0000
0100
0000
0001
0000
,
1000
0000
0000
0010
0100
0010
0000
0100
,
0010
0100
0000
0000
0001
0000
1000
0000
,
1000
0001
0100
0010
0000
0010
0100
0010
,
0000
1000
0001
1000
0000
0001
1000
0001
,
0000
0020
0230
0310
,
1000
0001
0100
0001
,
1001
0000
0000
0000
0000
0000
0000
0000
0100
0000
0000
0100
0000
0000
0200
0000
,
0000
0000
0300
0000
;

//---------------dance-single - ----------------
#NOTES:
     dance-single:
     :
     Hard:
     14:
     0.393,0.482,0.034,0.281,0.302: // measure 1
0000
0000
0000
0000
,  // measure 2
0000
0000
0000
0000
,  // measure 3
0000
0000
0000
0000
,  // measure 4
0000
0000
0000
0000
0000
0000
0000
0100
,  // measure 5
0010
0000
0100
0010
1000
0000
0010
1000
0001
0000
0100
0001
0000
0010
0000
0001
,  // measure 6
0000
0100
0010
0000
0000
0010
0010
1000
,  // measure 7
0001
0000
0010
0100
0001
0000
0001
0010
0100
0000
1000
0010
0000
1000
0000
0010
,  // measure 8
0000
0000
0001
0100
0000
0010
0100
0010
,  // measure 9
1000
0000
0010
1000
0000
0000
0010
0000
0100
0001
0000
0000
1000
0000
0001
1000
,  // measure 10
0001
0000
0100
0010
0000
0000
0010
0000
0100
0001
0000
0000
1000
0000
2000
0000
,  // measure 11
0000
3010
0000
1000
,  // measure 12
0000
0000
0001
1000
0100
0010
0001
0100
,  // measure 13
0000
0000
0000
0000
0101
0000
0000
0000
0010
0000
0000
0000
0100
0000
0000
0001
,  // measure 14
0000
0000
0000
0000
1000
0000
0010
0000
1000
0000
0010
1000
0000
0001
0000
0000
,  // measure 15
0100
0000
0000
0000
1010
0000
0000
0000
1000
0000
0000
0000
0010
0000
0000
0100
,  // measure 16
0000
0000
0001
0000
0000
0000
0001
0100
0000
0010
0000
0100
0000
1000
0000
0100
,  // measure 17
0000
0000
0000
0000
0010
0000
1000
0000
0010
1000
0000
0100
0000
0010
0000
0001
,  // measure 18
0000
0000
0100
0000
0010
0000
1000
0000
0000
0000
0010
0000
0100
0000
0010
0100
,  // measure 19
0000
0000
0000
0000
0010
0000
0100
0010
0000
0100
0000
0001
0000
0000
0001
1000
,  // measure 20
0000
0000
0010
0000
1000
0000
0100
1000
0000
1000
0000
0010
0000
0100
0000
0010
,  // measure 21
0000
0000
0010
0000
0001
0000
0010
0000
0001
0000
0000
0100
0000
0000
0010
0000
,  // measure 22
0000
0000
0010
0000
1000
0000
0000
0000
1000
0000
0000
0000
1000
0010
0000
1000
,  // measure 23
0000
0000
1000
0000
0100
0000
0010
0000
0001
0000
0000
0100
0000
0000
0001
0000
,  // measure 24
0000
0001
0100
0010
0100
0010
1000
0000
,  // measure 25
1001
0000
0000
0000
0001
0000
0000
0000
0100
0000
0000
0000
0010
0000
0100
0010
,  // measure 26
0000
0010
0100
0000
0000
0000
0001
0000
0100
0001
0000
0001
0000
0010
0000
0100
,  // measure 27
0000
0000
0000
0000
1000
0000
0000
0000
0010
0000
0100
0000
0010
0000
1000
0001
,  // measure 28
0000
0001
1000
0000
0000
0000
0010
1000
0010
0000
0100
0010
0100
0000
0010
0000
,  // measure 29
2000
3200
0320
0032
0003
0200
0320
2030
,  // measure 30
3000
0000
0002
0000
0203
0000
0302
0000
0003
0000
0000
0000
0001
0100
0010
0000
,  // measure 31
1000
0000
0000
0000
0010
0000
0000
0000
0100
0000
0000
0000
0001
0000
0100
0001
,  // measure 32
0000
0001
0100
0000
0010
0000
0000
0000
0000
0000
0000
0000
1000
0000
0000
0000
,  // measure 33
2000
0000
0000
3010
1000
0100
0010
1000
,  // measure 34
0001
0000
0000
0001
1000
0010
0100
0010
,  // measure 35
0100
0000
0000
1000
0010
0001
0010
1000
,  // measure 36
0010
0000
1000
0010
1000
0001
0100
0001
,  // measure 37
1000
0000
0000
0001
0010
0100
1000
0010
,  // measure 38
2000
0000
0000
0000
3002
0000
0000
0000
2003
0000
0000
0000
3001
0000
1000
0001
,  // measure 39
1000
0010
0100
0001
0020
0000
0031
0000
,  // measure 40
2000
0000
3010
1000
1000
0000
0020
0000
,  // measure 41
0000
0000
0030
0100
0020
0000
0130
0000
,  // measure 42
1001
0000
0000
0000
1000
0000
0000
0000
0010
0000
0000
0000
0100
0000
0010
0100
,  // measure 43
0000
0100
0010
0000
0000
0000
1000
0000
0010
1000
0000
1000
0000
0100
0000
0010
,  // measure 44
0000
0000
0000
0000
0001
0000
0000
0000
0100
0000
0010
0000
0100
0000
0001
1000
,  // measure 45
0000
1000
0001
0000
0000
0000
0100
0001
0100
0000
0010
0100
0010
0000
0100
0000
,  // measure 46
0002
0023
0230
2300
3000
0020
0230
0302
,  // measure 47
0003
0000
2000
0000
3020
0000
2030
0000
3000
0000
0000
0000
1000
0010
0100
0000
,  // measure 48
0001
0000
0000
0000
0100
0000
0000
0000
0010
0000
0000
0000
1000
0000
0010
1000
,  // measure 49
0000
1000
0010
0000
0100
0000
0000
0000
0000
0000
0000
0000
0001
0000
0000
0000
,  // measure 50
1002
0000
0000
0000
0003
0000
0100
0001
0100
0000
0010
1000
0000
0000
0010
0000
,  // measure 51
1000
0001
0000
0000
0100
0000
0001
0010
0100
0000
1000
0010
0000
1000
0000
0001
,  // measure 52
0000
0000
0000
0000
1000
0000
0000
0000
0010
0000
0100
0000
0010
0000
0100
0010
,  // measure 53
0000
0010
0100
0000
0000
0000
1000
0010
1000
0000
0010
0100
0001
0000
0100
0000
,  // measure 54
0002
0203
0302
0203
0300
0020
2030
3002
,  // measure 55
0003
0000
0200
0000
0320
0000
0230
0000
0300
0000
0010
0000
0100
0010
0100
0000
,  // measure 56
0001
0000
0000
0000
0001
0000
0000
0000
1000
0000
0000
0000
0010
0000
1000
0010
,  // measure 57
0000
0100
0001
0000
0000
0000
0001
0000
0100
0001
0000
0001
0010
0100
1000
0000
,  // measure 58
0010
0000
0000
0000
0000
0000
1000
0010
1000
0000
0000
0010
0000
0000
0200
0000
,  // measure 59
0000
0000
0300
0000
;
