#TITLE:new;
#SUBTITLE:;
#ARTIST:LOONA;
#TITLETRANSLIT:;
#SUBTITLETRANSLIT:;
#ARTISTTRANSLIT:;
#CREDIT:;
#BANNER:new.png;
#BACKGROUND:new-bg.png;
#LYRICSPATH:;
#CDTITLE:;
#MUSIC:new.mp3;
#OFFSET:-0.100;
#SAMPLESTART:43.720;
#SAMPLELENGTH:15.000;
#SELECTABLE:YES;
#BPMS:0.000=108.000;
#STOPS:;
#BGCHANGES:-0.400=new.avi=1.000=0=0=0,
99999=-nosongbg-=1.000=0=0=0 // don't automatically add -songbackground-
;

//---------------dance-single - ----------------
#NOTES:
     dance-single:
     :
     Easy:
     4:
     0.204,0.266,0.099,0.145,0.008:
0000
0000
0000
0000
,
0000
0000
0000
0000
,
0000
0000
0000
0000
,
0000
0000
0000
0000
,
1000
0100
0000
0010
,
0100
0010
0000
1000
,
0001
0010
0000
0100
,
0010
1000
0000
0001
,
1000
0001
0000
0100
,
0010
0001
0000
0010
,
0001
0100
0000
0010
,
1000
0001
0000
1000
,
1010
0101
0110
0010
,
0000
1000
0000
0001
,
0101
0110
1010
1000
,
0000
0010
0000
0100
,
0110
1001
0110
0010
,
0000
1000
0000
0001
,
0000
0100
0000
0001
,
0000
0000
0010
0000
0000
0010
0000
0000
0010
0000
0000
0100
0000
0000
0100
0000
,
0100
0010
1000
0001
,
0100
0010
1000
0001
,
2000
0001
0000
3001
,
0020
0100
0000
0130
,
0010
0001
0100
1000
,
0010
0001
1000
0100
,
0020
1000
0000
1030
,
0200
0001
0000
0301
,
1001
0010
0000
0100
,
0010
1000
0000
0001
,
0010
0001
0000
1000
,
0020
2030
3002
0203
,
0301
0001
0000
0100
,
0000
0010
0000
0001
,
0000
0100
0000
0001
,
0000
1000
0000
0010
,
0020
0000
0000
0000
,
0030
0000
0000
0000
,
2000
0000
3000
0000
,
0020
0000
0030
0000
,
2002
0000
0000
3003
,
0010
0100
0001
1000
,
0010
0100
0001
1000
,
0002
1000
0000
1003
,
0200
0010
0000
0310
,
0100
1000
0010
0001
,
0100
1000
0001
0010
,
0200
0001
0000
0301
,
0020
1000
0000
1030
,
1001
0001
0000
0100
,
0010
1000
0000
0001
,
0010
1000
0000
0100
,
1000
0010
0000
0100
,
0010
0010
0000
1000
,
0100
0010
0000
0010
,
0100
0001
0000
0010
,
1000
0000
0010
0000
0000
0000
0000
0220
,
0000
0000
0000
0000
,
0330
0000
0000
0000
;

//---------------dance-single - ----------------
#NOTES:
     dance-single:
     :
     Beginner:
     2:
     0.142,0.200,0.076,0.069,0.000:
0000
0000
0000
0000
,
0000
0000
0000
0000
,
0000
0000
0000
0000
,
0000
0000
0000
0000
,
0000
0100
0000
0010
,
0000
0010
0000
0100
,
0000
0001
0000
0100
,
0000
0001
0000
1000
,
0000
0010
0000
0100
,
0000
0010
0000
1000
,
0000
0001
0000
0100
,
0000
0001
0000
0000
,
1001
0110
1001
0000
,
0000
0010
0000
0000
,
1010
0101
1010
0000
,
0000
0100
0000
0000
,
0011
1100
0011
0000
,
0000
1000
0000
0010
,
0000
1000
0000
0010
,
0020
0000
0000
0030
,
0000
0010
0010
0010
,
0000
0001
0001
0001
,
0000
1000
0000
0010
,
0000
0100
0000
1000
,
0000
1000
1000
1000
,
0000
0100
0100
0100
,
0000
0010
0000
1000
,
0000
0010
0000
0100
,
0000
0001
0000
0100
,
0000
0010
0000
0100
,
0000
0010
0000
1000
,
2000
3000
2000
3000
,
1000
0000
0000
0010
,
0000
0100
0000
0001
,
0000
0010
0000
0001
,
0000
1000
0000
0010
,
0020
0000
0000
0000
,
0030
0000
0000
0000
,
0200
0000
0300
0000
,
0002
0000
0003
0000
,
2002
0000
0000
3003
,
0000
0100
0100
0100
,
0000
1000
1000
1000
,
0000
0001
0000
0100
,
0000
0010
0000
0001
,
0000
0001
0001
0001
,
0000
0010
0010
0010
,
0000
0100
0000
0001
,
0000
0100
0000
0010
,
0000
1000
0001
1000
,
0000
0001
1000
0001
,
0000
0100
0010
0100
,
0000
0010
0100
0010
,
0000
0100
0000
0010
,
0000
1000
0000
0001
,
0000
0100
0000
0001
,
0000
0000
1000
0000
0000
0000
0000
2000
,
0000
0000
0000
0000
,
3000
0000
0000
0000
;

//---------------dance-single - ----------------
#NOTES:
     dance-single:
     :
     Medium:
     7:
     0.266,0.266,0.046,0.061,0.161:
0000
0000
0000
0000
,
0000
0000
0000
0000
,
0000
0000
0000
0000
,
0000
0000
0000
0000
,
0000
0000
0100
0000
0000
0010
0000
0000
0100
0000
0000
0010
0000
0000
1000
0000
,
0000
0000
0100
0000
0000
1000
0000
0000
0001
0000
0000
0010
0000
0000
0001
0000
,
0000
0000
0001
0000
0000
0010
0000
0000
0100
0000
0000
1000
0000
0000
1000
0000
,
0000
0000
0010
0000
0000
0100
0000
0000
0010
0000
0000
1000
0000
0000
0001
0000
,
0000
0000
0010
0000
0000
0100
0000
0000
0010
0000
0000
0100
0000
0000
0001
0000
,
0000
0000
0010
0000
0000
0001
0000
0000
1000
0000
0000
0100
0000
0000
1000
0000
,
0000
0000
1000
0000
0000
0100
0000
0000
0010
0000
0000
0001
0000
0000
0001
0000
,
0000
0000
0100
0000
0000
0010
0000
0000
0100
0000
0000
0001
0000
0000
1000
0000
,
0001
0000
0100
0000
1001
0000
0010
0100
,
0000
0000
0010
0000
0000
1000
0000
0000
0001
0000
0000
0100
0000
0000
0001
0000
,
0010
0000
0100
0000
1001
0000
1000
0010
,
0000
0000
0100
0000
0000
0010
0000
0000
1000
0000
0000
0001
0000
0000
0100
0000
,
1000
0000
0010
0000
1001
0000
0100
0010
,
0000
0000
0100
0000
0000
0001
0000
0000
1000
0000
0000
0010
0000
0000
1000
0000
,
0100
0000
0001
0000
0000
0100
0000
0000
1000
0000
0000
0100
0000
0000
0001
0000
,
0000
0000
0001
0000
0000
0001
0000
0000
0001
0000
0000
1000
0000
0000
1000
0000
,
0010
0000
1000
0000
0000
0010
0000
0000
0100
0000
0000
0000
0010
0000
0000
0000
,
0100
0000
0001
0000
0000
0100
0000
0000
0001
0000
0000
0000
0100
0000
0000
0000
,
0010
0000
0100
0000
0000
0010
0000
0000
1000
0000
0000
0000
0010
0000
0000
0000
,
1000
0000
0010
0000
0000
0100
0000
0000
0001
0000
0000
0000
0100
0000
0000
0000
,
1000
0000
0100
0000
0000
1000
0000
0000
0001
0000
0000
0000
1000
0000
0000
0000
,
0001
0000
0010
0000
0000
0001
0000
0000
0010
0000
0000
0000
0001
0000
0000
0000
,
1000
0000
0001
0000
0000
1000
0000
0000
0100
0000
0000
0000
1000
0000
0000
0000
,
0100
0000
1000
0000
0000
0001
0000
0000
0010
0000
0000
0000
0001
0000
0000
0000
,
0010
0001
0010
0001
,
1000
0010
1000
0010
,
0100
0001
0100
0010
,
1000
0010
0100
0001
,
1000
0010
1000
0001
,
0100
0001
1000
0010
,
0100
0010
1000
0010
,
0100
0001
0100
0010
,
2002
0000
0000
0000
,
3003
0000
0000
0000
,
0020
0000
0030
0000
,
0200
0000
0300
0000
,
0220
0000
0000
0330
,
0100
0000
0001
0000
0000
0100
0000
0000
0010
0000
0000
0000
0100
0000
0000
0000
,
0010
0000
1000
0000
0000
0010
0000
0000
1000
0000
0000
0000
0010
0000
0000
0000
,
0100
0000
0010
0000
0000
0100
0000
0000
0001
0000
0000
0000
0100
0000
0000
0000
,
0001
0000
0100
0000
0000
0010
0000
0000
1000
0000
0000
0000
0010
0000
0000
0000
,
0001
0000
0010
0000
0000
0001
0000
0000
1000
0000
0000
0000
0001
0000
0000
0000
,
1000
0000
0100
0000
0000
1000
0000
0000
0100
0000
0000
0000
1000
0000
0000
0000
,
0001
0000
1000
0000
0000
0001
0000
0000
0010
0000
0000
0000
0001
0000
0000
0000
,
0010
0000
0001
0000
0000
1000
0000
0000
0100
0000
0000
0000
1000
0000
0000
0000
,
0100
1000
0010
0100
,
0001
0100
0001
1000
,
0010
0001
0010
1000
,
0010
1000
0010
1000
,
0001
0100
0010
0100
,
0001
0010
0001
0010
,
1000
0001
0100
0001
,
0010
0000
0100
0000
1000
0000
0010
2002
,
0000
0000
0000
0000
,
3003
0000
0000
0000
;

//---------------dance-single - ----------------
#NOTES:
     dance-single:
     :
     Hard:
     12:
     0.381,0.421,0.046,0.168,0.248: // measure 1
0000
0000
0000
0000
,  // measure 2
0000
0000
0000
0000
,  // measure 3
0000
0000
0000
0000
,  // measure 4
0000
0000
0000
0000
,  // measure 5
0010
0000
0100
0010
0000
0000
0000
0000
0000
0000
1000
0010
0100
0000
0010
0000
,  // measure 6
1000
0000
0001
0100
0000
0000
0000
0000
0000
0000
0001
0000
0100
0000
0001
0100
,  // measure 7
0001
0000
0100
0001
0000
0000
0000
0000
0000
0000
0010
0000
0100
0000
1000
0000
,  // measure 8
0000
0000
1000
0000
0000
0010
0000
0000
0001
0000
0000
0100
0000
0000
0001
0000
,  // measure 9
0100
0000
0010
0100
0000
0000
0000
0000
0000
0000
0010
0100
0010
0000
0100
0000
,  // measure 10
0010
0000
1000
0001
0000
0000
0000
0000
0000
0000
1000
0000
0010
0000
0100
0010
,  // measure 11
1000
0000
1000
0001
0000
0000
0000
0000
0000
0000
0100
0000
0010
0000
2000
0000
,  // measure 12
0000
0000
3001
0000
0000
0100
0000
0000
0001
0000
0010
0000
0100
0000
1000
0000
,  // measure 13
0010
0000
0000
0000
1010
0000
0000
0000
1001
0000
0000
0000
0010
0000
0100
0010
,  // measure 14
0000
0000
0100
0000
0000
0010
0000
0000
1000
0000
0010
0000
0100
0000
0001
0000
,  // measure 15
0010
0000
0000
0000
0011
0000
0000
0000
1001
0000
0000
0000
1000
0000
0000
0010
,  // measure 16
0000
0000
1000
0000
0000
1000
0000
0000
1000
0000
0100
0000
0010
0000
0001
0000
,  // measure 17
0100
0000
0000
0000
0010
0000
0000
0000
0110
0000
0000
0000
0010
0000
0100
0010
,  // measure 18
0000
0000
1000
0000
0000
0001
0000
0000
0001
0000
0100
0000
0010
0000
0200
0000
,  // measure 19
0000
0000
0000
0310
0000
0000
0000
0020
,  // measure 20
0000
0000
0000
1030
0000
0100
1000
0100
,  // measure 21
1000
0000
0010
0000
0000
1000
0000
0000
0001
0000
0010
0000
0001
0000
0100
0000
,  // measure 22
0001
0000
0010
0000
0000
0001
0000
0000
0010
0000
0100
0000
1000
0000
0010
0000
,  // measure 23
1000
0000
0010
0000
0000
0010
0000
0000
0010
0000
0100
0000
0001
0000
1000
0000
,  // measure 24
0010
0000
0100
0000
0000
0010
0000
0000
0001
0000
1000
0000
0001
0000
1000
0000
,  // measure 25
0100
0000
1000
0000
0000
0100
0000
0000
0010
0000
1000
0000
0010
0000
0001
0000
,  // measure 26
0010
0000
1000
0000
0000
0010
0000
0000
1000
0000
0001
0000
0100
0000
1000
0000
,  // measure 27
0100
0000
1000
0000
0000
1000
0000
0000
1000
0000
0001
0000
0010
0000
0100
0000
,  // measure 28
1000
0000
0001
0000
0000
1000
0000
0000
0010
0000
0100
0000
0010
0000
0100
0000
,  // measure 29
1000
0000
0010
0000
1000
0000
1000
0100
,  // measure 30
0010
0001
0100
0000
0000
0001
0100
0010
,  // measure 31
0100
0000
0001
0000
1000
0010
0001
0010
,  // measure 32
0020
0001
0032
0010
0023
0100
0230
1000
,  // measure 33
1300
0000
1000
0000
0010
1000
0010
1000
,  // measure 34
0001
0100
0001
0000
0100
0010
0100
0010
,  // measure 35
1000
0000
0010
1000
0000
0000
1000
0000
0010
0000
0000
0000
0100
0000
0001
0000
,  // measure 36
0000
0001
1000
0010
,  // measure 37
1000
0000
0010
0100
0000
0000
0000
0000
0000
0000
0100
0000
1000
0000
0010
0000
,  // measure 38
0100
0000
0001
0010
0000
0000
0000
0000
0000
0000
0010
0000
0100
0000
2000
0000
,  // measure 39
0000
0000
0000
3001
0000
0000
0000
2000
,  // measure 40
0000
3200
0000
0320
0000
0032
0000
2003
,  // measure 41
0000
0000
0010
0000
0000
0010
0000
0000
0010
0000
0000
0010
0000
0000
0010
0000
,  // measure 42
3010
0000
0100
0000
0000
0001
0000
0000
1000
0000
0100
0000
1000
0000
0010
0000
,  // measure 43
1000
0000
0100
0000
0000
1000
0000
0000
0100
0000
0010
0000
0001
0000
0100
0000
,  // measure 44
0001
0000
0100
0000
0000
0100
0000
0000
0100
0000
0010
0000
1000
0000
0001
0000
,  // measure 45
0100
0000
0010
0000
0000
0100
0000
0000
1000
0000
0001
0000
1000
0000
0001
0000
,  // measure 46
0010
0000
0001
0000
0000
0010
0000
0000
0100
0000
0001
0000
0100
0000
1000
0000
,  // measure 47
0100
0000
0001
0000
0000
0100
0000
0000
0001
0000
1000
0000
0010
0000
0001
0000
,  // measure 48
0010
0001
0020
0000
0032
0000
0203
0000
,  // measure 49
0320
2030
3010
0100
,  // measure 50
0100
0000
1000
0100
0000
0010
0000
0001
0000
0000
0000
0000
0001
0100
0001
0100
,  // measure 51
0000
0010
0000
1000
0000
0001
0000
0100
0000
0000
0000
0000
1000
0010
1000
0010
,  // measure 52
0000
0100
0000
0001
0000
1000
0000
0010
0000
0000
0000
0000
0100
0010
0100
0010
,  // measure 53
0000
0100
0000
0001
0000
1000
0000
0010
0000
0000
0000
0000
1000
0000
0000
0000
,  // measure 54
0001
0000
0000
0000
0100
0000
0000
0000
0001
0000
0000
0000
0010
0001
0010
0001
,  // measure 55
0000
0100
0000
0010
0000
1000
0000
0020
0000
0000
0000
0000
1000
0000
2030
0000
,  // measure 56
0000
3010
1000
0001
,  // measure 57
0100
0000
0001
0000
1000
0000
0010
2002
,  // measure 58
0000
0000
0000
0000
,  // measure 59
3003
0000
0000
0000
;
