#TITLE:love4eva (feat. Grimes);
#SUBTITLE:;
#ARTIST:LOONA / yyxy;
#TITLETRANSLIT:;
#SUBTITLETRANSLIT:;
#ARTISTTRANSLIT:;
#CREDIT:;
#BANNER:love4eva (feat. Grimes).png;
#BACKGROUND:love4eva (feat. Grimes)-bg.png;
#LYRICSPATH:;
#CDTITLE:;
#MUSIC:love4eva (feat. Grimes).mp3;
#OFFSET:-0.020;
#SAMPLESTART:18.160;
#SAMPLELENGTH:15.000;
#SELECTABLE:YES;
#BPMS:0.000=102.000,32.000=204.000,96.000=102.000,160.000=204.000,256.000=102.000,288.000=204.000;
#STOPS:;
#BGCHANGES:-0.220=love4eva (feat. Grimes).avi=1.000=0=0=0,
99999=-nosongbg-=1.000=0=0=0 // don't automatically add -songbackground-
;

//---------------dance-single - ----------------
#NOTES:
     dance-single:
     :
     Beginner:
     3:
     0.193,0.242,0.034,0.027,0.000:
0000
0000
0000
0000
,
0000
0000
0000
0000
,
0000
0000
0000
0000
,
0000
0000
0000
0000
,
0010
0000
0010
0000
,
1000
0000
0001
0000
,
0010
0000
1000
0000
,
0001
0000
0110
0000
,
0000
1000
0000
0010
,
0000
1000
0000
0010
,
0000
0100
0000
0001
,
0000
0100
0000
0001
,
0000
0010
0000
0100
,
0000
0010
0000
0001
,
0000
1000
0000
0001
,
0000
1000
0000
0010
,
0000
1000
0000
0001
,
0000
1000
0000
0010
,
0000
1000
0000
0001
,
0000
0100
0000
0001
,
0000
1000
0000
0010
,
0000
1000
0000
1000
,
0000
0010
0000
1000
,
0000
0010
0000
1000
,
0000
1000
1000
1000
,
0000
0001
0001
0001
,
0000
0010
0010
0010
,
0000
0001
0001
0001
,
0000
0100
0100
0100
,
0000
1000
1000
1000
,
0000
0001
0001
0001
,
0000
0100
0100
0100
,
0000
0010
0000
1000
,
0000
0010
0000
0100
,
0000
0001
0000
1000
,
0000
0010
0000
0100
,
0000
0010
0010
0010
,
0000
0001
0001
0001
,
0000
1000
1000
1000
,
2000
3000
0020
0030
,
0000
0100
0000
1000
,
0000
0100
0000
1000
,
0000
0001
0000
0010
,
0000
0001
0000
0010
,
0000
1000
0000
0001
,
0000
1000
0000
0010
,
0000
0100
0000
0010
,
0000
0100
0000
1000
,
0000
0100
0000
0010
,
0000
0100
0000
1000
,
0000
0100
0000
0010
,
0000
0001
0000
0010
,
0000
0100
0000
1000
,
0000
0100
0000
0100
,
0000
1000
0000
0100
,
0000
1000
0000
0100
,
0000
0001
0001
0001
,
0000
0100
0000
0001
,
0000
0100
0100
0100
,
0000
1000
0000
1000
,
0000
0010
0010
0010
,
0000
0001
0000
1000
,
0000
1000
1000
1000
,
0000
0010
0000
1000
,
0000
0001
0000
0100
,
0000
0001
0000
1000
,
0000
0010
0000
1000
,
0000
0110
1001
0110
,
0000
0100
0100
0100
,
0000
0010
0010
0010
,
0000
0001
0001
0001
,
0000
0010
0010
0010
,
0000
0001
0000
0100
,
0000
0001
0000
0100
,
0000
0010
0000
1000
,
0000
0010
0000
1000
,
0000
0100
0000
0010
,
0000
0100
0000
1000
,
0000
0001
0000
1000
,
0000
0001
0000
0100
,
0000
0001
0000
1000
,
0000
0001
0000
0100
,
0000
0001
0000
1000
,
0000
0010
0000
1000
,
0000
0001
0000
0100
,
0000
0001
0000
0001
,
0000
0100
0000
0001
,
0000
0100
0000
2002
,
0000
0000
3003
0000
;

//---------------dance-single - ----------------
#NOTES:
     dance-single:
     :
     Easy:
     5:
     0.247,0.303,0.034,0.089,0.000:
0000
0000
0000
0000
,
0000
0000
0000
0000
,
0000
0000
0000
0000
,
0000
0000
0000
0000
,
0010
0100
0010
0000
,
1000
0001
1000
0000
,
0001
0010
0001
0000
,
0100
0010
1001
0110
,
1000
0100
0010
0000
,
1000
1000
0001
0000
,
0100
0010
0001
0000
,
1000
0100
0010
0000
,
0100
0001
0100
0000
,
0010
0100
1000
0000
,
0000
1000
0000
0001
,
0000
0100
0000
0000
,
0010
0001
0010
0000
,
0100
0010
0100
0000
,
1000
0001
1000
0000
,
0010
1000
0001
0000
,
1000
0010
0001
0000
,
0100
1000
0001
0000
,
0000
0100
0000
0010
,
0000
1000
0001
1000
,
1001
0010
0100
0001
,
0000
0001
0010
1000
,
0000
0100
0010
1000
,
0000
0010
0100
0001
,
0000
0100
0001
1000
,
0000
0010
1000
0010
,
0000
0010
0001
0100
,
0000
0010
1000
2000
,
3000
1000
0000
0001
,
0000
0100
0000
0001
,
0000
0010
0000
0001
,
0000
0100
0000
0010
,
0000
1000
1000
0001
,
0000
0100
1000
0100
,
0000
0100
0010
0001
,
0020
0032
0023
0030
,
0100
0001
0010
0000
,
0100
0100
1000
0000
,
0001
0010
1000
0000
,
0100
0001
0010
0000
,
0001
1000
0001
0000
,
0010
0001
0100
0000
,
0000
0100
0000
1000
,
0000
0001
0000
0000
,
0010
1000
0010
0000
,
0001
0010
0001
0000
,
0100
1000
0100
0000
,
0010
0100
1000
0000
,
0100
0010
1000
0000
,
0001
0100
1000
0000
,
0000
0001
0000
0010
,
0000
0100
1000
0100
,
1100
1000
1000
0010
,
0000
1000
0001
0100
,
0000
0010
0100
0001
,
0000
1000
0010
0100
,
0000
0001
1000
0010
,
0000
0100
0001
1000
,
0000
0100
0010
0100
,
0000
0010
1000
0001
,
0002
0000
0203
0000
,
0300
0000
0100
0000
,
2000
0000
3020
0000
,
0030
0000
1000
0010
,
0000
0001
0001
1000
,
0000
0010
0001
0010
,
0000
0010
0100
1000
,
0200
2300
3200
0300
,
0010
1000
0100
0000
,
0010
0010
0001
0000
,
1000
0100
0001
0000
,
0010
1000
0100
0000
,
1000
0001
1000
0000
,
0100
1000
0010
0000
,
0000
0010
0000
0001
,
0000
1000
0000
0000
,
0100
0001
0100
0000
,
1000
0100
1000
0000
,
0010
0001
0010
0000
,
0100
0010
0001
0000
,
0010
0100
0001
0000
,
1000
0010
0001
0000
,
0000
1000
0000
0100
,
0000
0010
0001
0022
,
0000
0000
0033
0000
;

//---------------dance-single - ----------------
#NOTES:
     dance-single:
     :
     Medium:
     8:
     0.397,0.485,0.055,0.137,0.007:
0000
0000
0000
0000
,
0000
0000
0000
0000
,
0000
0000
0000
0000
,
0000
0000
0000
0000
,
0010
0100
0010
0000
1000
0010
0001
0000
,
0100
0010
1000
0000
0001
0100
0001
0000
,
1000
0010
1000
0000
0010
0100
0010
0000
,
0001
0010
0001
0100
1000
0110
1001
0000
,
1000
0010
0100
0001
,
1000
0010
1000
0001
,
0100
0001
0010
1000
,
0010
1000
0010
0100
,
0010
1000
0010
0100
,
0001
0100
0010
1000
,
0001
0100
1000
0100
,
0001
1000
0010
1000
,
0001
0100
0010
0100
,
0010
1000
0001
1000
,
0001
0010
1000
0010
,
0001
1000
0001
1000
,
1000
0100
1000
0010
,
0100
0001
1000
0010
,
2000
3200
0320
0032
,
0003
0100
1001
0010
,
1010
0000
1000
0000
0010
0100
1000
0000
,
1000
0000
0001
0100
0001
0000
0100
0000
,
0010
0000
0100
0010
1000
0000
0010
0000
,
1000
0000
0100
0010
0001
0000
0100
0000
,
0101
0000
0001
0000
0100
0010
0001
0000
,
0001
0000
1000
0010
1000
0000
0010
0000
,
0100
0000
0010
0100
0001
0000
0100
0000
,
0001
0000
0010
0100
1000
0000
0010
0000
,
1000
0010
1000
0010
0000
0100
0001
0100
,
0000
0010
0000
0100
0000
0001
0000
0100
,
0001
0100
0001
0100
0000
0010
1000
0010
,
0000
0100
0000
0010
0000
0001
0000
1000
,
0010
1000
0000
0010
0100
0010
0000
0100
,
0001
1000
0000
0100
1000
0001
0000
0010
,
0001
1000
0000
0010
0100
0010
0000
0100
,
0020
0230
0302
1003
,
0100
0010
0001
1000
,
0100
0010
0100
1000
,
0001
1000
0010
0100
,
0010
0100
0010
0001
,
0010
0100
0010
0001
,
1000
0001
0010
0100
,
1000
0001
0100
0001
,
1000
0100
0010
0100
,
1000
0001
0010
0001
,
0010
0100
1000
0100
,
1000
0010
0100
0010
,
1000
0100
1000
0100
,
0100
0001
0100
0010
,
0001
1000
0100
0010
,
0200
0302
0023
0230
,
0300
0001
1100
0010
,
0110
0000
0010
0000
1000
0000
0010
1000
,
0000
1000
1000
0010
,
0001
0000
0100
0000
0010
0000
0100
0001
,
0000
0100
0010
1000
,
0100
0000
0001
0000
0100
0000
0001
1000
,
0000
1000
0100
0010
,
0001
0100
0010
0010
,
1000
0001
1000
0010
,
0001
0100
0001
0100
0000
0010
1000
0010
,
1000
0100
0010
0100
0000
1000
0000
0010
,
1000
0010
1000
0010
0000
0100
0001
0100
,
0010
0000
0000
0100
0000
0000
0010
0000
0000
1000
0000
0000
0100
0000
0001
0000
,
0100
0001
0000
0100
0010
0100
0000
0010
,
1000
0001
0000
0010
0001
1000
0000
0100
,
1000
0001
0000
0100
0010
0100
0000
0010
,
0200
0320
2030
3001
,
0010
0100
1000
0001
,
0010
0100
0010
0001
,
1000
0001
0100
0010
,
0100
0010
0100
1000
,
0100
0010
0100
1000
,
0001
1000
0100
0010
,
0001
1000
0010
1000
,
0001
0010
0100
0010
,
0001
1000
0100
1000
,
0100
0010
0001
0010
,
0001
0100
0010
0100
,
0001
0010
0001
0010
,
0010
1000
0010
0100
,
1000
0001
0010
0100
,
0020
2030
3200
0320
,
0030
1000
0001
2002
,
0000
0000
3003
0000
;

//---------------dance-single - ----------------
#NOTES:
     dance-single:
     :
     Hard:
     14:
     0.536,0.697,0.158,0.055,0.151: // measure 1
0000
0000
0000
0000
,  // measure 2
0000
0000
0000
0000
,  // measure 3
0000
0000
0000
0000
,  // measure 4
0000
0000
0000
0000
,  // measure 5
0000
0100
0000
0010
0100
0010
0000
0010
,  // measure 6
0001
0010
0000
0100
0010
0001
0000
0100
,  // measure 7
1000
0010
1000
0010
0100
0010
0001
0100
,  // measure 8
0001
1000
0001
1000
0001
0110
1001
0010
,  // measure 9
1000
0010
0100
0001
,  // measure 10
0100
0010
1000
0010
,  // measure 11
0010
1000
0010
0100
0010
1000
0010
0000
,  // measure 12
0000
0100
0001
0010
0100
1000
0010
0000
,  // measure 13
1000
0010
0100
0010
1000
0000
0001
0000
,  // measure 14
0100
0010
0001
0010
0100
0000
1000
0000
,  // measure 15
1010
0000
0000
0110
0000
0000
1001
0000
,  // measure 16
0000
0101
0000
0001
0100
0001
1000
0000
,  // measure 17
0010
0100
0010
0001
,  // measure 18
0100
0000
0001
1000
0010
0000
0100
0000
,  // measure 19
0001
1000
0010
0001
0010
1000
0010
0000
,  // measure 20
0000
0100
0001
0100
1000
0100
0001
0000
,  // measure 21
0100
0010
0100
0010
0100
0000
0001
0000
,  // measure 22
1000
0010
0100
0010
1000
0000
0001
0000
,  // measure 23
0001
1001
1000
0110
,  // measure 24
0001
1000
0001
1000
0010
0100
0010
0000
,  // measure 25
1000
0000
0010
0000
1000
0010
0100
0010
1000
0000
0010
0000
0100
0000
0001
0000
,  // measure 26
0100
0000
0010
0000
0010
0100
0001
0100
0010
0000
0001
0000
1000
0000
0010
0000
,  // measure 27
1000
0000
0010
0000
0100
0010
0100
0010
0100
0000
0010
0000
1000
0000
0010
0000
,  // measure 28
0100
0000
0000
0001
0000
0000
0100
0000
0000
0000
0010
0000
0100
0010
0000
0000
,  // measure 29
0001
0000
0100
0000
0001
0100
0010
0100
0001
0000
0100
0000
0010
0000
1000
0000
,  // measure 30
0010
0000
0100
0000
0100
0010
1000
0010
0100
0000
1000
0000
0001
0000
0100
0000
,  // measure 31
0001
0000
0100
0000
0010
0100
0010
0100
0010
0000
0100
0000
0001
0000
0100
0000
,  // measure 32
0010
0000
0000
1000
0000
0000
0010
0000
0000
0000
0100
0000
0010
0000
0000
0000
,  // measure 33
1000
0100
0010
0001
0100
0000
0010
0000
0001
1000
0010
1000
0001
0000
0100
0000
,  // measure 34
0010
0100
0010
0100
0000
0000
0001
0000
1000
0000
0010
0000
0001
1000
0000
0000
,  // measure 35
0001
0100
0010
1000
0001
0000
0010
0000
1000
0000
0010
0100
0001
0000
1000
0000
,  // measure 36
0010
0100
1000
0100
0000
0000
1000
0000
0000
0000
0001
0000
0000
0000
0000
0100
,  // measure 37
0001
0000
0010
0000
0001
0000
0100
0000
0010
0000
0000
1000
0000
0000
1000
0000
,  // measure 38
0000
0100
1000
0100
0000
1000
0000
1000
,  // measure 39
0010
1000
0000
0010
0100
0001
0010
0001
,  // measure 40
0002
0000
0000
0000
0023
0000
0000
0000
0230
0000
1000
0000
1300
0010
1000
0000
,  // measure 41
0100
0010
0001
1000
,  // measure 42
0001
0010
0100
0010
,  // measure 43
0010
0100
0010
0001
0010
0100
0010
0000
,  // measure 44
0000
0001
1000
0010
0001
0100
0010
0000
,  // measure 45
0100
0010
0001
0010
0100
0000
1000
0000
,  // measure 46
0001
0010
1000
0010
0001
0000
0100
0000
,  // measure 47
0110
0000
0000
0011
0000
0000
1100
0000
,  // measure 48
0000
1001
0000
1000
0001
1000
0100
0000
,  // measure 49
0010
0001
0010
1000
,  // measure 50
0001
0000
1000
0100
0010
0000
0001
0000
,  // measure 51
1000
0100
0010
1000
0010
0100
0010
0000
,  // measure 52
0000
0001
1000
0001
0100
0001
1000
0000
,  // measure 53
0001
0010
0001
0010
0001
0000
1000
0000
,  // measure 54
0100
0010
0001
0010
0100
0000
1000
0000
,  // measure 55
1000
1100
0100
0011
,  // measure 56
1000
0100
1000
0100
0010
0001
0010
0000
,  // measure 57
0100
0000
0010
0000
1000
0000
1000
0010
,  // measure 58
0000
0000
0001
0000
0100
0001
0100
0000
,  // measure 59
0010
0000
1000
0000
0010
0000
0001
0100
,  // measure 60
0000
0000
0010
0000
0100
0010
0001
0000
,  // measure 61
0010
0000
0100
0000
0001
0000
0001
0100
,  // measure 62
0000
0000
1000
0000
0010
1000
0010
0000
,  // measure 63
0100
0000
0001
0000
0100
0000
1000
0010
,  // measure 64
1000
0100
0010
0001
0010
0100
1000
0000
,  // measure 65
0001
0010
0100
1000
0010
0000
0100
0000
1000
0001
0100
0001
1000
0000
0010
0000
,  // measure 66
0100
0010
0100
1000
0000
0100
0000
0010
,  // measure 67
1000
0010
0100
0001
1000
0000
0100
0000
0001
0000
0100
0010
1000
0000
0001
0000
,  // measure 68
0100
0010
0000
0010
0100
0000
0001
1000
0000
0001
1000
0000
1001
0000
0000
0010
,  // measure 69
1000
0000
0100
0000
1000
0000
0010
0000
0100
0000
0000
0001
0000
0000
0001
0000
,  // measure 70
0000
0010
0001
0010
0000
0001
0000
0001
,  // measure 71
0100
0001
0000
0100
0010
1000
0100
1000
,  // measure 72
2000
0000
0000
0000
3200
0000
0000
0000
0320
0000
0001
0000
0031
0100
0001
0000
,  // measure 73
0001
0100
0010
1000
,  // measure 74
0010
0100
0001
0100
,  // measure 75
0100
0000
0100
0010
0100
0000
0100
0000
,  // measure 76
1001
1000
0010
0100
,  // measure 77
0001
0100
0010
0100
0001
0000
1000
0000
,  // measure 78
0010
0100
1000
0100
0010
0000
0001
0000
,  // measure 79
0101
0000
0000
0110
0000
0000
1001
0000
,  // measure 80
0000
1010
0000
1000
0010
1000
0001
0000
,  // measure 81
0100
0010
0100
1000
,  // measure 82
0010
0000
1000
0001
0100
0000
0010
0000
,  // measure 83
1000
0000
0100
1000
0100
0000
0100
0000
,  // measure 84
0010
1000
0001
1000
,  // measure 85
0010
0100
0010
0100
0010
0000
1000
0000
,  // measure 86
0001
0100
0010
0100
0001
0000
1000
0000
,  // measure 87
1000
1001
0001
0110
,  // measure 88
1000
0001
1000
0001
0100
0010
2002
0000
,  // measure 89
0000
0000
3003
0000
;
