#TITLE:favOriTe;
#SUBTITLE:;
#ARTIST:LOONA;
#TITLETRANSLIT:;
#SUBTITLETRANSLIT:;
#ARTISTTRANSLIT:;
#CREDIT:;
#BANNER:favOriTe.png;
#BACKGROUND:favOriTe-bg.png;
#LYRICSPATH:;
#CDTITLE:;
#MUSIC:favOriTe.mp3;
#OFFSET:-0.340;
#SAMPLESTART:100.900;
#SAMPLELENGTH:15.000;
#SELECTABLE:YES;
#BPMS:0.000=198.000,196.000=99.000,232.000=198.000;
#STOPS:;
#BGCHANGES:-0.840=favOriTe.avi=1.000=0=0=0,
99999=-nosongbg-=1.000=0=0=0 // don't automatically add -songbackground-
;

//---------------dance-single - ----------------
#NOTES:
     dance-single:
     :
     Beginner:
     2:
     0.160,0.219,0.094,0.031,0.000:
0000
0000
0000
0000
,
0001
0000
0000
0000
,
0010
0000
0000
0000
,
0001
0000
0000
0000
,
1000
0000
0000
0000
,
0100
0000
0000
0000
,
1000
0000
0000
0000
,
0010
0000
0000
0000
,
1000
0000
0010
0000
,
1001
0000
0010
0000
,
0000
0000
0100
0000
,
0000
0000
0001
0000
,
0000
0000
1000
0000
,
0000
0000
0010
0000
,
0000
0000
0100
0000
,
0000
0000
0010
0000
,
0000
0000
1000
0000
,
0000
0000
0001
0000
,
0000
0000
0100
0000
,
0000
0000
0010
0000
,
0000
0000
1000
0000
,
0000
0000
0001
0000
,
0000
0000
0100
0000
,
0110
0000
0000
0000
,
1001
0000
0000
0000
,
1000
0000
0010
0000
,
1000
0000
0000
0000
,
0010
0000
0001
0000
,
0010
0000
0000
0000
,
1000
0000
0001
0000
,
1000
0000
0000
0000
,
0001
0000
1000
0000
,
0001
0000
1000
0000
,
1001
0000
0000
0000
,
0010
0000
0000
0000
,
0100
0000
0000
0000
,
0001
0000
0000
0000
,
1000
0000
0000
0000
,
0010
0000
0000
0000
,
0100
0000
0000
0000
,
0010
0000
0000
0000
,
1001
0000
0000
0000
,
0001
0000
0000
0000
,
0100
0000
0000
0000
,
0010
0000
0000
0000
,
0010
0000
0000
0000
,
1000
0000
0000
0000
,
0010
0000
0000
0000
,
0100
0000
0000
0000
,
0110
0010
0000
1000
,
0000
0001
0000
0010
,
0000
0001
0000
0100
,
0000
0010
0000
1000
,
0000
1000
1000
1000
,
0000
0100
0000
0010
,
0000
0001
0001
0001
,
0000
0100
0000
0010
,
0000
0000
0110
0000
,
1000
0000
0010
0000
,
1000
0000
0010
0000
,
0100
0000
0001
0000
,
0100
0000
0001
0000
,
0010
0000
0100
0000
,
1000
0000
0010
0000
,
0001
0000
0100
0000
,
1000
0000
0100
0000
,
0001
0000
1000
0000
,
0001
0000
0100
0000
,
0001
0000
0100
0100
,
0100
0000
0010
0000
,
1000
0000
0010
0000
,
0100
0000
0001
0000
,
0100
0000
1000
0000
,
0010
0000
1000
0000
,
1001
0000
0000
0000
,
0100
0000
0000
0000
,
0010
0000
0000
0000
,
1000
0000
0000
0000
,
0001
0000
0000
0000
,
0100
0000
0000
0000
,
0010
0000
0000
0000
,
0100
0000
0000
0000
,
1001
0000
0000
0000
,
1000
0000
0000
0000
,
0010
0000
0000
0000
,
0100
0000
0000
0000
,
0100
0000
0000
0000
,
0001
0000
0000
0000
,
0100
0000
0000
0000
,
0010
0000
0000
0000
,
0110
0000
0000
0000
,
0000
2002
0000
0000
,
3003
2002
0000
0000
,
3003
0000
0000
0000
;

//---------------dance-single - ----------------
#NOTES:
     dance-single:
     :
     Easy:
     5:
     0.316,0.510,0.125,0.212,0.000:
0000
0000
0000
0000
,
0100
0000
0000
1000
,
1000
0000
0000
0000
,
0010
0000
0000
0100
,
0100
0000
0000
0000
,
1000
0000
0000
0001
,
0001
0000
0000
0000
,
0001
0000
0000
0100
,
0001
0010
0100
1000
,
1010
0000
1000
0000
,
0010
1000
0100
0000
,
0001
0000
0100
0000
,
0010
0100
0010
0000
,
0100
0000
0001
0000
,
0001
1000
0010
0000
,
1000
0000
0001
0000
,
0100
1000
0100
0000
,
0010
0000
0001
0000
,
0001
0100
0001
0000
,
1000
0000
0010
0000
,
0010
1000
0001
0000
,
0100
0000
0010
0000
,
1000
0001
1000
0000
,
0110
0000
0000
0000
,
0101
0000
0010
0010
,
0010
0000
1000
0000
,
0001
0000
0100
0000
,
0001
0000
0100
0000
,
1000
0000
0100
0000
,
0010
0001
0001
0000
,
0100
1000
1000
0000
,
0100
0000
0001
0000
,
1000
0110
0001
0000
,
1000
0010
1000
0000
,
2000
0000
3000
0000
,
0010
0100
0001
0000
,
0001
0002
0000
0003
,
1000
0010
1000
0000
,
0010
0000
0100
0000
,
0002
0000
0023
0000
,
0230
0000
2300
0000
,
3010
0100
0010
0000
,
0100
0010
1000
0000
,
0100
1000
0001
0000
,
0010
0100
0010
0000
,
0100
0010
0001
0000
,
0020
0000
0030
0000
,
0002
0000
0023
0000
,
0230
0000
2300
0000
,
3010
1000
0000
0010
,
0100
0010
0000
0001
,
0010
0010
0000
1000
,
0100
1000
0000
1000
,
0001
1000
0000
0100
,
0010
0001
0000
1000
,
0100
1000
0000
0010
,
0001
0010
0000
0220
,
0000
0000
0330
0000
,
1000
0001
1000
0001
,
1000
0010
0100
0010
,
0100
0001
0010
0001
,
1000
0100
1000
0001
,
0010
0100
1000
0010
,
1000
0001
0100
0001
,
1000
0010
0001
0010
,
0110
1001
0110
1001
,
0110
0010
0100
0001
,
1000
0001
0100
0001
,
1000
0010
0100
0001
,
0010
0001
0010
0100
,
2000
0010
3010
0002
,
0100
0103
0000
0100
,
0010
0000
1001
0000
,
0110
0000
1001
0000
,
0001
0100
0001
0000
,
0002
0000
0003
0000
,
0100
0010
1000
0000
,
1000
1010
0000
1010
,
0001
0100
0001
0000
,
0100
0010
0010
0000
,
2000
0000
3200
0000
,
0320
0000
0032
0000
,
0103
0010
0100
0000
,
0010
0100
0001
0000
,
0010
0001
1000
0000
,
0100
0010
0100
0000
,
0010
0100
1000
0000
,
0200
0010
0310
1000
,
2000
0000
3200
0000
,
0320
0000
0032
0000
,
0103
0000
0000
0000
,
0000
0000
0000
0000
,
0000
0220
0000
0000
,
0330
0000
0000
0000
;

//---------------dance-single - ----------------
#NOTES:
     dance-single:
     :
     Medium:
     7:
     0.398,0.474,0.219,0.172,0.000:
0000
0000
0000
0000
,
1000
0000
0000
0010
0000
0000
1000
0000
,
1000
0000
0000
0010
0000
0000
0100
0000
,
0100
0000
0000
0001
0000
0000
0001
0000
,
0001
0000
1000
0001
0000
0000
0100
0000
,
0100
0000
0000
1000
0000
0000
0100
0000
,
0100
0000
0000
1000
0000
0000
0001
0000
,
0001
0000
0000
0010
0000
0000
0010
0000
,
0010
0110
0101
1010
,
1000
0000
0100
0010
0001
0000
1000
0000
,
0010
0000
0100
0001
1000
0000
0100
0000
,
0010
0000
1000
0100
0010
0000
0001
0000
,
0100
0000
0010
0100
0010
0000
1000
0000
,
0001
0000
1000
0001
0100
0000
0010
0000
,
0100
0000
0010
0001
0100
0000
0010
0000
,
1000
0000
0100
1000
0001
0000
0100
0000
,
0010
0100
0000
0010
0000
1000
0000
0001
,
1000
0000
0010
0100
0001
0000
0100
0010
,
1000
0000
1001
0000
,
1000
0000
0001
1000
0001
0000
0100
0010
,
0100
0000
0010
0000
,
0001
0000
0100
0001
0100
0000
0010
0000
,
1000
0000
0010
0100
0010
0000
0100
0000
,
0110
0000
0000
0000
,
1001
0000
0010
0010
,
0100
0010
1000
0100
,
0001
0010
0001
0100
,
0010
1000
0100
1000
,
0010
0100
0010
0001
,
0010
0001
0100
0100
,
0010
1000
0000
1000
,
0001
0000
1001
0000
,
0100
0000
0110
0000
,
0100
0010
0001
0010
,
0200
0000
0300
0000
,
0001
1000
0010
1000
,
0001
1100
0000
0101
,
0001
1000
0010
1000
,
0010
2000
0000
3000
,
2000
0000
3002
0000
,
2003
0000
3020
0000
,
0130
0010
1000
0001
,
0100
0010
0000
0100
,
0010
1000
0100
0010
,
0001
0000
0000
0000
,
0001
0100
1000
0100
,
0002
0000
0003
0000
,
0110
0000
1001
0000
,
0110
0000
0010
0000
,
0200
0000
0000
0320
0000
0100
0100
0130
,
0010
0000
1000
0000
0001
0000
1000
0001
,
2000
0000
0000
3002
0000
0000
0000
0003
,
0000
0000
0100
0000
0000
0100
0010
0100
,
0010
1000
0001
0100
,
0001
0100
0010
1000
,
0010
1000
0100
1000
,
0001
0010
0001
2002
,
0000
3003
0110
0000
,
1000
0001
1000
0001
,
1000
0010
0100
0010
,
0100
0001
0100
0010
,
0001
0100
0010
1000
,
0010
0100
0010
0001
,
0010
1000
0100
1000
,
0100
0010
0001
0010
,
0011
0100
0110
0010
,
1010
1000
0010
0100
,
0010
1000
0100
1000
,
0001
0010
0001
0100
,
0010
0100
0001
1000
,
0001
1000
0010
1000
,
0001
1000
0000
1000
,
1000
0000
1001
0000
,
0010
0000
0110
0000
,
0010
0100
1000
0100
,
0020
0000
0030
0000
,
1000
0001
0100
0001
,
1000
0011
0000
1010
,
1000
0001
0100
0001
,
0100
0002
0000
0003
,
0002
0000
2003
0000
,
3002
0000
0203
0000
,
0310
0100
0001
1000
,
0010
0100
0000
0010
,
0100
0001
0010
0100
,
2000
0000
3000
0000
,
1000
0010
0001
0010
,
1000
1001
0010
0110
,
0010
0000
1001
0000
,
0110
0000
0100
0000
,
1001
0000
0000
0000
,
0000
0000
0000
0000
,
0000
0220
0000
0000
,
0330
0000
0000
0000
;

//---------------dance-single - ----------------
#NOTES:
     dance-single:
     :
     Hard:
     12:
     0.504,0.583,0.204,0.204,0.059: // measure 1
0000
0000
0000
0000
,  // measure 2
0001
0000
0000
0100
0000
0000
0010
0000
,  // measure 3
0001
0000
0000
1000
0000
0000
0010
0000
,  // measure 4
1000
0000
0000
0010
0000
0000
0100
0000
,  // measure 5
0010
0000
0100
0010
0000
0000
1000
0000
,  // measure 6
1000
0000
0000
1000
0000
0000
0010
0000
,  // measure 7
0100
0000
0000
0010
0000
0000
0010
0000
,  // measure 8
0001
0000
0000
0100
0000
0000
1000
0000
,  // measure 9
1001
0010
0110
0100
,  // measure 10
1001
0000
1000
0100
0010
0000
0100
0000
,  // measure 11
0001
0000
0001
0100
0010
0000
0100
0000
,  // measure 12
0010
0000
0100
0010
0100
0000
0010
0100
,  // measure 13
0000
0001
1000
0001
,  // measure 14
1000
0000
0010
0100
1000
0000
0010
0000
,  // measure 15
1000
0000
1000
0100
0010
0000
0100
0000
,  // measure 16
0001
0000
0100
0001
1000
0000
0010
0000
,  // measure 17
0100
0001
0000
0100
0000
0010
0000
0001
,  // measure 18
0100
0000
0010
0100
0010
0000
0100
0000
,  // measure 19
0020
0000
0000
0000
0130
0000
0000
1000
,  // measure 20
0100
0000
1000
0100
0010
0000
0100
0000
,  // measure 21
0001
0100
0010
0100
,  // measure 22
0001
0000
0001
0010
1000
0000
1000
0010
,  // measure 23
0001
0100
0010
0000
0000
0010
0100
0000
,  // measure 24
1001
0000
0000
0220
,  // measure 25
0330
0000
0010
0100
0010
0000
0100
0010
,  // measure 26
0100
0001
0010
0100
,  // measure 27
1000
0010
1000
0010
0100
0000
1000
0010
,  // measure 28
0001
0010
1000
0001
,  // measure 29
0100
0001
0100
0010
1000
0010
1000
0010
,  // measure 30
0100
0010
1000
0010
,  // measure 31
0100
0001
0000
0100
,  // measure 32
0001
0000
0011
0000
,  // measure 33
1000
0000
1010
0000
,  // measure 34
1000
0010
0001
0010
1000
0010
0001
0020
,  // measure 35
0000
0000
0030
0000
,  // measure 36
0001
0100
0001
0100
0010
1000
0010
1000
,  // measure 37
0000
0110
0000
1001
,  // measure 38
0010
0100
0010
0100
0001
1000
0001
1000
,  // measure 39
0000
0001
0010
0100
0000
0000
1000
0000
,  // measure 40
2000
0000
3010
1000
0002
0000
0103
0000
,  // measure 41
0010
0000
0000
1001
0000
0000
0100
0000
,  // measure 42
0010
0100
0000
0010
0000
1000
0001
0000
,  // measure 43
0100
0010
0100
0001
,  // measure 44
0010
0001
0000
0100
0000
0010
1000
0000
,  // measure 45
1000
0010
2000
0000
,  // measure 46
3010
0100
0010
0100
0010
0001
0010
0200
,  // measure 47
0000
0000
1300
1000
,  // measure 48
0020
0000
0000
0030
0200
0000
0000
0300
,  // measure 49
0002
0000
0000
0003
2000
0000
0000
3000
,  // measure 50
0010
0000
0000
0000
1000
0000
0000
0000
0010
0000
1000
0010
1000
0000
0100
0000
,  // measure 51
0010
0000
0100
0000
0001
0000
0100
0010
,  // measure 52
0000
0000
0000
0000
0000
0000
0000
0000
0010
0100
0010
1000
,  // measure 53
0100
0000
0010
0000
0001
0000
0100
0000
0010
0000
0000
0000
0000
0000
0000
0010
0000
0000
1000
0000
0000
0010
0000
0000
,  // measure 54
0100
0010
0000
0000
0010
0100
0000
0000
0001
0000
0000
0000
1000
0001
0000
0000
,  // measure 55
0001
0000
0000
0000
1001
0000
0000
0000
0010
0000
0100
0010
0100
0000
0010
0000
,  // measure 56
1000
0000
0100
0000
0000
0000
0010
0000
0001
0000
0000
0000
0000
0000
0001
0010
,  // measure 57
0100
0000
1000
0100
0000
0100
1000
0000
0010
0200
0000
0000
0000
0000
0000
0000
,  // measure 58
0000
0000
0300
0000
0110
0000
0100
0010
,  // measure 59
1000
0000
0001
0000
1000
0000
0001
1000
,  // measure 60
0100
0010
0100
0010
,  // measure 61
1000
0000
0001
0000
0100
0000
0001
0100
,  // measure 62
0001
0100
0010
1000
,  // measure 63
0010
0000
1000
0000
0001
0000
0001
0010
,  // measure 64
0100
0010
1000
0010
,  // measure 65
1000
0000
0010
0000
0100
0000
0010
1000
,  // measure 66
1001
0101
1100
1010
,  // measure 67
0011
0001
0100
0010
,  // measure 68
1000
0000
0010
0100
0010
0000
0100
0010
,  // measure 69
0100
0001
0010
0100
,  // measure 70
1000
0000
0001
0100
0001
1000
0010
1000
,  // measure 71
0001
0100
0101
1000
,  // measure 72
0010
1010
0100
0010
,  // measure 73
0100
0000
0110
0000
,  // measure 74
0010
0000
2002
3003
,  // measure 75
0001
0100
1000
0100
0001
0100
1000
0200
,  // measure 76
0000
0000
0300
0000
,  // measure 77
1000
0010
1000
0010
0100
0001
0100
0001
,  // measure 78
0000
0110
0000
1001
,  // measure 79
0100
0010
0100
0010
1000
0001
1000
0001
,  // measure 80
0000
1000
0100
0010
0000
0000
0001
0000
,  // measure 81
0002
0000
0103
0001
2000
0000
3010
0000
,  // measure 82
0100
0000
0000
1001
0000
0000
0010
0000
,  // measure 83
0100
0010
0000
0100
0000
0001
1000
0000
,  // measure 84
0010
0100
0010
1000
,  // measure 85
0100
1000
0000
0010
0000
0100
0001
0000
,  // measure 86
0001
0100
0002
0000
,  // measure 87
0103
0010
0100
0010
0100
1000
0100
0020
,  // measure 88
0000
0001
0031
0001
,  // measure 89
0200
0000
0000
0300
0020
0000
0000
0030
,  // measure 90
2000
0000
0000
3000
0002
0000
0000
0003
,  // measure 91
0101
0000
0000
0000
,  // measure 92
0000
0000
0000
0000
,  // measure 93
0000
0220
0000
0000
,  // measure 94
0330
0000
0000
0000
;
